osu file format v14

[General]
AudioFilename: audio.mp3
AudioLeadIn: 0
PreviewTime: 42701
Countdown: 0
SampleSet: Soft
StackLeniency: 0.4
Mode: 0
LetterboxInBreaks: 0
SkinPreference:Default
WidescreenStoryboard: 1

[Editor]
Bookmarks: 1402,11727,32376,42701,53026,63351,65932,84000,94325
DistanceSpacing: 1
BeatDivisor: 4
GridSize: 16
TimelineZoom: 3.599999

[Metadata]
Title:...Baby One More Time
TitleUnicode:...Baby One More Time
Artist:Britney Spears
ArtistUnicode:Britney Spears
Creator:Nitroz
Version:Aranel's Normal
Source:
Tags:English Pop Jive Hit Me Dance Aranel
BeatmapID:3423797
BeatmapSetID:1064735

[Difficulty]
HPDrainRate:4
CircleSize:3.5
OverallDifficulty:4
ApproachRate:5
SliderMultiplier:1.28
SliderTickRate:1

[Events]
//Background and Video events
0,0,"britney.jpg",0,0
//Break Periods
2,125500,134425
//Storyboard Layer 0 (Background)
//Storyboard Layer 1 (Fail)
//Storyboard Layer 2 (Pass)
//Storyboard Layer 3 (Foreground)
//Storyboard Layer 4 (Overlay)
//Storyboard Sound Samples

[TimingPoints]
112,645.300064530006,4,2,1,40,1,0
1402,-100,4,2,1,40,0,0
42701,-80,4,2,1,55,0,1
63351,-100,4,2,1,55,0,0
65286,-100,4,2,1,45,0,0
65932,-100,4,2,1,40,0,0
94325,-80,4,2,1,55,0,1
114975,-100,4,2,1,55,0,0
115297,-100,4,2,1,40,0,0
144658,-80,4,2,1,40,0,0
145949,-80,4,2,1,55,0,1
161436,-100,4,2,1,55,0,1
162727,-80,4,2,1,55,0,1
166599,-100,4,2,1,50,0,0
168534,-80,4,2,1,50,0,0
169180,-80,4,2,1,55,0,1
187249,-100,4,2,1,55,0,0

[Colours]
Combo1 : 233,181,22
Combo2 : 219,36,123
Combo3 : 43,183,230
Combo4 : 185,18,248

[HitObjects]
256,64,1402,6,0,L|320:64,1,64,4|2,1:2|0:0,0:0:0:0:
384,64,2047,1,10,0:0:0:0:
384,192,2693,2,0,L|320:192,1,64,2|2,1:2|0:3,0:0:0:0:
256,192,3338,1,8,0:0:0:0:
128,192,3983,6,0,L|128:256,1,64,0|4,1:0|0:3,0:0:0:0:
128,320,4629,2,0,L|256:320,1,128,8|4,0:0|0:3,0:0:0:0:
320,320,5597,1,2,1:0:0:0:
384,320,5919,2,0,L|384:256,1,64,10|2,1:0|1:1,0:0:0:0:
384,192,6565,6,0,L|320:192,1,64,0|2,1:0|0:0,0:0:0:0:
256,192,7210,1,10,0:0:0:0:
128,192,7855,1,2,1:2:0:0:
128,256,8178,1,2,0:3:0:0:
128,320,8500,1,8,0:0:0:0:
256,320,9146,6,0,L|256:256,1,64,0|2,1:2|0:0,0:0:0:0:
256,192,9791,2,0,L|256:128,1,64,10|2,0:0|0:0,0:0:0:0:
256,64,10436,1,4,0:3:0:0:
256,64,11727,6,0,L|256:192,1,128,4|10,1:1|0:0,0:0:0:0:
256,256,12695,1,2,0:0:0:0:
256,320,13018,2,0,L|192:320,1,64,2|2,1:2|0:3,0:0:0:0:
128,320,13663,1,8,0:0:0:0:
128,192,14308,2,0,L|128:128,1,64,2|2,1:2|0:0,0:0:0:0:
128,64,14953,1,10,0:0:0:0:
192,64,15276,2,0,L|320:64,1,128,2|2,0:0|0:3,0:0:0:0:
384,64,16244,2,0,L|384:128,1,64,10|2,0:0|0:3,0:0:0:0:
384,192,16889,6,0,L|320:192,1,64,0|8,1:0|0:3,0:0:0:0:
256,192,17535,1,8,0:0:0:0:
256,320,18180,2,0,L|192:320,2,64,0|2|8,1:0|2:3|2:0,0:0:0:0:
320,320,19148,1,2,0:0:0:0:
384,320,19471,6,0,L|384:256,1,64,2|2,1:2|0:0,0:0:0:0:
384,192,20116,2,0,L|384:128,1,64,10|2,0:0|0:0,0:0:0:0:
384,64,20761,1,2,1:2:0:0:
320,64,21084,1,2,1:0:0:0:
256,64,21406,2,0,L|192:64,1,64,10|2,1:0|1:1,0:0:0:0:
128,64,22052,6,0,L|128:192,1,128,6|10,1:2|0:0,0:0:0:0:
128,256,23020,1,2,0:0:0:0:
128,320,23342,2,0,L|192:320,1,64,2|2,1:2|0:3,0:0:0:0:
256,320,23988,1,8,0:0:0:0:
256,192,24633,2,0,L|256:128,1,64,2|2,1:2|0:0,0:0:0:0:
256,64,25278,1,10,0:0:0:0:
192,64,25601,2,0,B|128:64|128:64|128:128,1,128,2|2,0:0|0:3,0:0:0:0:
128,192,26569,2,0,L|128:256,1,64,10|2,0:0|0:3,0:0:0:0:
128,320,27214,6,0,L|192:320,1,64,0|8,1:0|0:3,0:0:0:0:
256,320,27859,1,8,0:0:0:0:
256,192,28505,2,0,L|192:192,2,64,0|2|8,1:0|2:3|2:0,0:0:0:0:
320,192,29473,1,2,0:0:0:0:
384,192,29795,6,0,L|384:256,1,64,2|2,1:2|0:0,0:0:0:0:
384,320,30441,2,0,L|320:320,1,64,10|2,0:0|0:0,0:0:0:0:
256,320,31086,1,2,1:2:0:0:
256,256,31409,1,2,1:0:0:0:
256,192,31731,1,10,1:0:0:0:
256,128,32054,1,2,1:1:0:0:
256,64,32377,6,0,L|128:64,1,128,4|10,1:2|0:0,0:0:0:0:
128,192,33667,2,0,L|192:192,1,64,2|2,1:2|0:3,0:0:0:0:
256,192,34312,2,0,L|320:192,1,64,10|2,0:0|0:0,0:0:0:0:
384,192,34958,2,0,L|384:320,2,128,2|10|0,1:2|0:0|1:0,0:0:0:0:
384,64,36894,2,0,L|320:64,1,64,10|2,0:0|0:3,0:0:0:0:
256,64,37539,6,0,L|256:192,1,128,2|10,1:2|0:0,0:0:0:0:
256,320,38830,2,0,L|192:320,1,64,2|2,1:2|0:3,0:0:0:0:
128,320,39475,2,0,L|128:256,1,64,10|2,0:0|0:0,0:0:0:0:
128,192,40120,2,0,L|256:192,2,128,2|10|2,1:2|0:2|1:2,0:0:0:0:
128,128,41733,1,2,1:0:0:0:
128,64,42056,2,0,L|192:64,1,64,10|2,1:0|1:1,0:0:0:0:
256,32,42701,6,0,L|256:112,1,80,4|8,1:1|0:3,0:0:0:0:
256,192,43347,1,10,0:2:0:0:
256,272,43669,1,2,0:2:0:0:
256,352,43992,2,0,L|416:352,1,160,2|8,1:2|0:0,0:0:0:0:
416,272,44960,1,2,0:0:0:0:
416,192,45283,1,2,1:2:0:0:
416,112,45605,1,2,0:2:0:0:
416,32,45928,1,10,0:2:0:0:
256,32,46573,2,0,L|96:32,1,160,2|10,1:2|0:2,0:0:0:0:
96,192,47864,6,0,L|176:192,1,80,0|8,1:2|0:3,0:0:0:0:
256,192,48509,1,10,0:2:0:0:
336,192,48832,1,2,0:2:0:0:
416,192,49154,2,0,L|416:352,1,160,2|8,1:2|0:0,0:0:0:0:
336,352,50122,1,2,0:0:0:0:
256,352,50445,2,0,L|256:272,1,80,2|2,1:2|0:2,0:0:0:0:
256,192,51090,1,10,0:2:0:0:
256,32,51736,6,0,L|176:32,1,80,2|2,1:2|0:3,0:3:0:0:
96,32,52381,2,0,L|96:112,1,80,8|2,0:2|0:3,0:3:0:0:
96,192,53026,6,0,L|96:272,1,80,4|8,1:2|0:3,0:0:0:0:
96,352,53671,1,10,0:2:0:0:
176,352,53994,1,2,0:0:0:0:
256,352,54317,2,0,L|256:272,1,80,2|2,1:2|0:3,0:0:0:0:
256,192,54962,2,0,L|336:192,2,80,8|2|2,0:0|0:0|1:2,0:0:0:0:
176,192,55930,1,2,0:2:0:0:
96,192,56253,1,10,0:2:0:0:
96,32,56898,5,2,1:2:0:0:
176,32,57221,1,2,0:3:0:0:
256,32,57543,1,10,0:2:0:0:
336,32,57866,2,2,B|336:192|336:192|176:192|176:192|176:352,1,480,2|2,0:3|0:2,0:1:0:0:
96,352,60124,1,8,0:2:0:0:
96,192,60770,6,0,L|176:192,1,80,2|2,1:2|0:2,0:0:0:0:
256,192,61415,2,0,L|336:192,1,80,8|2,0:2|0:2,0:0:0:0:
416,192,62060,1,2,1:2:0:0:
416,112,62383,1,2,1:0:0:0:
416,32,62706,1,10,1:0:0:0:
256,192,63351,5,4,1:0:0:0:
256,192,65287,5,8,0:0:0:0:
384,192,65932,2,0,L|384:256,1,64,6|2,1:2|0:0,0:0:0:0:
384,320,66577,1,10,0:0:0:0:
320,320,66900,2,0,L|192:320,1,128,2|2,0:0|0:3,0:0:0:0:
128,320,67868,2,0,L|128:256,1,64,10|2,0:0|0:3,0:0:0:0:
128,192,68513,6,0,L|192:192,1,64,0|8,1:0|0:3,0:0:0:0:
256,192,69159,1,8,0:0:0:0:
256,64,69804,2,0,L|320:64,2,64,0|2|8,1:0|2:3|2:0,0:0:0:0:
128,64,71095,6,0,L|128:128,1,64,2|2,1:2|0:0,0:0:0:0:
128,192,71740,2,0,L|128:256,1,64,10|2,0:0|0:0,0:0:0:0:
128,320,72385,1,2,1:2:0:0:
192,320,72708,1,2,1:0:0:0:
256,320,73030,2,0,L|320:320,1,64,10|2,1:0|1:1,0:0:0:0:
384,320,73676,6,0,L|384:192,1,128,6|10,1:2|0:0,0:0:0:0:
384,128,74644,1,2,0:0:0:0:
384,64,74966,2,0,L|320:64,1,64,2|2,1:2|0:3,0:0:0:0:
256,64,75612,1,10,0:0:0:0:
256,128,75934,1,2,0:0:0:0:
256,256,76580,1,2,0:0:0:0:
256,320,76902,1,8,0:0:0:0:
320,320,77225,2,0,B|384:320|384:320|384:256,1,128,2|2,0:0|0:3,0:0:0:0:
384,192,78193,2,0,L|384:128,1,64,8|2,0:0|0:3,0:0:0:0:
384,64,78838,6,0,L|320:64,1,64,2|8,1:2|0:3,0:0:0:0:
256,64,79483,1,10,0:0:0:0:
256,192,80129,2,0,L|320:192,2,64,0|2|8,1:0|2:3|2:0,0:0:0:0:
192,192,81097,1,2,0:0:0:0:
128,192,81419,6,0,L|128:128,1,64,2|2,1:2|0:0,0:0:0:0:
128,64,82065,2,0,L|192:64,1,64,10|2,0:0|0:0,0:0:0:0:
256,64,82710,1,2,1:2:0:0:
256,128,83033,1,2,1:0:0:0:
256,192,83355,1,10,1:0:0:0:
256,256,83678,1,2,1:1:0:0:
256,320,84001,6,0,L|384:320,1,128,4|10,1:2|0:0,0:0:0:0:
384,192,85291,2,0,L|320:192,1,64,2|2,1:2|0:3,0:0:0:0:
256,192,85936,2,0,L|192:192,1,64,10|2,0:0|0:0,0:0:0:0:
128,192,86582,2,0,L|128:64,2,128,2|10|0,1:2|0:0|1:0,0:0:0:0:
128,320,88518,2,0,L|192:320,1,64,10|2,0:0|0:3,0:0:0:0:
256,320,89163,6,0,L|256:192,1,128,2|10,1:2|0:0,0:0:0:0:
256,64,90454,2,0,L|320:64,1,64,2|2,1:2|0:3,0:0:0:0:
384,64,91099,2,0,L|384:128,1,64,10|2,0:0|0:0,0:0:0:0:
384,192,91744,2,0,L|256:192,2,128,2|10|2,1:2|0:2|1:2,0:0:0:0:
384,256,93357,1,2,1:0:0:0:
384,320,93680,2,0,L|320:320,1,64,10|2,1:0|1:1,0:0:0:0:
256,352,94325,6,0,L|256:272,1,80,4|8,1:1|0:3,0:0:0:0:
256,192,94971,1,10,0:2:0:0:
256,112,95293,1,2,0:2:0:0:
256,32,95616,2,0,L|96:32,1,160,2|8,1:2|0:0,0:0:0:0:
96,112,96584,1,2,0:0:0:0:
96,192,96907,1,2,1:2:0:0:
96,272,97229,1,2,0:2:0:0:
96,352,97552,1,10,0:2:0:0:
256,352,98197,2,0,L|416:352,1,160,2|10,1:2|0:2,0:0:0:0:
416,192,99488,6,0,L|336:192,1,80,0|8,1:2|0:3,0:0:0:0:
256,192,100133,1,10,0:2:0:0:
176,192,100456,1,2,0:2:0:0:
96,192,100778,2,0,L|96:32,1,160,2|8,1:2|0:0,0:0:0:0:
176,32,101746,1,2,0:0:0:0:
256,32,102069,2,0,L|256:112,1,80,2|2,1:2|0:2,0:0:0:0:
256,192,102714,1,10,0:2:0:0:
256,352,103360,6,0,L|336:352,1,80,2|2,1:2|0:3,0:3:0:0:
416,352,104005,2,0,L|416:272,1,80,8|2,0:2|0:3,0:3:0:0:
416,192,104650,6,0,L|416:112,1,80,4|8,1:2|0:3,0:0:0:0:
416,32,105295,1,10,0:2:0:0:
336,32,105618,1,2,0:0:0:0:
256,32,105941,2,0,L|256:112,1,80,2|2,1:2|0:3,0:0:0:0:
256,192,106586,2,0,L|176:192,2,80,8|2|2,0:0|0:0|1:2,0:0:0:0:
336,192,107554,1,2,0:2:0:0:
416,192,107877,1,10,0:2:0:0:
416,352,108522,5,2,1:2:0:0:
336,352,108845,1,2,0:3:0:0:
256,352,109167,1,10,0:2:0:0:
176,352,109490,2,2,B|176:192|176:192|336:192|336:192|336:32,1,480,2|2,0:3|0:2,0:1:0:0:
416,32,111748,1,8,0:2:0:0:
416,192,112394,5,6,1:2:0:0:
96,192,113684,1,2,1:2:0:0:
96,272,114007,1,2,1:0:0:0:
96,352,114330,1,10,1:0:0:0:
256,320,114975,6,0,B|384:320|384:320|384:64|384:64,1,384,4|8,1:1|0:0,0:0:0:0:
256,64,117556,2,0,B|128:64|128:64|128:192,1,256,0|0,1:2|1:2,0:0:0:0:
192,192,119169,1,2,1:0:0:0:
256,192,119492,1,10,1:0:0:0:
256,256,119815,1,2,1:1:0:0:
256,320,120137,6,0,B|128:320|128:320|128:64|128:64,1,384,4|8,1:2|0:0,0:0:0:0:
256,64,122719,2,0,B|384:64|384:64|384:192,1,256,0|0,1:2|1:2,0:0:0:0:
320,192,124332,1,2,0:1:0:0:
256,192,124654,2,0,L|256:256,1,64,2|2,0:1|0:1,0:0:0:0:
256,320,125300,1,6,3:2:0:0:
128,192,135625,6,0,L|384:192,1,256,6|2,3:2|0:0,0:0:0:0:
384,64,137560,1,2,3:2:0:0:
256,64,138206,2,0,L|256:320,1,256,2|0,3:2|0:0,0:0:0:0:
384,320,140142,1,0,3:2:0:0:
384,192,140787,2,0,L|128:192,2,256,0|2|0,3:2|3:2|3:2,0:0:0:0:
256,32,144659,6,2,L|256:112,1,80,2|2,3:2|0:2,0:0:0:0:
256,192,145304,2,2,L|256:272,1,80,10|2,1:2|0:3,0:0:0:0:
256,352,145949,2,0,L|96:352,1,160,4|8,1:1|0:2,0:0:0:0:
96,272,146917,1,2,0:2:0:0:
96,192,147240,1,2,1:2:0:0:
176,192,147563,1,2,0:3:0:0:
256,192,147885,1,8,0:0:0:0:
336,192,148208,1,2,0:0:0:0:
416,192,148531,6,0,L|416:32,1,160,0|8,1:2|0:2,0:0:0:0:
336,32,149498,1,2,0:2:0:0:
256,32,149821,1,2,1:2:0:0:
256,112,150144,1,2,0:3:0:0:
256,192,150466,1,10,0:2:0:0:
256,272,150789,1,2,0:3:0:0:
256,352,151112,5,0,1:2:0:0:
96,192,151757,1,10,0:2:0:0:
256,32,152402,1,0,1:2:0:0:
416,192,153048,1,10,0:0:0:0:
336,192,153370,1,2,0:0:0:0:
256,192,153693,2,0,L|256:352,2,160,2|10|2,1:2|0:0|1:2,0:0:0:0:
256,32,155629,1,10,0:2:0:0:
176,32,155951,1,2,0:3:0:0:
96,32,156274,6,0,L|96:192,1,160,4|10,1:2|0:2,0:0:0:0:
96,272,157242,1,2,0:2:0:0:
96,352,157565,1,2,1:2:0:0:
176,352,157887,1,2,0:3:0:0:
256,352,158210,1,10,0:0:0:0:
256,272,158533,1,2,0:0:0:0:
256,192,158855,6,0,L|256:32,1,160,4|10,1:2|0:2,0:0:0:0:
336,32,159823,1,2,0:0:0:0:
416,32,160146,1,2,1:2:0:0:
416,112,160469,1,2,0:3:0:0:
416,192,160791,1,10,0:2:0:0:
416,272,161114,1,2,0:3:0:0:
416,352,161437,6,2,B|360:384|288:352|256:289|256:289|224:352|152:384|96:352,1,384,6|10,0:1|0:1,0:1:0:0:
96,192,164018,6,0,L|192:192,1,80,6|2,1:2|0:2,0:0:0:0:
256,192,164663,2,0,L|368:192,1,80,8|2,0:2|0:2,0:0:0:0:
416,192,165308,5,6,1:2:0:0:
256,192,165954,1,14,1:2:0:0:
96,192,166599,1,4,1:2:0:0:
256,32,168535,6,0,L|256:112,1,80,8|2,0:0|0:0,0:0:0:0:
256,192,169180,1,6,1:2:0:0:
256,272,169503,1,2,0:2:0:0:
256,352,169825,1,10,0:2:0:0:
176,352,170148,1,0,0:0:0:0:
96,352,170471,2,0,L|96:272,1,80,2|2,1:2|0:3,0:0:0:0:
96,192,171116,2,0,L|176:192,1,80,10|2,0:2|0:3,0:0:0:0:
256,192,171761,5,0,1:2:0:0:
336,192,172084,1,8,0:3:0:0:
416,192,172407,1,10,0:2:0:0:
416,112,172729,1,2,0:2:0:0:
416,32,173052,2,0,L|256:32,1,160,2|8,1:2|0:0,0:0:0:0:
176,32,174020,1,2,0:0:0:0:
96,32,174343,1,2,1:2:0:0:
96,112,174665,1,2,0:2:0:0:
96,192,174988,2,0,L|96:320,1,80,10|2,0:2|0:2,0:0:0:0:
96,352,175633,6,0,L|176:352,1,80,2|2,1:2|0:3,0:0:0:0:
256,352,176278,2,0,L|336:352,1,80,10|2,0:2|0:3,0:0:0:0:
416,352,176924,5,4,1:2:0:0:
416,272,177246,1,8,0:3:0:0:
416,192,177569,1,10,0:2:0:0:
416,112,177892,1,2,0:2:0:0:
416,32,178214,1,2,1:2:0:0:
336,32,178537,1,2,0:3:0:0:
256,32,178860,2,0,L|176:32,1,80,8|2,0:0|0:0,0:0:0:0:
96,32,179505,2,0,L|96:128,1,80,2|2,1:2|0:0,0:0:0:0:
96,192,180150,1,10,0:2:0:0:
96,352,180796,5,2,1:2:0:0:
176,352,181118,1,2,0:3:0:0:
256,352,181441,1,10,0:2:0:0:
336,352,181763,2,2,B|336:192|336:192|176:192|176:192|176:32,1,480,2|2,0:3|0:2,0:1:0:0:
256,32,184022,1,8,0:2:0:0:
416,32,184667,6,0,L|416:128,1,80,2|2,1:2|0:0,0:0:0:0:
416,192,185313,2,0,L|416:272,1,80,8|2,0:2|0:0,0:0:0:0:
416,352,185958,5,2,1:2:0:0:
336,352,186281,1,2,1:0:0:0:
336,272,186603,1,10,1:0:0:0:
256,272,186926,1,2,1:1:0:0:
256,192,187249,1,4,1:1:0:0:
