osu file format v14

[General]
AudioFilename: Drown (New).mp3
AudioLeadIn: 0
PreviewTime: 124417
Countdown: 0
SampleSet: Soft
StackLeniency: 0.4
Mode: 0
LetterboxInBreaks: 0
WidescreenStoryboard: 0

[Editor]
DistanceSpacing: 1.8
BeatDivisor: 4
GridSize: 4
TimelineZoom: 1.7

[Metadata]
Title:Drown
TitleUnicode:Drown
Artist:Bring me the Horizon
ArtistUnicode:Bring me the Horizon
Creator:Loughje
Version:Hard
Source:
Tags:bmth metal rock Thats the spirit
BeatmapID:929241
BeatmapSetID:369585

[Difficulty]
HPDrainRate:5
CircleSize:4
OverallDifficulty:6
ApproachRate:8
SliderMultiplier:1.2
SliderTickRate:1

[Events]
//Background and Video events
0,0,"drown1.jpg",0,0
//Break Periods
//Storyboard Layer 0 (Background)
//Storyboard Layer 1 (Fail)
//Storyboard Layer 2 (Pass)
//Storyboard Layer 3 (Foreground)
//Storyboard Layer 4 (Overlay)
//Storyboard Sound Samples

[TimingPoints]
1169,419.58041958042,4,2,1,60,1,0
17952,-111.111111111111,4,2,1,40,0,0
28022,-100,4,2,1,60,0,0
43966,-117.647058823529,4,2,1,40,0,0
48162,-100,4,2,1,50,0,0
54875,-100,4,2,1,60,0,1
81728,-100,4,2,1,60,0,0
85085,-100,4,2,1,50,0,0
111938,-100,4,2,1,40,0,0
125364,-100,4,2,1,60,0,1
138057,-100,4,2,1,30,0,1
138162,-100,4,2,1,40,0,1
138266,-100,4,2,1,50,0,1
138371,-100,4,2,1,60,0,1
152217,-100,4,2,1,60,0,0
165644,-100,4,2,1,50,0,0
174560,-100,4,2,1,70,0,0
174875,-100,4,2,1,75,0,0
175085,-100,4,2,1,70,0,0
175294,-100,4,2,1,80,0,0
179071,-80,4,2,1,60,0,1
192497,-125,4,2,1,60,0,1
205294,-125,4,2,1,30,0,1
205504,-125,4,2,1,40,0,1
205714,-125,4,2,1,50,0,1
205924,-100,4,2,1,60,0,0

[HitObjects]
188,276,1169,6,8,P|240:288|324:260,1,120
396,192,2008,1,8,0:0:0:0:
340,124,2217,1,2,1:0:0:0:
296,200,2427,1,8,0:0:0:0:
248,124,2637,1,2,1:0:0:0:
204,200,2847,6,8,B|160:284|160:284|148:248,1,120
140,140,3476,1,0,0:0:0:0:
140,140,3581,1,0,0:0:0:0:
140,140,3686,2,0,P|180:112|208:112,2,60,8|2|8,0:0|1:0|0:0,0:0:0:0:
92,252,4525,6,8,P|144:288|216:292,1,120
320,280,5364,1,8,0:0:0:0:
256,212,5574,1,2,1:0:0:0:
344,192,5784,1,8,0:0:0:0:
408,256,5994,1,2,1:0:0:0:
428,172,6203,2,8,P|400:128|336:108,1,120
260,120,6833,5,0,0:0:0:0:
260,120,6938,1,0,0:0:0:0:
260,120,7043,2,0,P|196:152|192:156,2,60,8|2|8,0:0|1:0|0:0,0:0:0:0:
340,124,7672,1,0,0:0:0:0:
412,156,7882,1,8,0:0:0:0:
260,196,8301,1,8,0:0:0:0:
388,284,8721,6,0,L|448:328,1,60,8|2,0:0|1:0,0:0:0:0:
480,256,9141,2,0,L|420:212,1,60,8|0,0:0|1:0,0:0:0:0:
368,172,9560,2,8,P|288:148|248:156,1,120
172,200,10189,1,0,0:0:0:0:
172,200,10294,1,0,0:0:0:0:
172,200,10399,1,8,0:0:0:0:
188,276,10609,5,2,1:0:0:0:
260,244,10819,1,8,0:0:0:0:
324,288,11029,1,2,1:0:0:0:
392,248,11238,2,8,P|456:192|464:156,1,120
360,148,12078,6,0,L|312:108,1,60,8|2,0:0|1:0,0:0:0:0:
208,124,12497,2,0,L|256:164,1,60,8|2,0:0|1:0,0:0:0:0:
244,244,12917,6,0,L|204:260,7,30,0|8|8|8|0|8|8|8,0:0|0:0|0:0|0:0|0:0|0:0|0:0|0:0,0:0:0:0:
328,264,13756,2,0,L|332:304,8,30,0|8|8|0|8|0|0|0|4,0:0|0:0|0:0|0:0|0:0|0:0|0:0|0:0|0:0,0:0:0:0:
124,112,17952,6,0,L|136:188,1,53.9999983520508
332,60,18581,2,0,L|264:40,1,53.9999983520508
280,44,19630,1,0,0:0:0:0:
316,160,20469,6,0,L|360:220,2,53.9999983520508
264,84,21099,1,0,0:0:0:0:
188,140,21308,2,0,P|144:180|108:228,1,107.999996704102
76,304,21938,1,0,0:0:0:0:
168,316,22148,6,0,B|252:324|252:324|284:304,1,107.999996704102
348,256,22777,1,0,0:0:0:0:
280,192,22987,2,0,B|236:152|236:152|204:192,1,107.999996704102
144,260,23616,1,0,0:0:0:0:
84,192,23826,2,0,B|36:124|36:124|36:76,1,107.999996704102
36,99,24665,6,0,B|36:124|36:124|68:168,1,53.9999983520508
216,268,25294,2,0,B|192:285|192:285|167:285,1,53.9999983520508
216,268,26343,2,0,P|236:196|364:140,1,215.999993408203
224,276,27812,1,0,0:0:0:0:
224,276,27917,1,0,0:0:0:0:
224,276,28022,6,0,P|284:268|344:240,1,120
488,140,28861,1,8,0:0:0:0:
420,84,29070,1,2,1:0:0:0:
368,160,29280,1,8,0:0:0:0:
328,240,29490,1,2,1:0:0:0:
244,196,29700,6,8,B|288:112|288:112|248:124,1,120
176,128,30329,1,0,0:0:0:0:
176,128,30434,1,0,0:0:0:0:
175,127,30539,2,0,P|154:105|145:77,2,60,8|2|8,0:0|1:0|0:0,0:0:0:0:
420,132,31378,6,8,P|368:96|296:92,1,120
192,104,32217,1,8,0:0:0:0:
256,172,32427,1,2,1:0:0:0:
168,192,32637,1,8,0:0:0:0:
104,128,32847,1,2,1:0:0:0:
84,212,33056,2,8,P|112:256|176:276,1,120
252,264,33686,5,0,0:0:0:0:
252,264,33791,1,0,0:0:0:0:
252,264,33896,2,0,P|316:232|320:228,2,60,8|2|8,0:0|1:0|0:0,0:0:0:0:
172,260,34525,1,0,0:0:0:0:
100,228,34735,1,8,0:0:0:0:
252,188,35154,1,8,0:0:0:0:
124,100,35574,6,0,L|64:56,1,60,8|2,0:0|1:0,0:0:0:0:
32,128,35994,2,0,L|92:172,1,60,8|0,0:0|1:0,0:0:0:0:
144,212,36413,2,8,P|224:236|264:228,1,120
340,184,37042,1,0,0:0:0:0:
340,184,37147,1,0,0:0:0:0:
340,184,37252,1,8,0:0:0:0:
336,92,37462,5,2,1:0:0:0:
256,136,37672,1,8,0:0:0:0:
184,80,37882,1,2,1:0:0:0:
104,120,38091,2,8,P|40:176|32:212,1,120
152,236,38931,6,0,L|200:276,1,60,8|2,0:0|1:0,0:0:0:0:
304,260,39350,2,0,L|256:220,1,60,8|2,0:0|1:0,0:0:0:0:
188,164,39770,1,0,0:0:0:0:
104,200,39980,1,0,0:0:0:0:
104,200,40085,1,8,0:0:0:0:
104,200,40189,2,0,P|112:232|128:264,1,60
172,332,40609,6,8,L|136:368,3,30
252,324,41029,2,0,L|276:348,3,30,8|0|0|0,0:0|0:0|0:0|0:0,0:0:0:0:
208,260,41448,1,4,0:0:0:0:
204,116,43966,6,0,B|172:152|168:196|168:196|192:212,2,102.000001945496
224,92,46483,5,0,0:0:0:0:
256,68,47322,6,0,L|312:168,2,102.000001945496,0|0|4,0:0|0:0|0:0,0:0:0:0:
88,20,48581,5,0,0:0:0:0:
40,168,49001,1,8,0:0:0:0:
152,76,49420,1,0,0:0:0:0:
284,136,49840,1,0,0:0:0:0:
336,268,50259,2,0,P|304:320|248:356,1,120,8|8,0:0|0:0,0:0:0:0:
132,284,51099,5,0,0:0:0:0:
224,168,51518,1,0,0:0:0:0:
292,296,51938,1,0,0:0:0:0:
144,216,52357,1,0,0:0:0:0:
288,216,52777,1,0,0:0:0:0:
216,340,53196,1,8,0:0:0:0:
124,144,54036,6,8,L|104:120,3,30
180,204,54455,2,0,L|208:232,3,30,8|0|0|0,0:0|0:0|0:0|0:0,0:0:0:0:
204,132,54875,6,0,P|260:96|276:92,1,60,4|0,0:0|0:0,0:0:0:0:
352,124,55294,2,0,P|296:160|280:164,1,60
204,132,55714,1,8,0:0:0:0:
164,36,55924,1,0,0:0:0:0:
104,120,56134,2,0,L|68:172,1,60
69,169,56763,5,0,0:0:0:0:
156,192,56973,2,0,L|216:208,1,60
308,188,57392,1,8,0:0:0:0:
316,280,57602,1,0,0:0:0:0:
211,251,57812,1,0,0:0:0:0:
209,143,58022,1,0,0:0:0:0:
311,128,58231,6,0,L|307:204,1,60
420,200,58651,2,0,L|496:204,1,60
455,97,59071,1,8,0:0:0:0:
356,140,59280,1,0,0:0:0:0:
340,48,59490,2,0,P|300:24|260:28,1,60
80,144,60120,5,0,0:0:0:0:
44,245,60329,2,0,P|72:297|88:305,1,60
179,302,60749,2,0,P|151:250|135:242,1,60,8|0,0:0|0:0,0:0:0:0:
86,163,61169,1,0,0:0:0:0:
192,128,61378,1,8,0:0:0:0:
192,128,61483,1,8,0:0:0:0:
192,128,61588,6,0,B|256:136|256:136|316:120,1,120
