osu file format v14

[General]
AudioFilename: Drown (New).mp3
AudioLeadIn: 0
PreviewTime: 124417
Countdown: 0
SampleSet: Soft
StackLeniency: 0.4
Mode: 0
LetterboxInBreaks: 0
WidescreenStoryboard: 0

[Editor]
DistanceSpacing: 1.4
BeatDivisor: 4
GridSize: 4
TimelineZoom: 1.7

[Metadata]
Title:Drown
TitleUnicode:Drown
Artist:Bring me the Horizon
ArtistUnicode:Bring me the Horizon
Creator:Loughje
Version:Demons
Source:
Tags:bmth metal rock Thats the spirit
BeatmapID:809859
BeatmapSetID:369585

[Difficulty]
HPDrainRate:6
CircleSize:4.2
OverallDifficulty:8
ApproachRate:9.3
SliderMultiplier:1.4
SliderTickRate:1

[Events]
//Background and Video events
0,0,"drown1.jpg",0,0
//Break Periods
2,14795,17398
2,41648,43412
2,83298,84531
2,152417,165090
2,175914,178517
//Storyboard Layer 0 (Background)
//Storyboard Layer 1 (Fail)
//Storyboard Layer 2 (Pass)
//Storyboard Layer 3 (Foreground)
//Storyboard Layer 4 (Overlay)
//Storyboard Sound Samples

[TimingPoints]
1169,419.58041958042,4,2,1,60,1,0
17952,-111.111111111111,4,2,1,40,0,0
28022,-100,4,2,1,60,0,0
43966,-117.647058823529,4,2,1,40,0,0
48162,-100,4,2,1,50,0,0
54875,-100,4,2,1,60,0,1
81728,-100,4,2,1,60,0,0
85085,-100,4,2,1,50,0,0
111938,-100,4,2,1,40,0,0
125364,-100,4,2,1,60,0,1
138057,-100,4,2,1,30,0,1
138162,-100,4,2,1,40,0,1
138266,-100,4,2,1,50,0,1
138371,-100,4,2,1,60,0,1
152217,-100,4,2,1,60,0,0
165644,-100,4,2,1,50,0,0
174560,-100,4,2,1,70,0,0
174875,-100,4,2,1,75,0,0
175085,-100,4,2,1,70,0,0
175294,-100,4,2,1,80,0,0
179071,-80,4,2,1,60,0,1
192497,-125,4,2,1,60,0,1
205294,-125,4,2,1,30,0,1
205504,-125,4,2,1,40,0,1
205714,-125,4,2,1,50,0,1
205924,-100,4,2,1,60,0,0

[HitObjects]
384,136,1169,6,8,P|312:104|248:116,1,140,4|8,0:0|0:0,0:0:0:0:
106,242,2008,1,8,0:0:0:0:
111,94,2217,1,2,1:0:0:0:
209,231,2427,1,8,0:0:0:0:
49,171,2637,1,2,1:0:0:0:
213,151,2847,2,8,P|213:79|169:15,1,140
200,277,3581,5,2,1:0:0:0:
200,277,3686,2,8,L|152:333,1,70,8|2,0:0|1:0,0:0:0:0:
292,180,4106,1,8,0:0:0:0:
177,94,4315,1,2,1:0:0:0:
195,254,4525,2,8,P|231:318|291:342,1,140
244,88,5364,5,8,0:0:0:0:
120,228,5574,1,2,1:0:0:0:
296,192,5784,1,8,0:0:0:0:
132,104,5994,1,2,1:0:0:0:
224,268,6203,2,8,P|270:324|331:355,1,140
468,56,6938,5,2,1:0:0:0:
468,56,7043,2,0,P|444:96|404:116,1,70,8|2,0:0|1:0,0:0:0:0:
279,157,7462,1,8,0:0:0:0:
359,56,7672,1,0,0:0:0:0:
418,180,7882,2,8,P|435:242|419:320,1,140
220,292,8721,5,8,0:0:0:0:
342,192,8931,1,2,1:0:0:0:
276,367,9141,1,8,0:0:0:0:
177,194,9350,1,2,1:0:0:0:
309,269,9560,2,8,P|381:269|445:241,1,140
224,80,10294,1,2,1:0:0:0:
224,80,10399,2,0,P|192:116|184:144,1,70,8|2,0:0|1:0,0:0:0:0:
180,288,10819,5,8,0:0:0:0:
284,184,11029,1,2,1:0:0:0:
116,152,11238,2,8,P|80:172|40:276,1,140
344,60,12078,1,8,0:0:0:0:
384,208,12287,1,2,1:0:0:0:
220,160,12497,1,8,0:0:0:0:
264,316,12707,1,2,1:0:0:0:
108,284,12917,5,0,0:0:0:0:
83,259,13022,1,8,0:0:0:0:
58,234,13127,1,8,0:0:0:0:
48,200,13231,1,8,0:0:0:0:
41,165,13336,1,0,0:0:0:0:
55,132,13441,1,8,0:0:0:0:
79,107,13546,1,0,0:0:0:0:
112,95,13651,1,8,0:0:0:0:
146,88,13756,5,0,0:0:0:0:
178,74,13861,1,8,0:0:0:0:
202,49,13966,1,8,0:0:0:0:
231,30,14071,1,0,0:0:0:0:
265,30,14175,1,8,0:0:0:0:
298,41,14280,1,0,0:0:0:0:
329,57,14385,1,0,0:0:0:0:
353,81,14490,1,0,0:0:0:0:
384,95,14595,5,4,0:0:0:0:
256,152,17952,6,0,L|208:104,1,62.9999980773926
155,55,18371,1,0,0:0:0:0:
99,113,18581,1,0,0:0:0:0:
106,192,18791,1,0,0:0:0:0:
180,154,19001,1,0,0:0:0:0:
251,198,19210,1,0,0:0:0:0:
176,231,19420,1,0,0:0:0:0:
167,312,19630,1,0,0:0:0:0:
452,64,20469,6,0,L|464:132,1,62.9999980773926
481,206,20889,1,0,0:0:0:0:
435,273,21099,1,0,0:0:0:0:
358,301,21308,1,0,0:0:0:0:
285,265,21518,1,0,0:0:0:0:
251,189,21728,6,0,L|185:190,2,62.9999980773926
339,186,22357,1,0,0:0:0:0:
425,183,22567,2,0,L|409:263,1,62.9999980773926
371,347,22987,2,0,B|312:372|312:372|231:363,1,125.999996154785
167,305,23616,1,0,0:0:0:0:
128,211,23826,2,0,P|190:209|246:237,2,125.999996154785
256,258,24875,5,0,0:0:0:0:
400,56,25294,1,0,0:0:0:0:
400,56,25504,1,0,0:0:0:0:
400,56,25714,2,0,P|368:96|272:128,1,125.999996154785
217,130,26343,1,0,0:0:0:0:
112,192,27812,5,2,1:0:0:0:
112,192,27917,1,2,1:0:0:0:
112,192,28022,2,8,P|184:224|248:212,1,140
389,99,28861,1,8,0:0:0:0:
344,255,29070,1,2,1:0:0:0:
496,112,29280,1,8,0:0:0:0:
303,175,29490,1,2,1:0:0:0:
420,65,29700,2,8,B|420:142|420:142|464:201,1,140
389,322,30434,5,2,1:0:0:0:
389,322,30539,2,8,L|437:266,1,70,8|2,0:0|0:0,0:0:0:0:
220,204,30959,1,8,0:0:0:0:
315,352,31168,1,2,1:0:0:0:
312,197,31378,2,8,P|276:133|216:109,1,140
268,296,32217,5,8,0:0:0:0:
392,156,32427,1,2,0:1:0:0:
216,192,32637,1,8,0:0:0:0:
380,280,32847,1,2,0:1:0:0:
288,116,33056,2,8,B|246:58|246:58|185:25,1,140
44,328,33791,5,2,0:1:0:0:
44,328,33896,2,0,P|68:288|108:268,1,70,8|2,0:0|1:0,0:0:0:0:
268,219,34315,1,8,0:0:0:0:
138,347,34525,1,2,0:1:0:0:
328,276,34735,2,8,P|379:213|396:148,1,140
399,11,35364,1,2,1:0:0:0:
280,163,35574,5,8,0:0:0:0:
423,83,35784,1,2,1:0:0:0:
249,60,35994,1,8,0:0:0:0:
377,177,36203,1,2,1:0:0:0:
193,131,36413,2,8,B|123:107|123:107|75:58,1,140
288,304,37147,1,2,1:0:0:0:
288,304,37252,2,0,P|320:268|328:240,1,70,8|2,0:0|1:0,0:0:0:0:
332,96,37672,5,8,0:0:0:0:
232,218,37882,1,2,1:0:0:0:
396,232,38091,2,8,L|456:184,1,70,8|0,0:0|0:0,0:0:0:0:
457,40,38511,2,8,L|402:83,1,70,8|0,0:0|0:0,0:0:0:0:
280,170,38931,1,8,0:0:0:0:
424,159,39141,1,0,0:0:0:0:
264,80,39350,1,8,0:0:0:0:
274,258,39560,1,2,1:0:0:0:
349,67,39770,6,0,P|319:20|248:-2,1,105,0|8,0:0|0:0,0:0:0:0:
247,16,40189,1,0,0:0:0:0:
301,141,40399,1,2,1:0:0:0:
340,288,40609,5,0,0:0:0:0:
297,288,40714,1,8,0:0:0:0:
256,297,40819,1,8,0:0:0:0:
217,313,40924,1,8,0:0:0:0:
176,324,41029,1,8,0:0:0:0:
134,315,41134,1,0,0:0:0:0:
96,296,41238,1,0,0:0:0:0:
79,257,41343,1,0,0:0:0:0:
79,214,41448,5,4,0:0:0:0:
152,148,43966,6,0,P|228:148|288:168,2,119.000002269745
100,192,46483,5,0,0:0:0:0:
432,228,47322,2,0,P|452:160|436:92,2,119.000002269745
402,257,48266,1,0,0:0:0:0:
364,275,48371,1,0,0:0:0:0:
322,283,48476,1,0,0:0:0:0:
279,283,48581,1,0,0:0:0:0:
237,274,48686,1,0,0:0:0:0:
199,254,48791,1,0,0:0:0:0:
176,218,48896,5,0,0:0:0:0:
168,176,49001,2,0,L|164:132,3,35,8|0|0|8,0:0|0:0|0:0|0:0,0:0:0:0:
272,124,49420,2,0,L|276:160,3,35
279,283,49840,1,0,0:0:0:0:
296,321,49945,1,0,0:0:0:0:
332,341,50050,1,8,0:0:0:0:
374,341,50155,1,8,0:0:0:0:
409,318,50259,1,8,0:0:0:0:
426,279,50364,5,8,0:0:0:0:
426,236,50469,1,0,0:0:0:0:
418,194,50574,1,0,0:0:0:0:
420,148,50679,2,0,L|448:116,3,35,8|0|0|8,0:0|0:0|0:0|0:0,0:0:0:0:
300,104,51099,2,0,L|267:135,3,35,0|0|8|0,0:0|0:0|0:0|0:0,0:0:0:0:
184,60,51518,2,0,L|146:91,1,35,8|0,0:0|0:0,0:0:0:0:
137,196,51728,2,0,L|178:164,1,35,0|8,0:0|0:0,0:0:0:0:
208,272,51938,5,0,0:0:0:0:
178,301,52043,1,0,0:0:0:0:
139,316,52148,1,8,0:0:0:0:
97,316,52252,1,0,0:0:0:0:
57,302,52357,1,0,0:0:0:0:
27,272,52462,1,8,0:0:0:0:
16,231,52567,1,0,0:0:0:0:
27,186,52672,1,0,0:0:0:0:
43,147,52777,5,8,0:0:0:0:
72,117,52882,1,0,0:0:0:0:
110,99,52987,1,8,0:0:0:0:
152,99,53092,1,8,0:0:0:0:
186,122,53196,1,8,0:0:0:0:
444,188,54036,6,8,L|444:152,1,35
360,192,54245,2,8,L|360:236,1,35
268,192,54455,1,8,0:0:0:0:
225,192,54560,1,0,0:0:0:0:
184,203,54665,1,0,0:0:0:0:
145,220,54770,1,0,0:0:0:0:
115,249,54875,6,0,P|88:284|48:312,1,70,4|0,0:0|0:0,0:0:0:0:
64,132,55294,2,0,P|91:97|131:69,1,70
273,34,55714,1,8,0:0:0:0:
82,16,55924,1,0,0:0:0:0:
284,110,56134,2,0,P|316:98|344:66,1,70
284,110,56763,5,0,0:0:0:0:
368,256,56973,2,0,L|420:328,2,70,0|0|8,0:0|0:0|0:0,0:0:0:0:
284,110,57602,1,0,0:0:0:0:
257,263,57812,1,0,0:0:0:0:
371,188,58022,1,0,0:0:0:0:
196,158,58231,2,0,P|164:143|137:120,2,70
367,182,58861,1,0,0:0:0:0:
268,96,59071,5,8,0:0:0:0:
197,256,59280,2,0,L|125:220,1,70
21,141,59700,1,0,0:0:0:0:
304,84,60120,2,0,L|328:16,1,70
224,181,60539,1,0,0:0:0:0:
386,107,60749,1,8,0:0:0:0:
204,77,60959,1,0,0:0:0:0:
342,198,61169,1,0,0:0:0:0:
192,248,61378,5,8,0:0:0:0:
192,248,61483,1,8,0:0:0:0:
192,248,61588,2,0,P|156:236|124:204,1,70
60,88,62008,1,0,0:0:0:0:
280,36,62217,1,0,0:0:0:0:
136,172,62427,2,0,P|112:200|96:248,2,70,8|0|0,0:0|0:0|0:0,0:0:0:0:
304,116,63057,6,0,P|344:108|444:156,1,140
260,180,63686,2,0,P|236:152|228:112,1,70
356,192,64106,1,8,0:0:0:0:
168,292,64315,2,0,P|128:300|76:276,1,70
24,140,64735,1,0,0:0:0:0:
216,151,64945,1,0,0:0:0:0:
60,257,65155,1,0,0:0:0:0:
159,106,65364,2,0,P|191:82|247:78,2,70,0|0|8,0:0|0:0|0:0,0:0:0:0:
140,300,65994,5,0,0:0:0:0:
216,151,66203,1,0,0:0:0:0:
63,223,66413,1,8,0:0:0:0:
230,252,66623,1,0,0:0:0:0:
108,134,66833,1,0,0:0:0:0:
84,232,67043,5,0,0:0:0:0:
68,189,67148,1,8,0:0:0:0:
68,143,67252,1,8,0:0:0:0:
83,100,67357,1,8,0:0:0:0:
115,67,67462,1,8,0:0:0:0:
155,46,67567,1,8,0:0:0:0:
200,46,67672,1,0,0:0:0:0:
243,60,67777,1,8,0:0:0:0:
275,92,67882,5,8,0:0:0:0:
289,135,67987,1,8,0:0:0:0:
289,180,68092,1,8,0:0:0:0:
299,223,68196,1,8,0:0:0:0:
304,268,68301,2,0,P|318:299|350:331,2,70,4|0|0,0:0|0:0|0:0,0:0:0:0:
370,127,68931,5,0,0:0:0:0:
214,146,69141,2,0,P|186:166|162:198,1,70,8|0,0:0|0:0,0:0:0:0:
313,297,69560,1,0,0:0:0:0:
316,136,69770,2,0,B|280:76|280:76|204:44,1,140
113,156,70399,5,0,0:0:0:0:
228,260,70609,1,0,0:0:0:0:
222,131,70819,1,8,0:0:0:0:
228,260,71029,2,0,P|226:298|219:331,2,70
209,106,71658,1,0,0:0:0:0:
136,286,71868,1,0,0:0:0:0:
302,179,72078,1,0,0:0:0:0:
102,169,72287,1,0,0:0:0:0:
327,173,72497,6,0,P|367:209|383:249,1,70,8|0,0:0|0:0,0:0:0:0:
222,289,72917,1,0,0:0:0:0:
188,152,73127,2,0,P|256:136|324:156,1,140
406,241,73756,1,0,0:0:0:0:
408,86,73966,1,0,0:0:0:0:
512,252,74175,1,8,0:0:0:0:
277,232,74385,2,0,P|245:212|221:180,1,70
251,75,74805,5,8,0:0:0:0:
251,75,74910,1,8,0:0:0:0:
251,75,75015,2,0,P|279:87|307:115,2,70
153,187,75644,1,0,0:0:0:0:
243,288,75854,2,0,P|285:300|326:293,1,70,8|0,0:0|0:0,0:0:0:0:
386,174,76273,1,0,0:0:0:0:
220,213,76483,2,0,B|176:217|147:293|82:261,1,140
84,108,77113,5,0,0:0:0:0:
292,92,77322,1,0,0:0:0:0:
186,255,77532,1,8,0:0:0:0:
211,63,77742,2,0,P|231:34|260:15,1,70
336,224,78162,1,0,0:0:0:0:
148,224,78371,2,0,P|160:188|196:156,2,70
272,307,79001,5,0,0:0:0:0:
329,173,79210,2,0,P|314:141|291:114,1,70,8|0,0:0|0:0,0:0:0:0:
159,82,79630,1,0,0:0:0:0:
267,228,79840,1,8,0:0:0:0:
281,50,80050,1,0,0:0:0:0:
107,163,80259,1,0,0:0:0:0:
256,136,80469,5,0,0:0:0:0:
210,136,80574,1,8,0:0:0:0:
165,124,80679,1,8,0:0:0:0:
121,109,80784,1,8,0:0:0:0:
75,109,80889,1,8,0:0:0:0:
36,128,80994,1,8,0:0:0:0:
17,169,81099,1,0,0:0:0:0:
32,212,81203,1,8,0:0:0:0:
44,255,81308,5,8,0:0:0:0:
44,300,81413,1,0,0:0:0:0:
76,332,81518,1,0,0:0:0:0:
118,348,81623,1,0,0:0:0:0:
164,340,81728,1,4,0:0:0:0:
256,192,85085,6,0,L|324:144,1,70
423,68,85504,1,2,1:0:0:0:
382,68,85924,1,2,1:0:0:0:
342,68,86343,1,2,1:0:0:0:
292,227,86553,1,0,0:3:0:0:
292,227,86658,1,0,0:3:0:0:
292,227,86763,1,0,0:3:0:0:
156,260,87182,5,2,1:0:0:0:
150,220,87602,1,2,1:0:0:0:
128,68,87812,1,8,0:0:0:0:
128,68,87917,1,8,0:0:0:0:
128,68,88022,1,8,0:0:0:0:
424,176,88441,5,2,1:0:0:0:
383,178,88861,1,2,1:0:0:0:
346,178,89280,1,2,1:0:0:0:
311,177,89700,1,2,1:0:0:0:
187,140,89910,1,0,0:3:0:0:
187,140,90015,1,0,0:3:0:0:
187,140,90120,1,0,0:3:0:0:
480,80,90539,5,2,1:0:0:0:
232,344,90959,1,2,1:0:0:0:
188,132,91169,1,8,0:0:0:0:
223,110,91273,1,8,0:0:0:0:
263,99,91378,1,8,0:0:0:0:
305,99,91483,1,0,0:0:0:0:
346,107,91588,1,0,0:0:0:0:
383,125,91693,1,0,0:0:0:0:
412,154,91798,5,2,1:0:0:0:
419,245,92217,1,2,1:0:0:0:
417,289,92637,1,2,1:0:0:0:
395,322,93057,1,2,1:0:0:0:
256,284,93266,1,0,0:3:0:0:
256,284,93371,1,0,0:3:0:0:
256,284,93476,1,0,0:3:0:0:
216,40,93896,5,2,1:0:0:0:
251,63,94315,1,2,1:0:0:0:
368,144,94525,1,8,0:0:0:0:
368,144,94630,1,8,0:0:0:0:
368,144,94735,1,8,0:0:0:0:
64,116,95155,5,2,1:0:0:0:
79,150,95574,1,2,1:0:0:0:
97,183,95994,1,2,1:0:0:0:
130,197,96413,1,2,1:0:0:0:
184,76,96623,1,0,0:3:0:0:
184,76,96728,1,0,0:3:0:0:
184,76,96833,1,0,0:3:0:0:
116,232,97252,5,2,1:0:0:0:
408,68,97672,1,2,1:0:0:0:
408,68,97882,1,8,0:0:0:0:
408,68,98092,1,8,0:0:0:0:
419,222,98301,1,0,0:0:0:0:
408,68,98511,6,8,P|358:122|288:140,1,140
104,128,99350,1,8,0:0:0:0:
288,120,99560,1,2,1:0:0:0:
148,248,99770,1,8,0:0:0:0:
196,40,99980,1,2,1:0:0:0:
260,248,100189,2,8,P|308:308|384:332,1,140
448,48,100924,5,2,1:0:0:0:
448,48,101029,2,0,P|432:84|404:112,1,70,8|2,0:0|1:0,0:0:0:0:
264,123,101448,1,8,0:0:0:0:
362,37,101658,1,2,1:0:0:0:
284,214,101868,2,8,P|212:210|164:154,2,140
162,137,102917,5,2,1:0:0:0:
203,291,103127,1,8,0:0:0:0:
315,156,103336,1,2,1:0:0:0:
261,45,103546,2,8,P|213:69|153:165,1,140
228,292,104175,1,2,1:0:0:0:
228,292,104280,1,2,1:0:0:0:
228,292,104385,2,0,P|252:228|272:200,1,70,8|2,0:0|1:0,0:0:0:0:
376,108,104805,5,8,0:0:0:0:
329,205,105015,1,2,1:0:0:0:
384,300,105224,2,0,B|496:288|496:288|464:264,1,140,0|8,0:0|0:0,0:0:0:0:
275,214,105854,1,2,1:0:0:0:
133,165,106064,2,0,B|127:125|142:92,1,70,8|2,0:0|1:0,0:0:0:0:
277,155,106483,1,8,0:0:0:0:
164,255,106693,1,2,1:0:0:0:
203,107,106903,6,8,P|264:75|333:81,1,140
132,68,107637,1,2,1:0:0:0:
132,68,107742,2,0,P|112:104|104:152,1,70,8|2,0:0|1:0,0:0:0:0:
112,304,108162,1,8,0:0:0:0:
235,191,108371,1,2,1:0:0:0:
36,312,108581,6,8,P|52:258|129:231,1,140
384,272,109420,2,8,L|461:241,1,70,8|0,0:0|0:0,0:0:0:0:
365,156,109840,1,8,0:0:0:0:
323,323,110050,1,2,1:0:0:0:
447,165,110259,2,0,P|440:115|383:78,1,105,0|8,0:0|0:0,0:0:0:0:
366,78,110679,5,0,0:0:0:0:
222,137,110889,1,0,0:0:0:0:
336,208,111099,1,8,0:0:0:0:
370,230,111203,1,8,0:0:0:0:
399,259,111308,1,8,0:0:0:0:
415,297,111413,1,8,0:0:0:0:
402,337,111518,1,8,0:0:0:0:
363,356,111623,1,0,0:0:0:0:
313,353,111728,5,0,0:0:0:0:
272,342,111833,1,0,0:0:0:0:
240,320,111938,2,0,L|213:289,3,35
112,252,112357,2,0,L|136:224,3,35
228,198,112777,2,0,L|257:168,3,35,8|0|0|8,0:0|0:0|0:0|0:0,0:0:0:0:
380,132,113196,5,0,0:0:0:0:
402,96,113301,1,0,0:0:0:0:
382,58,113406,1,0,0:0:0:0:
341,45,113511,1,0,0:0:0:0:
298,45,113616,1,0,0:0:0:0:
257,56,113721,1,0,0:0:0:0:
227,85,113826,1,0,0:0:0:0:
210,123,113931,1,0,0:0:0:0:
210,165,114036,5,0,0:0:0:0:
227,203,114141,1,0,0:0:0:0:
263,222,114245,1,0,0:0:0:0:
292,251,114350,1,0,0:0:0:0:
305,290,114455,1,8,0:0:0:0:
289,329,114560,1,0,0:0:0:0:
252,350,114665,1,0,0:0:0:0:
209,350,114770,1,8,0:0:0:0:
173,327,114875,5,0,0:0:0:0:
157,287,114980,1,0,0:0:0:0:
157,244,115085,1,8,0:0:0:0:
157,202,115189,1,0,0:0:0:0:
157,159,115294,1,8,0:0:0:0:
157,116,115399,1,0,0:0:0:0:
157,73,115504,1,0,0:0:0:0:
180,37,115609,1,0,0:0:0:0:
222,37,115714,5,0,0:0:0:0:
262,46,115819,1,0,0:0:0:0:
291,75,115924,1,0,0:0:0:0:
299,116,116029,1,0,0:0:0:0:
299,158,116134,1,8,0:0:0:0:
263,180,116238,1,0,0:0:0:0:
220,180,116343,1,0,0:0:0:0:
177,180,116448,1,8,0:0:0:0:
134,180,116553,6,0,L|76:180,3,35
196,264,116973,2,0,L|236:264,3,35
368,300,117392,2,0,L|352:340,3,35
392,200,117812,2,0,L|376:168,1,35,8|0,0:0|0:0,0:0:0:0:
283,78,118022,2,0,L|301:109,1,35,0|8,0:0|0:0,0:0:0:0:
306,242,118231,2,0,L|289:209,1,35,8|0,0:0|0:0,0:0:0:0:
193,167,118441,2,0,L|211:201,1,35
216,328,118651,5,8,0:0:0:0:
183,295,118756,1,0,0:0:0:0:
153,265,118861,1,0,0:0:0:0:
123,235,118966,1,0,0:0:0:0:
106,196,119071,1,0,0:0:0:0:
106,154,119175,1,0,0:0:0:0:
121,114,119280,1,0,0:0:0:0:
150,84,119385,1,0,0:0:0:0:
188,67,119490,5,8,0:0:0:0:
225,86,119595,1,0,0:0:0:0:
245,122,119700,1,0,0:0:0:0:
274,92,119805,1,8,0:0:0:0:
309,70,119910,1,0,0:0:0:0:
349,82,120015,1,0,0:0:0:0:
378,111,120120,1,0,0:0:0:0:
390,150,120224,1,0,0:0:0:0:
390,192,120329,5,0,0:0:0:0:
374,231,120434,1,0,0:0:0:0:
351,266,120539,1,8,0:0:0:0:
331,303,120644,1,0,0:0:0:0:
301,332,120749,1,0,0:0:0:0:
264,352,120854,1,0,0:0:0:0:
254,311,120959,1,0,0:0:0:0:
254,268,121064,1,0,0:0:0:0:
240,228,121169,6,0,L|216:188,3,35,8|0|0|8,0:0|0:0|0:0|0:0,0:0:0:0:
312,184,121588,2,0,L|336:144,3,35,0|0|8|0,0:0|0:0|0:0|0:0,0:0:0:0:
256,88,122008,2,0,L|256:48,1,35,8|0,0:0|0:0,0:0:0:0:
159,89,122217,2,0,L|159:129,1,35,0|8,0:0|0:0,0:0:0:0:
70,178,122427,2,0,L|70:138,1,35
120,264,122637,1,8,0:0:0:0:
157,282,122742,1,0,0:0:0:0:
186,311,122847,1,0,0:0:0:0:
226,322,122952,5,8,0:0:0:0:
265,337,123057,1,0,0:0:0:0:
304,352,123162,1,0,0:0:0:0:
304,310,123266,1,8,0:0:0:0:
280,275,123371,1,0,0:0:0:0:
291,234,123476,1,0,0:0:0:0:
311,197,123581,1,0,0:0:0:0:
340,167,123686,1,0,1:0:0:0:
236,72,123896,5,0,1:0:0:0:
96,256,124106,1,0,1:0:0:0:
348,264,124315,1,0,1:0:0:0:
120,128,124525,1,8,0:0:0:0:
224,312,124735,1,0,1:0:0:0:
348,128,124945,1,8,0:0:0:0:
224,312,125155,1,0,1:0:0:0:
348,128,125364,6,0,P|388:136|416:152,2,70,4|0|0,0:0|0:0|0:0,0:0:0:0:
159,191,125994,1,0,0:0:0:0:
327,207,126203,1,8,0:0:0:0:
224,312,126413,2,0,P|224:264|236:236,1,70
336,144,126833,2,0,P|367:80|336:24,1,140
108,80,127462,5,0,0:0:0:0:
252,139,127672,1,0,0:0:0:0:
128,240,127882,2,0,P|96:272|84:304,2,70,8|0|0,0:0|0:0|0:0,0:0:0:0:
296,172,128511,1,0,0:0:0:0:
208,311,128721,1,0,0:0:0:0:
138,161,128931,1,0,0:0:0:0:
294,275,129141,2,0,P|336:268|366:256,1,70
216,143,129560,1,8,0:0:0:0:
124,304,129770,6,0,P|148:332|176:348,1,70
52,320,130189,2,0,P|76:248|144:232,1,140
296,276,130819,1,0,0:0:0:0:
249,123,131029,1,0,0:0:0:0:
216,288,131238,1,8,0:0:0:0:
328,112,131448,1,0,0:0:0:0:
131,192,131658,1,0,0:0:0:0:
248,220,131868,1,8,0:0:0:0:
248,220,131973,1,8,0:0:0:0:
248,220,132078,6,0,P|276:192|320:168,1,70
480,172,132497,2,0,P|452:200|408:224,1,70
284,285,132917,2,0,P|220:289|188:273,2,70,8|0|0,0:0|0:0|0:0,0:0:0:0:
370,128,133546,2,0,P|338:104|238:116,1,140
117,189,134175,1,0,0:0:0:0:
300,172,134385,1,0,0:0:0:0:
186,270,134595,1,8,0:0:0:0:
215,101,134805,1,0,0:0:0:0:
296,288,135015,6,0,L|364:312,1,70
512,202,135434,2,0,L|440:182,1,70
281,141,135854,1,0,0:0:0:0:
391,272,136064,1,0,0:0:0:0:
345,93,136273,1,8,0:0:0:0:
218,269,136483,1,0,0:0:0:0:
463,237,136693,2,0,P|471:273|459:309,1,70,0|8,0:0|0:0,0:0:0:0:
293,234,137113,1,0,0:0:0:0:
428,120,137322,5,0,0:0:0:0:
284,64,137532,1,8,0:0:0:0:
243,52,137637,1,8,0:0:0:0:
200,52,137742,1,8,0:0:0:0:
159,63,137847,1,8,0:0:0:0:
122,84,137952,1,8,0:0:0:0:
92,113,138057,1,8,0:0:0:0:
92,162,138162,5,8,0:0:0:0:
111,206,138266,1,8,0:0:0:0:
145,240,138371,1,8,0:0:0:0:
187,264,138476,1,8,0:0:0:0:
221,298,138581,1,8,0:0:0:0:
268,311,138686,1,8,0:0:0:0:
317,311,138791,6,0,P|357:303|385:287,2,70,4|0|0,0:0|0:0|0:0,0:0:0:0:
167,311,139421,1,0,0:0:0:0:
324,384,139630,1,8,0:0:0:0:
321,232,139840,2,0,P|324:199|312:161,1,70
176,240,140260,2,0,P|144:288|176:360,1,140
404,304,140889,5,0,0:0:0:0:
250,237,141099,1,0,0:0:0:0:
384,144,141309,2,0,P|416:112|428:80,2,70,8|0|0,0:0|0:0|0:0,0:0:0:0:
263,249,141938,1,0,0:0:0:0:
272,112,142148,1,0,0:0:0:0:
425,209,142358,1,0,0:0:0:0:
207,191,142568,2,0,P|178:171|203:136,1,70
329,208,142987,1,8,0:0:0:0:
388,80,143197,6,0,P|364:52|336:36,1,70
460,64,143616,2,0,P|436:136|368:152,1,140
224,110,144246,1,0,0:0:0:0:
279,288,144456,1,0,0:0:0:0:
303,110,144665,1,8,0:0:0:0:
171,204,144875,1,0,0:0:0:0:
416,204,145085,1,0,0:0:0:0:
264,164,145295,1,8,0:0:0:0:
264,164,145400,1,8,0:0:0:0:
264,164,145505,6,0,P|236:192|192:216,1,70
32,212,145924,2,0,P|60:184|104:160,1,70
228,99,146344,2,0,P|292:95|324:111,2,70,8|0|0,0:0|0:0|0:0,0:0:0:0:
164,304,146973,2,0,P|196:328|296:316,1,140
446,192,147602,1,0,0:0:0:0:
235,230,147812,1,0,0:0:0:0:
353,107,148022,1,8,0:0:0:0:
304,316,148232,1,0,0:0:0:0:
232,139,148442,6,0,L|164:115,1,70
4,292,148861,2,0,L|76:312,1,70
276,297,149281,1,0,0:0:0:0:
380,132,149491,1,0,0:0:0:0:
244,204,149700,1,8,0:0:0:0:
454,209,149910,1,0,0:0:0:0:
244,204,150120,2,0,P|208:205|172:200,1,70,0|8,0:0|0:0,0:0:0:0:
36,127,150540,1,0,0:0:0:0:
84,264,150749,5,0,0:0:0:0:
168,160,150959,1,8,0:0:0:0:
206,143,151064,1,8,0:0:0:0:
248,143,151169,1,8,0:0:0:0:
289,143,151273,1,8,0:0:0:0:
329,154,151378,1,8,0:0:0:0:
350,118,151483,1,0,0:0:0:0:
379,88,151588,1,0,0:0:0:0:
421,88,151693,5,8,0:0:0:0:
458,106,151798,1,8,0:0:0:0:
481,140,151903,1,8,0:0:0:0:
481,182,152008,1,0,0:0:0:0:
473,223,152113,1,0,0:0:0:0:
443,252,152217,1,0,0:0:0:0:
376,96,165644,5,8,0:0:0:0:
405,125,165749,1,0,0:0:0:0:
425,161,165854,1,0,0:0:0:0:
433,202,165959,1,8,0:0:0:0:
433,244,166064,1,0,0:0:0:0:
419,283,166169,1,0,0:0:0:0:
389,312,166273,1,8,0:0:0:0:
352,332,166378,1,0,0:0:0:0:
309,332,166483,5,8,0:0:0:0:
268,321,166588,1,0,0:0:0:0:
238,291,166693,1,0,0:0:0:0:
214,256,166798,1,8,0:0:0:0:
214,213,166903,1,0,0:0:0:0:
214,170,167008,1,0,0:0:0:0:
200,130,167113,1,0,0:0:0:0:
170,100,167217,1,0,0:0:0:0:
130,85,167322,6,0,L|96:80,3,35,0|0|2|0,0:0|0:0|1:0|0:0,0:0:0:0:
232,36,167742,2,0,L|272:32,3,35,2|0|0|0,1:0|0:0|0:0|0:0,0:0:0:0:
336,88,168162,1,8,0:0:0:0:
300,109,168266,1,0,0:0:0:0:
270,138,168371,1,0,0:0:0:0:
250,175,168476,1,8,0:0:0:0:
250,217,168581,1,8,0:0:0:0:
250,259,168686,1,0,0:0:0:0:
265,298,168791,5,2,1:0:0:0:
299,321,168896,1,0,0:0:0:0:
338,336,169001,1,8,0:0:0:0:
380,336,169106,1,0,0:0:0:0:
416,315,169210,1,0,0:0:0:0:
424,273,169315,1,8,0:0:0:0:
403,236,169420,1,0,0:0:0:0:
363,220,169525,1,0,0:0:0:0:
320,220,169630,5,8,0:0:0:0:
278,227,169735,1,0,0:0:0:0:
238,240,169840,1,8,0:0:0:0:
199,255,169945,1,0,0:0:0:0:
157,247,170050,1,0,0:0:0:0:
127,217,170155,1,8,0:0:0:0:
107,180,170259,1,0,0:0:0:0:
107,137,170364,1,0,0:0:0:0:
127,100,170469,1,0,0:0:0:0:
156,70,170574,1,0,0:0:0:0:
196,58,170679,6,0,L|232:52,3,35,0|0|2|0,0:0|0:0|1:0|0:0,0:0:0:0:
328,80,171099,2,0,L|304:112,3,35,2|0|0|0,1:0|0:0|0:0|0:0,0:0:0:0:
368,204,171518,1,8,0:0:0:0:
325,204,171623,1,0,0:0:0:0:
283,195,171728,1,0,0:0:0:0:
253,165,171833,1,8,0:0:0:0:
230,129,171938,1,8,0:0:0:0:
191,146,172043,5,0,0:0:0:0:
161,175,172148,1,2,1:0:0:0:
143,212,172252,1,0,0:0:0:0:
143,254,172357,1,8,0:0:0:0:
156,293,172462,1,0,0:0:0:0:
185,322,172567,1,0,0:0:0:0:
223,339,172672,1,8,0:0:0:0:
265,339,172777,1,0,0:0:0:0:
305,327,172882,5,0,0:0:0:0:
341,306,172987,1,8,0:0:0:0:
370,276,173092,1,0,0:0:0:0:
379,235,173196,1,8,0:0:0:0:
379,192,173301,1,0,0:0:0:0:
368,151,173406,1,0,0:0:0:0:
346,114,173511,1,8,0:0:0:0:
316,84,173616,1,0,0:0:0:0:
276,69,173721,5,0,0:0:0:0:
235,58,173826,1,8,0:0:0:0:
192,58,173931,1,0,0:0:0:0:
151,69,174036,1,8,0:0:0:0:
115,90,174141,1,0,0:0:0:0:
85,119,174245,1,0,0:0:0:0:
55,148,174350,1,8,0:0:0:0:
26,179,174455,1,0,0:0:0:0:
17,220,174560,5,8,0:0:0:0:
17,262,174665,1,8,0:0:0:0:
46,291,174770,1,8,0:0:0:0:
87,300,174875,1,8,0:0:0:0:
141,298,174980,1,8,0:0:0:0:
193,277,175085,1,8,0:0:0:0:
232,237,175189,1,8,0:0:0:0:
271,197,175294,1,8,0:0:0:0:
320,169,175399,5,8,0:0:0:0:
376,169,175504,1,8,0:0:0:0:
424,197,175609,1,8,0:0:0:0:
434,252,175714,1,0,1:0:0:0:
168,156,179071,6,8,P|248:128|336:156,2,175,12|8|8,0:0|0:0|0:0,0:0:0:0:
30,272,180120,1,2,1:0:0:0:
313,265,180329,1,8,0:0:0:0:
21,232,180539,1,2,1:0:0:0:
313,320,180749,2,8,P|387:279|399:196,1,175
60,111,181483,5,2,1:0:0:0:
60,111,181588,2,0,P|94:84|134:68,1,87.5,8|2,0:0|1:0,0:0:0:0:
350,75,182008,1,8,0:0:0:0:
184,259,182217,1,2,1:0:0:0:
416,184,182427,2,8,P|319:171|232:176,1,175
139,47,183266,5,8,0:0:0:0:
243,222,183476,1,2,1:0:0:0:
348,48,183686,2,0,P|308:80|296:120,1,87.5,8|0,0:0|0:0,0:0:0:0:
320,214,184106,2,8,P|252:226|200:138,1,175
302,118,184840,1,2,1:0:0:0:
302,118,184945,2,0,L|405:116,1,87.5,8|2,0:0|1:0,0:0:0:0:
162,202,185364,1,8,0:0:0:0:
386,268,185574,1,2,1:0:0:0:
145,303,185784,6,8,P|75:273|61:167,1,175
360,112,186623,2,0,P|400:96|428:60,2,87.5,8|2|8,0:0|1:0|0:0,0:0:0:0:
201,34,187252,1,0,0:0:0:0:
80,173,187462,2,8,B|47:262|104:338,1,175
443,259,188196,5,2,1:0:0:0:
443,259,188301,2,0,L|444:348,1,87.5,8|2,0:0|1:0,0:0:0:0:
439,136,188721,1,8,0:0:0:0:
333,280,188931,1,2,1:0:0:0:
195,162,189141,2,8,P|156:84|170:0,1,175
244,60,189980,5,8,0:0:0:0:
172,290,190189,1,2,1:0:0:0:
86,59,190399,1,8,0:0:0:0:
385,131,190609,1,2,1:0:0:0:
200,160,190819,1,4,0:0:0:0:
179,217,190924,1,8,0:0:0:0:
196,275,191029,1,8,0:0:0:0:
239,318,191134,1,8,0:0:0:0:
298,329,191238,5,0,0:0:0:0:
357,314,191343,1,0,0:0:0:0:
400,270,191448,1,0,0:0:0:0:
425,214,191553,1,8,0:0:0:0:
404,156,191658,1,0,0:0:0:0:
352,123,191763,1,8,0:0:0:0:
290,123,191868,1,8,0:0:0:0:
231,105,191973,1,0,0:0:0:0:
187,61,192078,5,8,0:0:0:0:
126,61,192182,1,0,0:0:0:0:
82,104,192287,1,0,0:0:0:0:
66,163,192392,1,0,0:0:0:0:
68,220,192497,1,4,0:0:0:0:
220,308,192917,6,0,B|277:320|277:320|348:320,1,112,2|8,0:3|0:0,0:0:0:0:
494,243,193756,1,2,0:3:0:0:
306,136,194175,2,0,B|263:113|263:113|194:100,2,112,0|2|8,0:3|0:3|0:0,0:0:0:0:
223,188,195434,1,2,0:3:0:0:
420,200,195854,5,4,0:0:0:0:
420,200,196064,2,0,P|388:228|352:240,1,56,2|2,1:0|0:3,0:0:0:0:
124,152,196693,1,8,0:0:0:0:
124,152,196903,1,2,1:0:0:0:
124,152,197113,1,2,0:3:0:0:
276,160,197532,6,0,P|327:124|344:80,1,112,0|2,0:0|0:3,0:0:0:0:
243,65,198371,2,0,P|223:84|210:109,2,56,8|0|2,0:0|0:0|3:0,0:0:0:0:
373,235,199210,1,4,0:0:0:0:
373,235,199420,1,0,0:0:0:0:
373,235,199630,1,2,0:3:0:0:
448,92,200050,6,0,P|428:72|400:56,1,56,8|0,0:0|0:0,0:0:0:0:
300,40,200469,1,2,0:3:0:0:
60,144,200889,2,0,P|128:179|168:208,1,112,0|2,0:0|0:3,0:0:0:0:
299,307,201728,1,8,0:0:0:0:
364,268,201938,1,0,0:0:0:0:
431,311,202148,1,2,0:3:0:0:
416,168,202567,6,0,L|432:104,1,56,4|0,0:0|0:0,0:0:0:0:
432,36,202987,1,2,0:3:0:0:
116,64,203406,1,8,0:0:0:0:
116,64,203616,1,0,0:0:0:0:
116,64,203826,1,2,0:3:0:0:
268,164,204245,5,8,0:0:0:0:
228,164,204350,1,8,0:0:0:0:
191,179,204455,1,8,0:0:0:0:
163,206,204560,1,8,0:0:0:0:
149,243,204665,1,8,0:0:0:0:
156,281,204770,1,8,0:0:0:0:
183,308,204875,1,8,0:0:0:0:
220,319,204980,1,8,0:0:0:0:
259,319,205085,5,8,0:0:0:0:
293,301,205189,1,8,0:0:0:0:
320,273,205294,1,8,0:0:0:0:
331,235,205399,1,8,0:0:0:0:
322,196,205504,1,8,0:0:0:0:
333,158,205609,1,8,0:0:0:0:
360,130,205714,1,8,0:0:0:0:
399,130,205819,1,8,0:0:0:0:
424,156,205924,5,4,0:0:0:0:
