osu file format v14

[General]
AudioFilename: audio.mp3
AudioLeadIn: 0
PreviewTime: 73688
Countdown: 0
SampleSet: Soft
StackLeniency: 0.7
Mode: 3
LetterboxInBreaks: 0
SpecialStyle: 0
WidescreenStoryboard: 1

[Editor]
DistanceSpacing: 0.5
BeatDivisor: 12
GridSize: 32
TimelineZoom: 2.4

[Metadata]
Title:ouch
TitleUnicode:ouch
Artist:Bring Me The Horizon
ArtistUnicode:Bring Me The Horizon
Creator:arccat
Version:la normale
Source:
Tags:bmth Francesco Cameli Daniel Morris Dan Lancaster Rhys May Ted Jensen Matt Nicholis Matt Kean Lee Malia Jordan Fish Oliver Sykes track 6 amo 2019 sony music entertainment follow you rock pop interlude electronic english electro-pop logan636
BeatmapID:4073751
BeatmapSetID:1964656

[Difficulty]
HPDrainRate:7.4
CircleSize:4
OverallDifficulty:7.4
ApproachRate:5
SliderMultiplier:1.4
SliderTickRate:1

[Events]
//Background and Video events
0,0,"2120s9uu18461.jpg",0,0
//Break Periods
//Storyboard Layer 0 (Background)
//Storyboard Layer 1 (Fail)
//Storyboard Layer 2 (Pass)
//Storyboard Layer 3 (Foreground)
//Storyboard Layer 4 (Overlay)
//Storyboard Sound Samples

[TimingPoints]
188,375,4,2,1,20,1,0

[HitObjects]
64,192,188,128,0,1688:0:0:0:0:
448,192,1688,128,0,3188:0:0:0:0:
192,192,3188,128,0,4875:0:0:0:0:
320,192,4875,128,0,6188:0:0:0:0:
64,192,6188,128,0,7688:0:0:0:0:
448,192,7688,128,0,9156:0:0:0:0:
192,192,9156,128,0,10813:0:0:0:0:
320,192,10813,128,0,11406:0:0:0:0:
448,192,11406,128,0,11781:0:0:0:0:
64,192,11781,128,0,12188:0:0:0:0:
192,192,13688,1,0,0:0:0:0:
64,192,13688,1,0,0:0:0:0:
320,192,13781,1,0,0:0:0:0:
192,192,14063,1,0,0:0:0:0:
64,192,14250,1,0,0:0:0:0:
192,192,14250,1,0,0:0:0:0:
320,192,14438,1,0,0:0:0:0:
64,192,14625,1,0,0:0:0:0:
192,192,14719,1,0,0:0:0:0:
320,192,14813,1,0,0:0:0:0:
448,192,14906,1,0,0:0:0:0:
192,192,15188,128,0,15375:0:0:0:0:
448,192,15375,1,0,0:0:0:0:
320,192,15375,1,0,0:0:0:0:
192,192,15563,1,0,0:0:0:0:
320,192,15656,1,0,0:0:0:0:
192,192,15938,1,0,0:0:0:0:
320,192,15938,1,0,0:0:0:0:
448,192,16031,1,0,0:0:0:0:
192,192,16313,1,0,0:0:0:0:
64,192,16313,1,0,0:0:0:0:
448,192,16688,1,0,0:0:0:0:
320,192,16688,1,0,0:0:0:0:
192,192,16781,1,0,0:0:0:0:
320,192,17063,1,0,0:0:0:0:
448,192,17250,128,0,17438:0:0:0:0:
192,192,17250,1,0,0:0:0:0:
64,192,17438,128,0,17625:0:0:0:0:
448,192,17625,1,0,0:0:0:0:
320,192,17719,1,0,0:0:0:0:
192,192,17813,1,0,0:0:0:0:
64,192,17906,1,0,0:0:0:0:
320,192,18000,128,0,18188:0:0:0:0:
192,192,18188,128,0,18375:0:0:0:0:
448,192,18375,1,0,0:0:0:0:
320,192,18375,1,0,0:0:0:0:
64,192,18563,1,0,0:0:0:0:
64,192,18750,1,0,0:0:0:0:
448,192,18938,1,0,0:0:0:0:
320,192,18938,1,0,0:0:0:0:
192,192,19031,1,0,0:0:0:0:
192,192,19313,1,0,0:0:0:0:
448,192,19313,1,0,0:0:0:0:
192,192,19500,1,0,0:0:0:0:
320,192,19688,1,0,0:0:0:0:
448,192,19688,1,0,0:0:0:0:
192,192,19781,1,0,0:0:0:0:
320,192,20063,1,0,0:0:0:0:
448,192,20250,1,0,0:0:0:0:
320,192,20250,1,0,0:0:0:0:
64,192,20438,1,0,0:0:0:0:
448,192,20625,1,0,0:0:0:0:
320,192,20719,1,0,0:0:0:0:
192,192,20813,1,0,0:0:0:0:
64,192,20906,1,0,0:0:0:0:
320,192,21188,128,0,21375:0:0:0:0:
64,192,21375,1,0,0:0:0:0:
192,192,21375,1,0,0:0:0:0:
320,192,21563,1,0,0:0:0:0:
192,192,21656,1,0,0:0:0:0:
320,192,21938,1,0,0:0:0:0:
192,192,21938,1,0,0:0:0:0:
64,192,22031,1,0,0:0:0:0:
320,192,22313,1,0,0:0:0:0:
448,192,22313,1,0,0:0:0:0:
64,192,22688,1,0,0:0:0:0:
192,192,22688,1,0,0:0:0:0:
320,192,22781,1,0,0:0:0:0:
192,192,23063,1,0,0:0:0:0:
64,192,23250,128,0,23438:0:0:0:0:
320,192,23250,1,0,0:0:0:0:
448,192,23438,128,0,23625:0:0:0:0:
64,192,23625,1,0,0:0:0:0:
192,192,23719,1,0,0:0:0:0:
320,192,23813,1,0,0:0:0:0:
448,192,23906,1,0,0:0:0:0:
192,192,24000,128,0,24188:0:0:0:0:
320,192,24188,128,0,24375:0:0:0:0:
64,192,24375,1,0,0:0:0:0:
192,192,24375,1,0,0:0:0:0:
448,192,24563,1,0,0:0:0:0:
448,192,24750,1,0,0:0:0:0:
64,192,24938,1,0,0:0:0:0:
192,192,24938,1,0,0:0:0:0:
320,192,25031,1,0,0:0:0:0:
320,192,25313,1,0,0:0:0:0:
64,192,25313,1,0,0:0:0:0:
320,192,25500,1,0,0:0:0:0:
192,192,25594,1,0,0:0:0:0:
64,192,25688,128,0,26438:0:0:0:0:
320,192,26438,1,0,0:0:0:0:
448,192,26531,1,0,0:0:0:0:
192,192,26625,1,0,0:0:0:0:
320,192,26719,1,0,0:0:0:0:
448,192,26813,1,0,0:0:0:0:
64,192,26813,1,0,0:0:0:0:
192,192,27000,1,0,0:0:0:0:
320,192,27188,1,0,0:0:0:0:
192,192,27281,1,0,0:0:0:0:
448,192,27375,1,0,0:0:0:0:
448,192,27563,1,0,0:0:0:0:
64,192,27844,1,0,0:0:0:0:
320,192,27938,1,0,0:0:0:0:
448,192,28219,1,0,0:0:0:0:
192,192,28313,1,0,0:0:0:0:
64,192,28500,1,0,0:0:0:0:
320,192,28688,1,0,0:0:0:0:
448,192,28688,1,0,0:0:0:0:
192,192,28875,1,0,0:0:0:0:
64,192,29063,1,0,0:0:0:0:
448,192,29063,1,0,0:0:0:0:
320,192,29250,1,0,0:0:0:0:
192,192,29344,1,0,0:0:0:0:
448,192,29438,1,0,0:0:0:0:
448,192,29625,1,0,0:0:0:0:
64,192,29813,1,0,0:0:0:0:
320,192,29906,1,0,0:0:0:0:
192,192,30000,1,0,0:0:0:0:
192,192,30188,1,0,0:0:0:0:
448,192,30375,1,0,0:0:0:0:
192,192,30469,1,0,0:0:0:0:
320,192,30563,1,0,0:0:0:0:
320,192,30750,1,0,0:0:0:0:
64,192,30938,1,0,0:0:0:0:
320,192,31031,1,0,0:0:0:0:
192,192,31125,1,0,0:0:0:0:
192,192,31313,128,0,31688:0:0:0:0:
448,192,31688,1,0,0:0:0:0:
320,192,31688,1,0,0:0:0:0:
192,192,31875,1,0,0:0:0:0:
448,192,32063,1,0,0:0:0:0:
64,192,32063,1,0,0:0:0:0:
448,192,32250,1,0,0:0:0:0:
192,192,32344,1,0,0:0:0:0:
320,192,32438,1,0,0:0:0:0:
320,192,32625,1,0,0:0:0:0:
64,192,32813,1,0,0:0:0:0:
320,192,32906,1,0,0:0:0:0:
192,192,33000,1,0,0:0:0:0:
192,192,33188,1,0,0:0:0:0:
320,192,33375,1,0,0:0:0:0:
192,192,33469,1,0,0:0:0:0:
448,192,33563,1,0,0:0:0:0:
448,192,33750,1,0,0:0:0:0:
192,192,33938,1,0,0:0:0:0:
320,192,34031,1,0,0:0:0:0:
64,192,34125,1,0,0:0:0:0:
64,192,34313,128,0,34688:0:0:0:0:
448,192,34688,1,0,0:0:0:0:
320,192,34688,1,0,0:0:0:0:
192,192,34875,1,0,0:0:0:0:
64,192,35063,1,0,0:0:0:0:
448,192,35063,1,0,0:0:0:0:
320,192,35344,1,0,0:0:0:0:
192,192,35438,1,0,0:0:0:0:
192,192,35625,1,0,0:0:0:0:
192,192,35906,1,0,0:0:0:0:
320,192,36000,1,0,0:0:0:0:
320,192,36188,1,0,0:0:0:0:
320,192,36469,1,0,0:0:0:0:
448,192,36563,1,0,0:0:0:0:
448,192,36750,1,0,0:0:0:0:
320,192,36844,1,0,0:0:0:0:
192,192,36938,1,0,0:0:0:0:
320,192,37125,1,0,0:0:0:0:
192,192,37219,1,0,0:0:0:0:
64,192,37313,128,0,37688:0:0:0:0:
448,192,37688,128,0,38438:0:0:0:0:
64,192,38438,1,0,0:0:0:0:
192,192,38531,1,0,0:0:0:0:
320,192,38625,1,0,0:0:0:0:
448,192,38719,1,0,0:0:0:0:
64,192,38813,128,0,39188:0:0:0:0:
448,192,39000,128,0,39188:0:0:0:0:
320,192,39188,128,0,39375:0:0:0:0:
192,192,39375,128,0,39750:0:0:0:0:
64,192,39563,128,0,39750:0:0:0:0:
448,192,39750,128,0,39938:0:0:0:0:
320,192,39938,128,0,40313:0:0:0:0:
64,192,40125,128,0,40313:0:0:0:0:
192,192,40313,128,0,40500:0:0:0:0:
448,192,40500,128,0,40688:0:0:0:0:
64,192,40688,128,0,41063:0:0:0:0:
320,192,40875,128,0,41063:0:0:0:0:
192,192,41063,128,0,41250:0:0:0:0:
448,192,41250,128,0,41438:0:0:0:0:
64,192,41438,128,0,41813:0:0:0:0:
192,192,41625,128,0,41813:0:0:0:0:
320,192,41813,128,0,42188:0:0:0:0:
64,192,42000,128,0,42188:0:0:0:0:
448,192,42188,128,0,42375:0:0:0:0:
192,192,42375,128,0,42750:0:0:0:0:
320,192,42563,128,0,42750:0:0:0:0:
64,192,42750,128,0,42938:0:0:0:0:
448,192,42938,128,0,43313:0:0:0:0:
192,192,43125,1,0,0:0:0:0:
64,192,43219,1,0,0:0:0:0:
320,192,43313,1,0,0:0:0:0:
448,192,43406,1,0,0:0:0:0:
64,192,43500,1,0,0:0:0:0:
192,192,43594,1,0,0:0:0:0:
448,192,43688,128,0,44063:0:0:0:0:
64,192,43875,128,0,44063:0:0:0:0:
192,192,44063,128,0,44250:0:0:0:0:
320,192,44250,128,0,44438:0:0:0:0:
64,192,44438,128,0,44813:0:0:0:0:
448,192,44625,128,0,44813:0:0:0:0:
320,192,44813,128,0,45188:0:0:0:0:
64,192,45000,128,0,45188:0:0:0:0:
448,192,45188,128,0,45375:0:0:0:0:
192,192,45375,128,0,45750:0:0:0:0:
320,192,45563,128,0,45750:0:0:0:0:
64,192,45750,128,0,45938:0:0:0:0:
448,192,45938,128,0,46313:0:0:0:0:
192,192,46125,128,0,46313:0:0:0:0:
320,192,46313,128,0,46500:0:0:0:0:
64,192,46500,128,0,46688:0:0:0:0:
448,192,46688,1,0,0:0:0:0:
192,192,46875,1,0,0:0:0:0:
320,192,47063,1,0,0:0:0:0:
448,192,47063,1,0,0:0:0:0:
192,192,47344,1,0,0:0:0:0:
320,192,47438,1,0,0:0:0:0:
320,192,47625,1,0,0:0:0:0:
192,192,47906,1,0,0:0:0:0:
64,192,48000,1,0,0:0:0:0:
64,192,48188,1,0,0:0:0:0:
320,192,48469,1,0,0:0:0:0:
448,192,48563,1,0,0:0:0:0:
448,192,48750,1,0,0:0:0:0:
320,192,48844,1,0,0:0:0:0:
192,192,48938,1,0,0:0:0:0:
320,192,49125,1,0,0:0:0:0:
192,192,49219,1,0,0:0:0:0:
64,192,49313,1,0,0:0:0:0:
320,192,49500,1,0,0:0:0:0:
448,192,49594,128,0,51188:0:0:0:0:
192,192,51188,128,0,52688:0:0:0:0:
320,192,52688,128,0,54375:0:0:0:0:
64,192,54375,128,0,55688:0:0:0:0:
448,192,55688,128,0,57125:0:0:0:0:
192,192,57125,128,0,58656:0:0:0:0:
320,192,58656,128,0,59938:0:0:0:0:
448,192,59938,128,0,60375:0:0:0:0:
192,192,60375,128,0,60906:0:0:0:0:
320,192,60906,128,0,61313:0:0:0:0:
64,192,61313,128,0,61688:0:0:0:0:
448,192,61688,1,0,0:0:0:0:
320,192,61688,1,0,0:0:0:0:
192,192,61781,1,0,0:0:0:0:
448,192,62063,1,0,0:0:0:0:
320,192,62250,1,0,0:0:0:0:
64,192,62344,1,0,0:0:0:0:
192,192,62531,1,0,0:0:0:0:
448,192,62625,1,0,0:0:0:0:
192,192,62813,1,0,0:0:0:0:
64,192,62813,1,0,0:0:0:0:
320,192,62906,1,0,0:0:0:0:
64,192,63094,1,0,0:0:0:0:
192,192,63375,1,0,0:0:0:0:
192,192,63563,1,0,0:0:0:0:
448,192,63656,1,0,0:0:0:0:
320,192,63938,1,0,0:0:0:0:
448,192,63938,1,0,0:0:0:0:
192,192,64031,1,0,0:0:0:0:
448,192,64219,1,0,0:0:0:0:
320,192,64500,1,0,0:0:0:0:
192,192,64688,1,0,0:0:0:0:
64,192,64688,1,0,0:0:0:0:
320,192,64781,1,0,0:0:0:0:
64,192,65063,1,0,0:0:0:0:
320,192,65250,1,0,0:0:0:0:
192,192,65438,1,0,0:0:0:0:
448,192,65625,1,0,0:0:0:0:
320,192,65719,1,0,0:0:0:0:
192,192,65813,1,0,0:0:0:0:
64,192,65906,1,0,0:0:0:0:
448,192,66000,1,0,0:0:0:0:
192,192,66188,1,0,0:0:0:0:
320,192,66375,1,0,0:0:0:0:
64,192,66563,1,0,0:0:0:0:
320,192,66750,1,0,0:0:0:0:
192,192,66938,1,0,0:0:0:0:
64,192,66938,1,0,0:0:0:0:
320,192,67031,1,0,0:0:0:0:
320,192,67313,1,0,0:0:0:0:
64,192,67500,1,0,0:0:0:0:
320,192,67688,1,0,0:0:0:0:
448,192,67688,1,0,0:0:0:0:
192,192,67781,1,0,0:0:0:0:
192,192,68063,1,0,0:0:0:0:
320,192,68250,1,0,0:0:0:0:
64,192,68344,1,0,0:0:0:0:
192,192,68531,1,0,0:0:0:0:
448,192,68625,1,0,0:0:0:0:
64,192,68813,1,0,0:0:0:0:
192,192,68813,1,0,0:0:0:0:
320,192,68906,1,0,0:0:0:0:
448,192,69094,1,0,0:0:0:0:
192,192,69281,1,0,0:0:0:0:
64,192,69375,1,0,0:0:0:0:
320,192,69563,1,0,0:0:0:0:
448,192,69656,1,0,0:0:0:0:
192,192,69938,1,0,0:0:0:0:
64,192,69938,1,0,0:0:0:0:
320,192,70031,1,0,0:0:0:0:
320,192,70313,1,0,0:0:0:0:
64,192,70500,1,0,0:0:0:0:
448,192,70688,1,0,0:0:0:0:
64,192,73688,128,0,74438:0:0:0:0:
320,192,74438,1,0,0:0:0:0:
192,192,74531,1,0,0:0:0:0:
448,192,74625,1,0,0:0:0:0:
320,192,74719,1,0,0:0:0:0:
192,192,74813,1,0,0:0:0:0:
64,192,74813,1,0,0:0:0:0:
320,192,75000,1,0,0:0:0:0:
448,192,75188,1,0,0:0:0:0:
192,192,75281,1,0,0:0:0:0:
320,192,75375,1,0,0:0:0:0:
320,192,75563,1,0,0:0:0:0:
64,192,75563,1,0,0:0:0:0:
448,192,75844,1,0,0:0:0:0:
192,192,75938,1,0,0:0:0:0:
64,192,76219,1,0,0:0:0:0:
320,192,76313,1,0,0:0:0:0:
192,192,76500,1,0,0:0:0:0:
320,192,76594,1,0,0:0:0:0:
64,192,76688,1,0,0:0:0:0:
448,192,76688,1,0,0:0:0:0:
192,192,76875,1,0,0:0:0:0:
320,192,77063,1,0,0:0:0:0:
448,192,77063,1,0,0:0:0:0:
192,192,77250,1,0,0:0:0:0:
320,192,77344,1,0,0:0:0:0:
64,192,77438,1,0,0:0:0:0:
64,192,77625,1,0,0:0:0:0:
320,192,77813,1,0,0:0:0:0:
192,192,77906,1,0,0:0:0:0:
448,192,78000,1,0,0:0:0:0:
448,192,78188,1,0,0:0:0:0:
192,192,78375,1,0,0:0:0:0:
320,192,78469,1,0,0:0:0:0:
64,192,78563,1,0,0:0:0:0:
64,192,78750,1,0,0:0:0:0:
448,192,78938,1,0,0:0:0:0:
192,192,79031,1,0,0:0:0:0:
320,192,79125,1,0,0:0:0:0:
320,192,79313,128,0,79688:0:0:0:0:
192,192,79688,1,0,0:0:0:0:
64,192,79688,1,0,0:0:0:0:
320,192,79875,1,0,0:0:0:0:
448,192,80063,1,0,0:0:0:0:
64,192,80063,1,0,0:0:0:0:
64,192,80250,1,0,0:0:0:0:
192,192,80344,1,0,0:0:0:0:
320,192,80438,1,0,0:0:0:0:
320,192,80625,1,0,0:0:0:0:
192,192,80813,1,0,0:0:0:0:
320,192,80906,1,0,0:0:0:0:
64,192,81000,1,0,0:0:0:0:
64,192,81188,1,0,0:0:0:0:
320,192,81375,1,0,0:0:0:0:
192,192,81469,1,0,0:0:0:0:
448,192,81563,1,0,0:0:0:0:
448,192,81750,1,0,0:0:0:0:
64,192,81938,1,0,0:0:0:0:
320,192,82031,1,0,0:0:0:0:
192,192,82125,1,0,0:0:0:0:
192,192,82313,128,0,82688:0:0:0:0:
448,192,82688,1,0,0:0:0:0:
320,192,82688,1,0,0:0:0:0:
192,192,82875,1,0,0:0:0:0:
64,192,83063,1,0,0:0:0:0:
448,192,83063,1,0,0:0:0:0:
320,192,83344,1,0,0:0:0:0:
192,192,83438,1,0,0:0:0:0:
192,192,83625,1,0,0:0:0:0:
320,192,83906,1,0,0:0:0:0:
448,192,84000,1,0,0:0:0:0:
448,192,84188,1,0,0:0:0:0:
192,192,84469,1,0,0:0:0:0:
64,192,84563,1,0,0:0:0:0:
64,192,84750,1,0,0:0:0:0:
192,192,84844,1,0,0:0:0:0:
320,192,84938,1,0,0:0:0:0:
192,192,85125,1,0,0:0:0:0:
320,192,85219,1,0,0:0:0:0:
448,192,85313,128,0,85688:0:0:0:0:
64,192,85688,128,0,86438:0:0:0:0:
320,192,86438,1,0,0:0:0:0:
192,192,86531,1,0,0:0:0:0:
64,192,86625,1,0,0:0:0:0:
320,192,86719,1,0,0:0:0:0:
448,192,86813,128,0,87188:0:0:0:0:
64,192,87000,128,0,87188:0:0:0:0:
192,192,87188,128,0,87375:0:0:0:0:
320,192,87375,128,0,87750:0:0:0:0:
448,192,87563,128,0,87750:0:0:0:0:
64,192,87750,128,0,87938:0:0:0:0:
192,192,87938,128,0,88313:0:0:0:0:
320,192,88125,128,0,88313:0:0:0:0:
64,192,88313,128,0,88500:0:0:0:0:
448,192,88500,128,0,88688:0:0:0:0:
192,192,88688,128,0,89063:0:0:0:0:
64,192,88875,128,0,89063:0:0:0:0:
448,192,89063,128,0,89250:0:0:0:0:
64,192,89250,128,0,89438:0:0:0:0:
320,192,89438,128,0,89813:0:0:0:0:
192,192,89625,128,0,89813:0:0:0:0:
448,192,89813,128,0,90000:0:0:0:0:
64,192,90000,128,0,90188:0:0:0:0:
320,192,90188,128,0,90375:0:0:0:0:
192,192,90375,128,0,90750:0:0:0:0:
64,192,90563,128,0,90750:0:0:0:0:
448,192,90750,128,0,90938:0:0:0:0:
320,192,90938,128,0,91125:0:0:0:0:
64,192,91125,1,0,0:0:0:0:
192,192,91219,1,0,0:0:0:0:
320,192,91313,1,0,0:0:0:0:
448,192,91406,1,0,0:0:0:0:
192,192,91500,1,0,0:0:0:0:
64,192,91594,1,0,0:0:0:0:
320,192,91688,128,0,92063:0:0:0:0:
448,192,91875,128,0,92063:0:0:0:0:
64,192,92063,128,0,92250:0:0:0:0:
192,192,92250,128,0,92438:0:0:0:0:
320,192,92438,128,0,92813:0:0:0:0:
448,192,92625,128,0,92813:0:0:0:0:
64,192,92813,128,0,93188:0:0:0:0:
192,192,93000,128,0,93188:0:0:0:0:
448,192,93188,128,0,93375:0:0:0:0:
320,192,93375,128,0,93750:0:0:0:0:
64,192,93563,128,0,93750:0:0:0:0:
192,192,93750,128,0,93938:0:0:0:0:
448,192,93938,128,0,94313:0:0:0:0:
64,192,94125,128,0,94313:0:0:0:0:
320,192,94313,128,0,94500:0:0:0:0:
192,192,94500,128,0,94688:0:0:0:0:
448,192,94688,1,0,0:0:0:0:
320,192,94688,1,0,0:0:0:0:
192,192,94875,1,0,0:0:0:0:
64,192,95063,1,0,0:0:0:0:
448,192,95063,1,0,0:0:0:0:
320,192,95250,1,0,0:0:0:0:
64,192,95344,1,0,0:0:0:0:
192,192,95438,1,0,0:0:0:0:
192,192,95625,1,0,0:0:0:0:
320,192,95813,1,0,0:0:0:0:
192,192,95906,1,0,0:0:0:0:
448,192,96000,1,0,0:0:0:0:
448,192,96188,1,0,0:0:0:0:
192,192,96375,1,0,0:0:0:0:
320,192,96469,1,0,0:0:0:0:
64,192,96563,1,0,0:0:0:0:
64,192,96750,1,0,0:0:0:0:
192,192,96844,1,0,0:0:0:0:
320,192,96938,1,0,0:0:0:0:
192,192,97125,1,0,0:0:0:0:
320,192,97219,1,0,0:0:0:0:
448,192,97313,1,0,0:0:0:0:
192,192,97500,1,0,0:0:0:0:
320,192,97688,128,0,98438:0:0:0:0:
64,192,98438,1,0,0:0:0:0:
192,192,98531,1,0,0:0:0:0:
320,192,98625,1,0,0:0:0:0:
448,192,98719,1,0,0:0:0:0:
64,192,98813,128,0,99188:0:0:0:0:
192,192,99000,128,0,99188:0:0:0:0:
448,192,99188,128,0,99375:0:0:0:0:
320,192,99375,128,0,99750:0:0:0:0:
64,192,99563,128,0,99750:0:0:0:0:
192,192,99750,128,0,99938:0:0:0:0:
448,192,99938,128,0,100313:0:0:0:0:
320,192,100125,128,0,100313:0:0:0:0:
64,192,100313,128,0,100500:0:0:0:0:
320,192,100500,1,0,0:0:0:0:
448,192,100594,1,0,0:0:0:0:
192,192,100688,128,0,101063:0:0:0:0:
64,192,100875,128,0,101063:0:0:0:0:
448,192,101063,128,0,101250:0:0:0:0:
320,192,101250,128,0,101438:0:0:0:0:
192,192,101438,128,0,101813:0:0:0:0:
64,192,101625,128,0,101813:0:0:0:0:
448,192,101813,128,0,102000:0:0:0:0:
64,192,102000,128,0,102188:0:0:0:0:
320,192,102188,128,0,102375:0:0:0:0:
192,192,102375,128,0,102750:0:0:0:0:
448,192,102563,128,0,102750:0:0:0:0:
320,192,102750,128,0,102938:0:0:0:0:
64,192,102938,128,0,103125:0:0:0:0:
448,192,103125,1,0,0:0:0:0:
320,192,103219,1,0,0:0:0:0:
192,192,103313,1,0,0:0:0:0:
64,192,103406,1,0,0:0:0:0:
320,192,103500,1,0,0:0:0:0:
448,192,103594,1,0,0:0:0:0:
192,192,103688,128,0,104063:0:0:0:0:
64,192,103875,128,0,104063:0:0:0:0:
448,192,104063,128,0,104250:0:0:0:0:
192,192,104250,128,0,104438:0:0:0:0:
320,192,104438,1,0,0:0:0:0:
192,192,104531,1,0,0:0:0:0:
192,192,104719,1,0,0:0:0:0:
320,192,104813,128,0,105188:0:0:0:0:
448,192,105000,128,0,105188:0:0:0:0:
64,192,105188,128,0,105375:0:0:0:0:
192,192,105375,128,0,105750:0:0:0:0:
320,192,105563,128,0,105750:0:0:0:0:
64,192,105750,128,0,105938:0:0:0:0:
448,192,105938,1,0,0:0:0:0:
192,192,106063,1,0,0:0:0:0:
320,192,106188,1,0,0:0:0:0:
64,192,106313,1,0,0:0:0:0:
320,192,106438,1,0,0:0:0:0:
192,192,106563,1,0,0:0:0:0:
448,192,106688,1,0,0:0:0:0:
