osu file format v14

[General]
AudioFilename: audio.mp3
AudioLeadIn: 0
PreviewTime: 37355
Countdown: 0
SampleSet: Soft
StackLeniency: 0.3
Mode: 2
LetterboxInBreaks: 0
WidescreenStoryboard: 1

[Editor]
Bookmarks: 12739,25047,31201,37355,49662,55816,61970,74278,86585
DistanceSpacing: 1.1
BeatDivisor: 2
GridSize: 32
TimelineZoom: 2.7

[Metadata]
Title:in the dark
TitleUnicode:in the dark
Artist:Bring Me The Horizon
ArtistUnicode:Bring Me The Horizon
Creator:SirMirai
Version:Rain
Source:
Tags:_asriel amo bmth English Rock Cut Version -Joni- JBHyperion Rocma Armin A_r_M_i_N
BeatmapID:2458084
BeatmapSetID:1112696

[Difficulty]
HPDrainRate:6
CircleSize:4
OverallDifficulty:9
ApproachRate:9
SliderMultiplier:1.92
SliderTickRate:2

[Events]
//Background and Video events
0,0,"Karma.jpg",0,0
//Break Periods
//Storyboard Layer 0 (Background)
//Storyboard Layer 1 (Fail)
//Storyboard Layer 2 (Pass)
//Storyboard Layer 3 (Foreground)
//Storyboard Layer 4 (Overlay)
//Storyboard Sound Samples

[TimingPoints]
432,384.615384615385,4,2,1,100,1,0
12355,-100,4,2,1,40,0,0
12643,-100,4,2,1,40,0,0
12739,-100,4,2,1,60,0,0
24662,-100,4,2,1,60,0,0
25047,-100,4,2,1,70,0,0
25624,-100,4,2,1,70,0,0
25816,-100,4,2,1,70,0,0
26778,-100,4,2,1,70,0,0
26970,-100,4,2,1,70,0,0
28701,-100,4,2,1,70,0,0
28893,-100,4,2,1,70,0,0
29662,-100,4,2,1,70,0,0
31201,-100,4,2,1,70,0,0
31778,-100,4,2,1,70,0,0
31970,-100,4,2,1,70,0,0
32932,-100,4,2,1,70,0,0
33124,-100,4,2,1,70,0,0
34855,-100,4,2,1,70,0,0
35047,-100,4,2,1,70,0,0
36008,-100,4,2,1,70,0,0
36200,-100,4,2,1,70,0,0
36585,-100,4,2,1,70,0,0
36970,-100,4,2,1,70,0,0
37355,-100,4,2,1,80,0,1
38124,-100,4,2,1,80,0,1
38508,-100,4,2,1,80,0,1
39662,-100,4,2,1,80,0,1
40047,-100,4,2,1,80,0,1
40432,-100,4,2,1,80,0,1
40816,-100,4,2,1,80,0,1
41201,-100,4,2,1,80,0,1
41586,-100,4,2,1,80,0,1
42739,-100,4,2,1,80,0,1
43124,-100,4,2,1,80,0,1
43517,-100,4,2,1,80,0,1
43901,-100,4,2,1,80,0,1
44278,-100,4,2,1,80,0,1
44663,-100,4,2,1,80,0,1
45816,-100,4,2,1,80,0,1
46201,-100,4,2,1,80,0,1
47355,-100,4,2,1,80,0,1
47740,-100,4,2,1,80,0,1
49662,-100,4,2,1,80,0,1
50239,-100,4,2,1,80,0,1
50432,-100,4,2,1,80,0,1
50817,-100,4,2,1,80,0,1
51970,-100,4,2,1,80,0,1
52355,-100,4,2,1,80,0,1
52739,-100,4,2,1,80,0,1
53123,-100,4,2,1,80,0,1
53508,-100,4,2,1,80,0,1
53893,-100,4,2,1,80,0,1
55047,-100,4,2,1,80,0,1
55239,-100,4,2,1,80,0,1
55816,-100,4,2,1,80,0,1
56200,-100,4,2,1,80,0,1
56585,-100,4,2,1,80,0,1
56970,-100,4,2,1,80,0,1
58124,-100,4,2,1,80,0,1
58508,-100,4,2,1,80,0,1
59662,-100,4,2,1,80,0,1
60047,-100,4,2,1,80,0,1
61201,-100,4,2,1,80,0,1
61970,-100,4,2,1,70,0,0
63124,-100,4,2,1,70,0,0
65047,-100,4,2,1,70,0,0
66201,-100,4,2,1,70,0,0
68124,-100,4,2,1,70,0,0
68508,-100,4,2,1,70,0,0
69278,-100,4,2,1,70,0,0
69662,-100,4,2,1,70,0,0
71201,-100,4,2,1,70,0,0
74662,-100,4,2,1,60,0,0
75047,-100,4,2,1,50,0,0
75432,-100,4,2,1,60,0,0
75816,-100,4,2,1,50,0,0
76201,-100,4,2,1,40,0,0
76585,-100,4,2,1,30,0,0
76970,-100,4,2,1,15,0,0
77355,-100,4,2,1,5,0,0

[Colours]
Combo1 : 120,102,204
Combo2 : 128,0,128
Combo3 : 255,0,128
Combo4 : 83,153,200
Combo5 : 69,133,50

[HitObjects]
345,370,12355,5,8,0:0:0:0:
427,355,12451,2,0,L|438:252,1,96,8|8,0:0|0:0,0:0:0:0:
197,295,12739,6,0,P|134:291|111:154,1,192,2|0,1:2|0:0,0:0:0:0:
399,133,13508,2,0,L|207:133,1,192,10|0,0:2|1:2,0:0:0:0:
400,77,14278,6,0,L|384:189,1,96,2|2,0:0|0:0,0:0:0:0:
482,262,14662,1,2,1:2:0:0:
223,200,15047,2,0,L|431:200,1,192,10|0,0:2|0:0,0:0:0:0:
184,340,15816,6,0,L|152:228,1,96,2|2,1:2|0:0,0:0:0:0:
319,232,16201,2,0,L|345:139,1,96,2|2,0:0|0:0,0:0:0:0:
175,174,16585,2,0,P|99:148|58:46,1,192,10|2,0:2|1:2,0:0:0:0:
221,44,17162,1,2,0:0:0:0:
375,132,17355,6,0,L|503:131,1,96,2|0,0:0|0:0,0:0:0:0:
255,200,17739,2,0,P|191:216|143:360,1,192,2|10,1:2|0:2,0:0:0:0:
447,328,18508,2,0,L|459:219,1,96,2|0,0:0|0:0,0:0:0:0:
149,303,18893,6,0,P|71:282|65:148,1,192,2|0,1:2|0:0,0:0:0:0:
389,319,19662,2,0,P|443:299|436:160,1,192,10|0,0:2|1:2,0:0:0:0:
244,108,20432,6,0,L|248:211,1,96,2|2,0:0|0:0,0:0:0:0:
133,230,20816,2,0,L|125:342,1,96,2|0,1:2|0:0,0:0:0:0:
290,244,21201,2,0,P|259:161|164:155,1,192,10|0,0:2|0:0,0:0:0:0:
70,241,21778,1,2,0:0:0:0:
319,240,21970,6,0,L|319:139,1,96,2|2,1:2|0:0,0:0:0:0:
194,172,22355,2,0,L|191:66,1,96,2|2,0:0|0:0,0:0:0:0:
364,203,22739,2,0,P|425:155|406:41,1,192,10|2,0:2|1:2,0:0:0:0:
318,31,23316,1,2,0:0:0:0:
69,197,23508,6,0,L|297:192,2,192,2|2|10,0:0|1:2|0:2,0:0:0:0:
313,177,24662,2,0,L|398:83,1,96,2|2,0:0|0:0,0:0:0:0:
127,280,25047,5,2,1:2:0:0:
98,196,25239,1,2,0:0:0:0:
212,153,25431,1,2,0:0:0:0:
39,151,25623,1,2,0:0:0:0:
290,72,25816,2,0,P|353:97|295:248,1,192,10|2,0:2|1:2,0:0:0:0:
202,183,26393,1,0,0:0:0:0:
451,219,26585,6,0,L|476:16,1,192,2|0,0:0|1:2,0:0:0:0:
175,150,27355,2,0,L|168:54,1,96,10|2,0:2|0:0,0:0:0:0:
321,231,27739,2,0,L|332:128,1,96,2|2,0:0|0:0,0:0:0:0:
148,246,28124,6,0,P|61:218|70:91,1,192,2|2,1:2|0:0,0:0:0:0:
141,45,28701,1,0,0:0:0:0:
390,265,28893,2,0,P|437:230|414:108,1,192,10|0,0:2|1:2,0:0:0:0:
303,139,29470,1,0,0:0:0:0:
127,280,29662,5,2,0:0:0:0:
98,196,29854,1,2,0:0:0:0:
212,153,30046,1,2,1:2:0:0:
22,147,30238,1,2,0:0:0:0:
273,71,30431,2,0,P|337:135|273:231,1,192,10|2,0:2|0:0,0:0:0:0:
206,213,31008,1,2,0:0:0:0:
457,140,31201,6,0,L|468:247,1,96,2|2,1:2|0:0,0:0:0:0:
275,131,31585,2,0,L|258:237,1,96,2|2,0:0|0:0,0:0:0:0:
106,331,31970,2,0,P|58:288|152:189,1,192,10|2,0:2|1:2,0:0:0:0:
222,153,32547,1,0,0:0:0:0:
400,298,32739,6,0,P|464:234|400:138,1,192,2|0,0:0|1:2,0:0:0:0:
233,218,33316,1,2,0:0:0:0:
425,259,33508,2,0,L|423:159,1,96,10|2,0:2|0:0,0:0:0:0:
264,156,33893,2,0,L|368:155,1,96,2|2,0:0|0:0,0:0:0:0:
109,58,34278,6,0,P|56:102|136:178,1,192,2|2,1:2|0:0,0:0:0:0:
274,168,34855,1,0,0:0:0:0:
408,253,35047,2,0,L|216:243,1,192,10|0,0:2|1:2,0:0:0:0:
56,103,35624,6,0,L|151:91,1,96
351,184,36008,2,0,L|223:168,1,96,2|0,0:0|1:2,0:0:0:0:
56,103,36585,1,8,0:2:0:0:
415,152,36970,2,0,B|463:152|463:152|415:152,1,96
77,121,37355,6,0,L|104:215,1,96,6|0,1:2|0:0,0:0:0:0:
271,216,37739,2,0,L|287:315,1,96,0|0,0:0|1:2,0:0:0:0:
103,213,38124,1,8,0:2:0:0:
285,161,38316,2,0,L|282:52,1,96,2|2,1:2|1:2,0:0:0:0:
451,53,38701,1,2,0:0:0:0:
290,138,38893,6,0,L|207:64,1,96,2|2,0:0|1:2,0:0:0:0:
382,74,39278,2,0,L|443:-1,1,96,2|2,1:2|0:0,0:0:0:0:
125,208,39662,2,0,P|65:156|109:38,1,192,10|2,0:2|0:0,0:0:0:0:
248,95,40239,1,0,1:2:0:0:
412,196,40432,6,0,P|467:277|378:314,1,192,2|0,1:2|0:0,0:0:0:0:
302,329,41008,1,2,1:2:0:0:
51,330,41201,1,8,0:2:0:0:
204,321,41393,2,0,L|218:197,1,96,2|2,1:2|1:2,0:0:0:0:
383,72,41778,1,2,0:0:0:0:
132,43,41970,5,2,0:0:0:0:
68,107,42162,1,2,1:2:0:0:
68,203,42354,1,2,1:2:0:0:
132,267,42546,1,2,0:0:0:0:
305,215,42739,2,0,P|358:229|284:328,1,192,10|2,0:2|0:0,0:0:0:0:
159,272,43316,1,0,1:2:0:0:
408,263,43508,6,0,L|216:263,1,192,2|0,1:2|0:0,0:0:0:0:
350,263,44085,1,2,1:2:0:0:
158,263,44278,1,8,0:2:0:0:
466,68,44470,2,0,L|445:162,1,96,2|2,1:2|1:2,0:0:0:0:
281,174,44855,1,2,0:0:0:0:
454,262,45047,6,0,L|358:262,1,96,2|2,0:0|1:2,0:0:0:0:
185,261,45432,2,0,L|281:261,1,96,2|0,1:2|0:0,0:0:0:0:
434,38,45816,2,0,B|466:134|466:134|418:230,1,192,10|2,0:2|0:0,0:0:0:0:
329,263,46393,1,0,1:2:0:0:
80,264,46585,6,0,L|284:238,1,192,2|0,1:2|0:0,0:0:0:0:
266,198,47162,1,2,1:2:0:0:
102,177,47355,2,0,L|97:72,1,96,8|0,0:2|1:2,0:0:0:0:
347,164,47739,2,0,L|379:68,1,96,2|2,1:2|0:0,0:0:0:0:
48,130,48124,6,0,L|48:229,1,96,2|0,0:0|1:2,0:0:0:0:
245,265,48508,1,2,1:2:0:0:
48,226,48701,1,8,1:2:0:0:
245,265,48893,2,0,L|341:265,1,96,10|10,1:2|1:3,0:0:0:0:
161,136,49278,2,0,L|65:136,1,96,6|4,1:3|1:3,0:0:0:0:
314,174,49662,6,0,B|410:174|410:174|458:286,1,192,6|0,1:2|0:0,0:0:0:0:
255,264,50239,1,0,1:2:0:0:
82,268,50432,2,0,L|38:164,1,96,8|0,0:2|1:2,0:0:0:0:
294,254,50816,2,0,L|265:150,1,96,6|2,1:2|0:0,0:0:0:0:
82,268,51201,6,0,L|66:156,1,96,2|0,0:0|1:2,0:0:0:0:
222,75,51585,2,0,L|446:75,1,192,2|10,1:2|0:2,0:0:0:0:
182,158,52355,2,0,L|103:52,1,96,2|0,0:0|1:2,0:0:0:0:
374,182,52739,6,0,P|426:199|408:351,1,192,6|0,1:2|0:0,0:0:0:0:
340,325,53316,1,0,1:2:0:0:
215,328,53508,2,0,L|156:228,1,96,8|0,0:2|1:2,0:0:0:0:
418,232,53893,2,0,L|359:132,1,96,6|2,1:2|0:0,0:0:0:0:
224,260,54278,6,0,P|147:221|158:68,1,192,2|2,0:0|1:2,0:0:0:0:
374,259,55047,2,0,P|451:220|440:67,1,192,10|2,0:2|0:0,0:0:0:0:
348,100,55624,1,0,1:2:0:0:
99,176,55816,5,6,1:2:0:0:
312,303,56201,2,0,L|317:184,1,96,0|0,0:0|1:2,0:0:0:0:
165,185,56585,2,0,L|261:185,1,96,8|2,0:2|1:2,0:0:0:0:
63,136,56970,2,0,L|47:40,1,96,2|2,1:2|0:0,0:0:0:0:
383,136,57355,6,0,L|383:248,1,96,2|2,0:0|1:2,0:0:0:0:
95,264,57739,2,0,L|191:264,1,96,2|2,1:2|0:0,0:0:0:0:
345,159,58124,2,0,P|330:68|232:73,1,192,10|2,0:2|0:0,0:0:0:0:
111,126,58701,1,0,1:2:0:0:
361,272,58893,6,0,P|409:240|346:149,1,192,2|2,1:2|0:0,0:0:0:0:
159,135,59470,1,0,1:2:0:0:
361,272,59662,2,0,P|409:240|346:149,1,192,10|2,0:2|1:2,0:0:0:0:
245,214,60239,1,0,0:0:0:0:
52,267,60432,6,0,P|46:202|37:68,1,192,2|10,0:0|1:3,0:0:0:0:
191,162,61008,1,4,1:3:0:0:
442,309,61201,2,0,P|467:204|413:86,1,192,10|2,1:2|0:0,0:0:0:0:
97,162,61970,5,2,1:2:0:0:
97,162,62355,2,0,L|113:274,1,96,0|2,0:0|0:0,0:0:0:0:
331,164,62739,2,0,L|346:261,1,96,2|2,0:0|0:0,0:0:0:0:
95,72,63124,6,0,L|286:67,1,192,6|0,1:2|0:0,0:0:0:0:
287,200,63893,2,0,L|63:200,1,192,0|8,1:2|0:0,0:0:0:0:
351,264,64470,2,0,L|447:264,2,96,0|0|0,1:2|0:0|1:2,0:0:0:0:
62,307,65047,6,0,L|62:115,1,192,6|0,1:2|0:0,0:0:0:0:
191,104,65624,1,2,1:2:0:0:
388,295,65816,2,0,L|468:183,1,96,10|2,0:0|1:2,0:0:0:0:
192,153,66201,6,0,B|96:153|96:153|192:153,1,192,2|0,1:2|0:0,0:0:0:0:
341,34,66777,2,0,L|224:36,1,96,2|2,1:2|1:2,0:0:0:0:
341,34,67162,1,2,0:0:0:0:
68,237,67355,2,0,L|36:109,1,96,10|0,0:0|1:2,0:0:0:0:
227,203,67739,2,0,L|320:170,1,96,2|2,1:2|0:0,0:0:0:0:
67,275,68124,6,0,P|41:215|101:109,1,192,6|0,1:2|0:0,0:0:0:0:
223,168,68701,1,2,1:2:0:0:
415,157,68893,2,0,L|431:61,1,96,10|2,0:0|1:2,0:0:0:0:
142,77,69278,6,0,L|350:101,1,192,6|0,1:2|0:0,0:0:0:0:
44,164,70047,2,0,P|40:253|136:283,1,192,0|10,1:2|0:0,0:0:0:0:
269,342,70624,1,2,1:2:0:0:
124,286,70816,2,0,L|137:176,1,96,2|2,0:0|1:2,0:0:0:0:
386,240,71201,6,0,P|459:204|453:89,1,192,6|2,1:2|0:0,0:0:0:0:
291,223,71778,1,0,1:2:0:0:
118,212,71970,2,0,P|150:119|246:84,1,192,10|2,0:0|1:2,0:0:0:0:
480,88,72739,5,2,0:0:0:0:
135,197,73124,2,0,L|340:197,1,192,2|10,1:2|0:0,0:0:0:0:
34,312,73893,1,2,0:0:0:0:
477,202,74278,5,4,1:2:0:0:
256,192,74662,12,0,77355,0:0:0:0:
