osu file format v14

[General]
AudioFilename: audio.mp3
AudioLeadIn: 0
PreviewTime: 31008
Countdown: 0
SampleSet: Soft
StackLeniency: 0.7
Mode: 0
LetterboxInBreaks: 0
WidescreenStoryboard: 1

[Editor]
Bookmarks: 12739,36585,37355,57932,61585,74278,86585
DistanceSpacing: 1
BeatDivisor: 4
GridSize: 16
TimelineZoom: 1

[Metadata]
Title:in the dark (Cut Ver.)
TitleUnicode:in the dark (Cut Ver.)
Artist:Bring Me The Horizon
ArtistUnicode:Bring Me The Horizon
Creator:SirMirai
Version:Hard
Source:
Tags:amo bmth English Rock Armin A_r_M_i_N hakashii _FlameL
BeatmapID:2551700
BeatmapSetID:1227086

[Difficulty]
HPDrainRate:5
CircleSize:3.6
OverallDifficulty:6
ApproachRate:7
SliderMultiplier:1.4
SliderTickRate:1

[Events]
//Background and Video events
0,0,"Karma.png",0,0
//Break Periods
//Storyboard Layer 0 (Background)
//Storyboard Layer 1 (Fail)
//Storyboard Layer 2 (Pass)
//Storyboard Layer 3 (Foreground)
//Storyboard Layer 4 (Overlay)
//Storyboard Sound Samples

[TimingPoints]
432,384.615384615385,4,2,1,100,1,0
12355,-100,4,2,1,40,0,0
12739,-100,4,2,1,60,0,0
25047,-100,4,2,1,70,0,0
37355,-100,4,2,1,80,0,1
61970,-100,4,2,1,70,0,0

[Colours]
Combo1 : 119,94,103
Combo2 : 233,224,233
Combo3 : 245,211,223
Combo4 : 67,61,54

[HitObjects]
49,70,12739,6,0,B|77:59|77:59|150:79|150:79|204:57,1,140,2|0,1:2|0:0,0:0:0:0:
267,17,13316,1,0,0:0:0:0:
333,88,13508,2,0,L|340:242,1,140,10|0,0:2|1:2,0:0:0:0:
87,207,14278,1,2,0:0:0:0:
34,289,14470,1,2,0:0:0:0:
121,333,14662,2,0,B|169:339|169:339|215:313|215:313|281:326,2,140,2|10|0,1:2|0:2|0:0,0:0:0:0:
33,96,15816,6,0,L|128:90,1,70,2|2,1:2|0:0,0:0:0:0:
177,156,16201,1,2,0:0:0:0:
239,80,16393,1,2,0:0:0:0:
330,44,16585,2,0,B|399:25|399:25|484:62,1,140,10|2,0:2|1:2,0:0:0:0:
462,305,17355,2,0,B|399:332|399:332|330:313,2,140,2|2|10,0:0|1:2|0:2,0:0:0:0:
275,247,18508,1,2,0:0:0:0:
437,53,18893,6,0,P|474:100|459:192,1,140,2|0,1:2|0:0,0:0:0:0:
391,237,19470,1,0,0:0:0:0:
293,227,19662,2,0,P|239:267|302:299,1,140,10|0,0:2|1:2,0:0:0:0:
453,122,20432,2,0,L|360:114,1,70,2|2,0:0|0:0,0:0:0:0:
291,150,20816,1,2,1:2:0:0:
122,250,21201,2,0,P|84:297|147:338,1,140,10|0,0:2|0:0,0:0:0:0:
231,340,21778,1,2,0:0:0:0:
356,349,21970,6,0,L|425:339,1,70,2|2,1:2|0:0,0:0:0:0:
464,249,22355,2,0,L|395:258,1,70,2|2,0:0|0:0,0:0:0:0:
299,280,22739,2,0,L|159:295,1,140,10|2,0:2|1:2,0:0:0:0:
66,264,23316,1,2,0:0:0:0:
148,169,23508,2,0,P|168:108|108:86,2,140,2|2|10,0:0|1:2|0:2,0:0:0:0:
43,334,24662,1,2,0:0:0:0:
132,292,24855,1,2,0:0:0:0:
243,350,25047,6,0,L|328:335,1,70,2|2,1:2|0:0,0:0:0:0:
339,236,25432,2,0,L|261:248,1,70,2|2,0:0|0:0,0:0:0:0:
170,211,25816,2,0,P|139:163|184:94,1,140,10|2,0:2|1:2,0:0:0:0:
429,97,26585,1,2,0:0:0:0:
41,36,27355,2,0,L|26:118,1,70,10|2,0:2|0:0,0:0:0:0:
101,169,27739,2,0,L|109:258,1,70,2|2,0:0|0:0,0:0:0:0:
197,327,28124,6,0,B|241:343|241:343|287:332|287:332|332:346,2,140,2|2|10,1:2|0:0|0:2,0:0:0:0:
19,243,29278,1,0,1:2:0:0:
270,253,29662,2,0,B|304:256|304:256|356:274,1,70,2|2,0:0|0:0,0:0:0:0:
416,208,30047,2,0,B|410:178|410:178|413:118,1,70,2|2,1:2|0:0,0:0:0:0:
314,148,30432,2,0,L|170:138,1,140,10|2,0:2|0:0,0:0:0:0:
421,93,31201,6,0,P|447:126|440:180,1,70,2|2,1:2|0:0,0:0:0:0:
366,203,31585,2,0,P|340:236|347:290,1,70,2|2,0:0|0:0,0:0:0:0:
411,326,31970,1,10,0:2:0:0:
214,331,32355,1,2,1:2:0:0:
358,125,32739,2,0,P|419:153|440:222,1,140,2|0,0:0|1:2,0:0:0:0:
379,295,33316,1,2,0:0:0:0:
282,279,33508,2,0,L|213:286,1,70,10|2,0:2|0:0,0:0:0:0:
139,351,33893,2,0,L|70:344,1,70,2|2,0:0|0:0,0:0:0:0:
49,219,34278,6,0,P|30:166|98:168,2,140,2|2|10,1:2|0:0|0:2,0:0:0:0:
49,219,36585,1,8,0:2:0:0:
482,42,37355,6,0,L|394:38,1,70,6|0,1:2|0:0,0:0:0:0:
317,63,37739,1,0,0:0:0:0:
298,159,37932,1,0,1:2:0:0:
376,217,38124,2,0,L|471:211,1,70,8|2,0:2|1:2,0:0:0:0:
416,305,38508,2,0,L|346:309,1,70,2|2,1:2|0:0,0:0:0:0:
219,313,38893,2,0,B|155:305|152:365|85:350,2,140,2|2|10,0:0|1:2|0:2,0:0:0:0:
416,305,40047,1,2,0:0:0:0:
201,171,40432,6,0,P|195:84|189:12,2,140,0|0|8,1:2|0:0|0:2,0:0:0:0:
209,268,41393,1,2,1:2:0:0:
290,213,41585,1,2,1:2:0:0:
201,171,41778,1,2,0:0:0:0:
95,240,41970,2,0,L|2:238,1,70,2|2,0:0|1:2,0:0:0:0:
30,140,42355,2,0,L|115:141,1,70,2|2,1:2|0:0,0:0:0:0:
195,118,42739,2,0,P|209:76|126:45,1,140,10|2,0:2|0:0,0:0:0:0:
89,284,43508,6,0,P|141:307|174:300,1,70,0|0,1:2|0:0,0:0:0:0:
231,247,43893,1,0,0:0:0:0:
321,283,44085,1,0,1:2:0:0:
349,188,44278,2,0,L|358:110,1,70,8|2,0:2|1:2,0:0:0:0:
396,28,44662,1,2,1:2:0:0:
477,82,44855,1,2,0:0:0:0:
357,118,45047,2,0,L|262:111,1,70,2|2,0:0|1:2,0:0:0:0:
203,164,45432,1,2,1:2:0:0:
45,48,45816,1,10,0:2:0:0:
22,242,46201,1,2,0:0:0:0:
259,325,46585,6,0,B|302:318|302:318|352:333|352:333|422:328,1,140,2|0,1:2|0:0,0:0:0:0:
468,262,47162,1,0,1:2:0:0:
382,213,47355,2,0,P|361:157|418:89,1,140,8|2,0:2|1:2,0:0:0:0:
500,95,47932,1,2,0:0:0:0:
399,18,48124,2,0,L|329:19,1,70,2|0,0:0|1:2,0:0:0:0:
265,94,48508,1,2,1:2:0:0:
288,189,48701,1,8,1:2:0:0:
380,222,48893,2,0,L|462:221,1,70,10|10,1:2|1:3,0:0:0:0:
496,307,49278,1,6,1:3:0:0:
415,361,49470,1,4,1:3:0:0:
314,285,49662,6,0,B|252:268|252:268|167:308,1,140,6|0,1:2|0:0,0:0:0:0:
110,366,50239,1,0,1:2:0:0:
61,280,50432,2,0,L|36:183,1,70,8|0,0:2|1:2,0:0:0:0:
75,119,50816,1,6,1:2:0:0:
164,78,51008,1,2,0:0:0:0:
252,167,51201,2,0,P|309:174|335:84,2,140,2|2|10,0:0|1:2|0:2,0:0:0:0:
98,44,52355,1,2,0:0:0:0:
236,254,52739,6,0,B|306:239|295:306|399:274,1,140,6|0,1:2|0:0,0:0:0:0:
419,196,53316,1,0,1:2:0:0:
333,148,53508,2,0,P|296:148|243:156,1,70,8|0,0:2|1:2,0:0:0:0:
178,202,53893,1,6,1:2:0:0:
172,299,54085,1,2,0:0:0:0:
295,327,54278,2,0,B|330:322|330:322|388:353|388:353|433:345,1,140,2|2,0:0|1:2,0:0:0:0:
472,259,54855,1,0,0:0:0:0:
376,238,55047,2,0,L|236:255,1,140,10|2,0:2|0:0,0:0:0:0:
48,87,55816,6,0,P|76:44|158:57,2,140,6|0|8,1:2|0:0|0:2,0:0:0:0:
122,151,56778,1,2,1:2:0:0:
130,248,56970,1,2,1:2:0:0:
63,319,57162,1,2,0:0:0:0:
184,354,57355,2,0,L|265:358,1,70,2|2,0:0|1:2,0:0:0:0:
342,315,57739,2,0,L|411:311,1,70,2|2,1:2|0:0,0:0:0:0:
474,235,58124,1,10,0:2:0:0:
279,259,58508,1,2,0:0:0:0:
478,104,58893,6,0,P|455:46|376:51,1,140,2|2,1:2|0:0,0:0:0:0:
353,136,59470,1,0,1:2:0:0:
295,56,59662,2,0,P|228:55|202:116,1,140,10|2,0:2|1:2,0:0:0:0:
300,349,60432,1,2,0:0:0:0:
299,153,60816,1,10,1:3:0:0:
102,155,61201,1,10,1:2:0:0:
91,350,61585,1,2,0:0:0:0:
346,276,61970,6,0,B|301:264|301:264|255:295|255:295|203:282,1,140,2|0,1:2|0:0,0:0:0:0:
121,303,62547,1,2,0:0:0:0:
70,219,62739,2,0,L|85:123,1,70,2|2,0:0|0:0,0:0:0:0:
49,56,63124,1,6,1:2:0:0:
299,31,63508,1,0,0:0:0:0:
169,178,63893,1,0,1:2:0:0:
339,275,64278,2,0,L|346:377,1,70,8|0,0:0|1:2,0:0:0:0:
427,104,64855,1,0,1:2:0:0:
322,189,65047,6,0,B|281:184|281:184|237:224|237:224|169:226,1,140,6|0,1:2|0:0,0:0:0:0:
154,137,65624,1,2,1:2:0:0:
68,184,65816,2,0,L|60:263,1,70,10|2,0:0|1:2,0:0:0:0:
16,341,66201,1,2,1:2:0:0:
267,357,66585,1,0,0:0:0:0:
147,201,66970,2,0,L|153:119,1,70,2|2,1:2|0:0,0:0:0:0:
243,93,67355,2,0,L|237:162,1,70,10|0,0:0|1:2,0:0:0:0:
323,207,67739,1,2,1:2:0:0:
399,145,67932,1,2,0:0:0:0:
311,55,68124,6,0,P|273:25|178:52,1,140,6|0,1:2|0:0,0:0:0:0:
133,122,68701,1,2,1:2:0:0:
68,195,68893,2,0,L|70:264,1,70,10|2,0:0|1:2,0:0:0:0:
153,318,69278,1,6,1:2:0:0:
35,95,69662,1,0,0:0:0:0:
220,30,70047,1,0,1:2:0:0:
362,164,70432,2,0,L|448:164,2,70,10|2|2,0:0|1:2|0:0,0:0:0:0:
279,215,71008,1,2,1:2:0:0:
357,313,71201,6,0,P|416:335|491:297,2,140,6|2|10,1:2|0:0|0:0,0:0:0:0:
259,142,72355,1,2,1:2:0:0:
95,333,72739,2,0,P|52:307|114:242,1,140,2|2,0:0|1:2,0:0:0:0:
279,257,73508,2,0,P|322:231|260:166,1,140,10|2,0:0|0:0,0:0:0:0:
36,162,74278,5,4,1:2:0:0:
