osu file format v14

[General]
AudioFilename: audio.mp3
AudioLeadIn: 0
PreviewTime: 18508
Countdown: 0
SampleSet: Normal
StackLeniency: 0.7
Mode: 1
LetterboxInBreaks: 0
WidescreenStoryboard: 0

[Editor]
DistanceSpacing: 0.3
BeatDivisor: 4
GridSize: 16
TimelineZoom: 2.4

[Metadata]
Title:in the dark (Cut Ver.)
TitleUnicode:in the dark (Cut Ver.)
Artist:Bring Me The Horizon
ArtistUnicode:Bring Me The Horizon
Creator:Le Mirai
Version:Futsuu
Source:
Tags:sony music entertainment uk rca records alternative pop amo bmth english rock sirmirai cacturne mirai hakashii
BeatmapID:2935853
BeatmapSetID:1425785

[Difficulty]
HPDrainRate:7
CircleSize:2
OverallDifficulty:4
ApproachRate:10
SliderMultiplier:1.4
SliderTickRate:1

[Events]
//Background and Video events
0,0,"dark.jpg",0,-100
//Break Periods
//Storyboard Layer 0 (Background)
//Storyboard Layer 1 (Fail)
//Storyboard Layer 2 (Pass)
//Storyboard Layer 3 (Foreground)
//Storyboard Layer 4 (Overlay)
//Storyboard Sound Samples

[TimingPoints]
195,384.615384615385,4,2,0,70,1,0
12502,-100,4,1,0,70,0,0
37118,-100,4,1,0,100,0,1
60964,-100,4,1,0,100,0,0
61733,-100,4,1,0,90,0,0

[HitObjects]
255,195,195,5,12,1:0:0:0:
261,164,1348,1,0,1:0:0:0:
277,233,2118,1,0,1:0:0:0:
246,212,2887,1,0,1:0:0:0:
278,153,3271,1,8,1:0:0:0:
262,128,4425,1,0,1:0:0:0:
325,166,5195,1,0,1:0:0:0:
247,152,5579,1,0,1:0:0:0:
247,152,5771,1,0,1:0:0:0:
247,152,5964,1,8,1:0:0:0:
256,152,6348,1,12,1:0:0:0:
293,154,7502,1,0,1:0:0:0:
293,154,8271,1,0,1:0:0:0:
293,154,9041,1,0,1:0:0:0:
293,154,9425,1,8,1:0:0:0:
299,257,10579,1,0,1:0:0:0:
331,276,11348,1,0,1:0:0:0:
272,219,11733,1,8,1:0:0:0:
272,219,11925,1,8,1:0:0:0:
281,142,12118,1,0,1:0:0:0:
291,142,12502,1,4,1:0:0:0:
201,151,13271,1,8,1:0:0:0:
259,136,14041,1,8,1:0:0:0:
259,136,14233,1,0,1:0:0:0:
259,136,14425,1,0,1:0:0:0:
259,136,14810,1,8,1:0:0:0:
259,136,15579,1,8,1:0:0:0:
259,136,15771,1,0,1:0:0:0:
259,136,15964,1,0,1:0:0:0:
259,136,16156,1,0,1:0:0:0:
259,136,16348,1,8,1:0:0:0:
254,141,16733,1,0,1:0:0:0:
254,141,16925,1,8,1:0:0:0:
252,142,17118,1,0,1:0:0:0:
254,141,17502,1,0,1:0:0:0:
254,141,17887,1,8,1:0:0:0:
179,133,18656,1,8,1:0:0:0:
179,133,19425,1,8,1:0:0:0:
211,47,20195,1,8,1:0:0:0:
211,47,20387,1,0,1:0:0:0:
211,47,20579,1,8,1:0:0:0:
211,47,20964,1,8,1:0:0:0:
206,54,21541,1,0,1:0:0:0:
205,54,21733,1,8,1:0:0:0:
210,62,21925,1,0,1:0:0:0:
210,62,22118,1,0,1:0:0:0:
210,62,22502,1,8,1:0:0:0:
231,39,22887,1,0,1:0:0:0:
230,43,23079,1,0,1:0:0:0:
230,44,23271,1,8,1:0:0:0:
233,85,23656,1,0,0:0:0:0:
231,39,24041,1,0,1:0:0:0:
247,118,24425,1,0,1:0:0:0:
247,118,24810,1,8,1:0:0:0:
24,133,25002,1,8,1:0:0:0:
247,118,25195,1,0,1:0:0:0:
362,147,25387,1,8,0:0:0:0:
196,61,25579,1,0,1:0:0:0:
196,61,25964,1,8,1:0:0:0:
196,61,26348,1,0,1:0:0:0:
275,167,27118,1,8,1:0:0:0:
275,167,27310,1,8,1:0:0:0:
275,167,27502,1,0,1:0:0:0:
197,99,27695,1,0,0:0:0:0:
275,167,27887,1,8,1:0:0:0:
265,167,28271,1,0,1:0:0:0:
275,167,28656,1,8,1:0:0:0:
265,167,29425,1,8,1:0:0:0:
265,167,29618,1,0,1:0:0:0:
258,169,29810,1,8,1:0:0:0:
249,170,30195,1,8,1:0:0:0:
249,170,30579,5,0,1:0:0:0:
249,170,30964,1,8,1:0:0:0:
249,170,31156,1,0,1:0:0:0:
249,170,31348,1,0,1:0:0:0:
249,170,31541,1,0,1:0:0:0:
249,170,31733,1,8,1:0:0:0:
249,170,32118,1,0,1:0:0:0:
249,170,32502,1,8,1:0:0:0:
238,178,33271,1,8,1:0:0:0:
238,178,33464,1,0,1:0:0:0:
238,178,33656,1,8,1:0:0:0:
238,178,33848,1,0,1:0:0:0:
238,178,34041,1,8,1:0:0:0:
241,82,34425,1,8,1:0:0:0:
241,82,34810,1,0,1:0:0:0:
256,192,35195,1,0,1:0:0:0:
158,86,35579,1,0,1:0:0:0:
158,86,35771,1,8,1:0:0:0:
256,192,35964,1,0,1:0:0:0:
256,192,36348,1,8,1:0:0:0:
138,183,37118,5,12,1:0:0:0:
138,183,37502,1,8,1:0:0:0:
190,70,37887,1,0,1:0:0:0:
247,65,38271,1,8,1:0:0:0:
247,65,38464,1,0,1:0:0:0:
247,65,38656,1,0,1:0:0:0:
212,236,38848,1,8,1:0:0:0:
212,236,39041,1,8,1:0:0:0:
212,236,39425,1,0,0:0:0:0:
212,236,40195,1,0,1:0:0:0:
212,236,40579,1,0,1:0:0:0:
212,236,40771,1,8,1:0:0:0:
200,185,40964,1,0,1:0:0:0:
200,185,41348,1,8,1:0:0:0:
200,185,41733,1,0,1:0:0:0:
200,185,41925,1,8,1:0:0:0:
200,185,42118,1,0,1:0:0:0:
200,185,42502,1,8,1:0:0:0:
200,185,43271,1,8,1:0:0:0:
200,185,43656,1,8,1:0:0:0:
188,120,44041,1,0,1:0:0:0:
188,120,44425,1,8,1:0:0:0:
188,120,44618,1,8,1:0:0:0:
188,120,44810,1,0,1:0:0:0:
188,120,45002,1,8,1:0:0:0:
188,120,45195,1,0,1:0:0:0:
259,111,45579,1,8,1:0:0:0:
259,111,46348,1,0,1:0:0:0:
252,116,46733,1,0,1:0:0:0:
210,35,46925,1,0,1:0:0:0:
148,28,47118,1,8,1:0:0:0:
195,143,47502,1,0,1:0:0:0:
195,143,47887,1,8,1:0:0:0:
233,78,48079,1,0,1:0:0:0:
195,143,48271,1,8,1:0:0:0:
188,146,48656,1,0,1:0:0:0:
260,96,49041,1,8,1:0:0:0:
262,97,49425,1,12,1:0:0:0:
140,85,50195,1,0,1:0:0:0:
140,85,50579,1,8,1:0:0:0:
258,176,50771,1,0,0:0:0:0:
140,85,50964,1,8,1:0:0:0:
140,85,51348,1,0,1:0:0:0:
140,85,51733,1,8,1:0:0:0:
246,187,51925,1,8,0:0:0:0:
276,109,52118,1,0,1:0:0:0:
259,114,52502,1,12,1:0:0:0:
248,120,53271,1,8,1:0:0:0:
249,119,53656,1,8,1:0:0:0:
249,119,53848,1,0,1:0:0:0:
249,119,54041,1,0,1:0:0:0:
249,119,54425,1,8,1:0:0:0:
249,119,54810,1,0,1:0:0:0:
249,119,55195,1,0,1:0:0:0:
249,119,55387,1,0,1:0:0:0:
249,119,55579,1,12,1:0:0:0:
246,99,56348,1,0,1:0:0:0:
249,102,56733,1,8,1:0:0:0:
249,103,57118,1,0,1:0:0:0:
254,204,57310,1,0,1:0:0:0:
249,102,57502,1,8,1:0:0:0:
254,204,57695,1,0,1:0:0:0:
243,176,57887,1,8,1:0:0:0:
246,99,58271,1,8,1:0:0:0:
249,103,58656,1,0,1:0:0:0:
249,103,59425,1,8,1:0:0:0:
246,99,59810,1,8,1:0:0:0:
249,103,60195,1,0,1:0:0:0:
246,99,60579,1,8,1:0:0:0:
218,130,60964,1,8,0:0:0:0:
179,137,61733,5,4,1:0:0:0:
179,137,62118,1,0,1:0:0:0:
179,137,62310,1,0,1:0:0:0:
179,137,62502,1,8,1:0:0:0:
179,137,62887,1,12,1:0:0:0:
179,137,63271,1,0,1:0:0:0:
179,137,63656,1,0,1:0:0:0:
179,137,64041,1,8,1:0:0:0:
179,137,64233,1,0,1:0:0:0:
179,137,64618,1,8,1:0:0:0:
179,137,64810,1,4,1:0:0:0:
179,137,65195,1,0,1:0:0:0:
131,85,65387,1,8,1:0:0:0:
113,75,65579,1,0,1:0:0:0:
113,75,65964,1,0,1:0:0:0:
131,85,66733,1,8,1:0:0:0:
131,85,66925,1,0,1:0:0:0:
131,86,67118,1,8,1:0:0:0:
131,88,67310,1,0,1:0:0:0:
131,85,67502,1,8,1:0:0:0:
179,137,67887,1,4,1:0:0:0:
179,137,68272,1,0,1:0:0:0:
179,137,68464,1,0,1:0:0:0:
179,137,68656,1,8,1:0:0:0:
179,137,69041,1,4,1:0:0:0:
107,113,69618,1,0,0:0:0:0:
317,245,69810,1,0,0:0:0:0:
179,137,70195,1,8,1:0:0:0:
179,137,70387,1,0,1:0:0:0:
179,137,70579,1,0,1:0:0:0:
179,137,70771,1,8,1:0:0:0:
179,137,70964,1,0,1:0:0:0:
179,137,71349,1,8,1:0:0:0:
131,85,71541,1,0,1:0:0:0:
113,75,71733,1,8,1:0:0:0:
113,75,72118,1,0,1:0:0:0:
113,75,72502,1,8,1:0:0:0:
208,44,72695,1,0,1:0:0:0:
131,85,72887,1,0,1:0:0:0:
131,86,73272,1,8,1:0:0:0:
131,85,73656,1,8,1:0:0:0:
299,113,74041,1,4,0:0:0:0:
