osu file format v14

[General]
AudioFilename: audio.mp3
AudioLeadIn: 0
PreviewTime: 94302
Countdown: 0
SampleSet: Normal
StackLeniency: 0.7
Mode: 0
LetterboxInBreaks: 0
WidescreenStoryboard: 1

[Editor]
DistanceSpacing: 1.7
BeatDivisor: 4
GridSize: 4
TimelineZoom: 2.899999

[Metadata]
Title:The Sadness Will Never End
TitleUnicode:The Sadness Will Never End
Artist:Bring Me The Horizon
ArtistUnicode:Bring Me The Horizon
Creator:FCL
Version:Extreme
Source:
Tags:
BeatmapID:1486819
BeatmapSetID:543798

[Difficulty]
HPDrainRate:6
CircleSize:3.5
OverallDifficulty:8
ApproachRate:9.1
SliderMultiplier:2
SliderTickRate:1

[Events]
//Background and Video events
0,0,"Kirishima.Touka.full.2009854.jpg",0,0
//Break Periods
//Storyboard Layer 0 (Background)
//Storyboard Layer 1 (Fail)
//Storyboard Layer 2 (Pass)
//Storyboard Layer 3 (Foreground)
//Storyboard Sound Samples

[TimingPoints]
37576,292.682926829268,4,1,1,70,1,0
37868,-100,4,1,1,70,0,0
39917,-100,4,1,1,70,0,1
48990,-100,4,1,1,70,0,0
49888,292.682926829268,4,1,1,70,1,0
49888,-83.3333333333333,4,1,1,70,0,0
50180,-166.666666666667,4,1,1,70,0,0
50473,-111.111111111111,4,1,1,70,0,0
52229,-83.3333333333333,4,1,1,70,0,0
52521,-166.666666666667,4,1,1,70,0,0
52814,-111.111111111111,4,1,1,70,0,0
54570,-83.3333333333333,4,1,1,70,0,0
54863,-166.666666666667,4,1,1,70,0,0
55156,-111.111111111111,4,1,1,70,0,0
56912,-83.3333333333333,4,1,1,70,0,0
57205,-166.666666666666,4,1,1,70,0,0
57497,-111.111111111111,4,1,1,70,0,0
58229,251.046025104603,4,1,1,70,1,0
58355,285.714285714286,4,1,1,70,1,0
58783,329.67032967033,4,1,1,70,1,0
59112,280.373831775701,4,1,1,70,1,0
59253,292.682926829268,4,1,1,70,1,0
59253,-111.111111111111,4,1,1,70,0,0
61595,-142.857142857143,4,1,1,70,0,0
63936,-125,4,1,1,70,0,0
66278,-200,4,1,1,30,0,0
75644,-111.111111111111,4,1,1,70,0,0
84717,-83.3333333333333,4,1,1,70,0,0
85009,-90.9090909090908,4,1,1,70,0,0
85302,-111.111111111111,4,1,1,70,0,0
89400,-200,4,1,1,70,0,0
89692,-142.857142857143,4,1,1,70,0,0
94375,-100,4,1,1,70,0,1
103741,-142.857142857143,4,1,1,70,0,0
114424,-142.857142857143,4,1,1,50,0,0
115448,-111.111111111111,4,1,1,70,0,0
119839,-83.3333333333333,4,1,1,70,0,0
120131,-142.857142857143,4,1,1,70,0,0
124814,-200,4,1,1,70,0,0
125107,-111.111111111111,4,1,1,70,0,0
129205,-83.3333333333333,4,1,1,70,0,0
129497,-142.857142857143,4,1,1,40,0,0
134180,300,4,1,1,70,1,1
134180,-125,4,1,1,70,0,1
142580,-166.666666666667,4,1,1,70,0,0
143780,-125,4,1,1,70,0,1
152180,-125,4,1,1,70,0,0
153380,-125,4,1,1,70,0,1
161463,279.06976744186,4,1,1,70,1,1
161463,-125,4,1,1,70,0,1
162213,300,4,1,1,70,1,1
162213,-125,4,1,1,70,0,1
162963,300,4,1,1,70,1,1
162963,-125,4,1,1,70,0,1
166713,284.36018957346,4,1,1,70,1,1
166713,-125,4,1,1,70,0,1
166996,294.117647058824,4,1,1,70,1,1
167753,319.148936170213,4,1,1,70,1,1
167913,280.373831775701,4,1,1,70,1,1
167913,-125,4,1,1,70,0,1
168194,300,4,1,1,70,1,1
168194,-125,4,1,1,70,0,1
168944,300,4,1,1,70,1,1
168944,-125,4,1,1,70,0,1
169694,331.491712707182,4,1,1,70,1,1
169694,-125,4,1,1,70,0,1
170027,269.058295964126,4,1,1,70,1,1
170205,300,4,1,1,70,1,1
170205,-125,4,1,1,70,0,1
172595,300,4,1,1,70,1,1
172595,-142.857142857143,4,1,1,70,0,0
190580,300,4,1,1,70,1,0
191780,292.682926829268,4,1,1,70,1,0
196462,-100,4,1,1,70,0,1
205828,-83.3333333333333,4,1,1,70,0,1
206121,-166.666666666667,4,1,1,70,0,1
206414,-111.111111111111,4,1,1,70,0,1
208170,-83.3333333333333,4,1,1,70,0,1
208462,-166.666666666667,4,1,1,70,0,1
208755,-111.111111111111,4,1,1,70,0,1
210511,-83.3333333333333,4,1,1,70,0,1
210804,-166.666666666667,4,1,1,70,0,1
211243,-111.111111111111,4,1,1,70,0,1
215194,352.941176470588,4,1,1,70,1,0
226488,-100,4,1,1,70,0,1
237782,-166.666666666667,4,1,1,70,0,0
246252,-100,4,1,1,70,0,0
249076,-166.666666666667,4,1,1,70,0,0
249782,-83.3333333333334,4,1,1,70,0,0
251899,-166.666666666667,4,1,1,70,0,0
252605,-83.3333333333334,4,1,1,70,0,0
254723,-166.666666666667,4,1,1,70,0,0
261076,-83.3333333333334,4,1,1,70,0,0
263194,-166.666666666667,4,1,1,70,0,0
264605,-83.3333333333333,4,1,1,70,0,0
266017,-166.666666666667,4,1,1,70,0,0
269193,-125,4,1,1,70,0,0
271664,-125,4,1,1,70,0,1
281546,-125,4,1,1,70,0,0
282605,-83.3333333333333,4,1,1,70,0,0
282958,-125,4,1,1,70,0,1
293546,-100,4,1,1,70,0,0
294252,-166.666666666667,4,1,1,70,0,0
294958,-83.3333333333333,4,1,1,70,0,0
297076,-166.666666666667,4,1,1,70,0,0
297782,-83.3333333333334,4,1,1,70,0,0
298488,-100,4,1,1,70,0,0
299899,-166.666666666667,4,1,1,70,0,0
302723,-125,4,1,1,70,0,0
305546,-166.666666666667,4,1,1,70,0,0
306252,-76.9230769230769,4,1,1,70,0,0
308370,-166.666666666667,4,1,1,70,0,0
309076,-76.923076923077,4,1,1,70,0,0
309782,-100,4,1,1,70,0,0
311193,-166.666666666667,4,1,1,70,0,0
314017,-125,4,1,1,70,0,0
316841,-166.666666666667,4,1,1,70,0,0
317546,-83.3333333333333,4,1,1,70,0,0
318252,-100,4,1,1,70,0,0

[Colours]
Combo1 : 232,121,226
Combo2 : 188,14,180
Combo3 : 239,33,223
Combo4 : 226,5,22

[HitObjects]
110,92,37575,5,0,0:0:0:0:
190,84,37722,1,0,0:0:0:0:
269,75,37868,1,0,0:0:0:0:
349,68,38015,1,0,0:0:0:0:
379,94,38161,5,0,0:0:0:0:
283,102,38308,1,0,0:0:0:0:
188,113,38454,1,0,0:0:0:0:
92,122,38601,1,0,0:0:0:0:
108,153,38746,5,0,0:0:0:0:
157,148,38819,1,0,0:0:0:0:
207,143,38892,1,0,0:0:0:0:
257,138,38965,1,0,0:0:0:0:
307,133,39038,1,0,0:0:0:0:
356,128,39111,1,0,0:0:0:0:
379,157,39185,5,0,0:0:0:0:
320,163,39258,1,0,0:0:0:0:
260,169,39331,1,0,0:0:0:0:
200,175,39404,1,0,0:0:0:0:
140,181,39477,1,0,0:0:0:0:
81,187,39550,1,0,0:0:0:0:
46,231,39624,5,0,0:0:0:0:
384,317,39917,5,0,0:0:0:0:
384,317,40063,1,0,0:0:0:0:
480,212,40210,2,0,L|376:210,1,100
295,39,40502,1,0,0:0:0:0:
295,39,40648,1,0,0:0:0:0:
199,144,40795,2,0,L|303:146,1,100
298,145,41088,1,0,0:0:0:0:
232,277,41234,5,0,0:0:0:0:
145,62,41380,1,0,0:0:0:0:
255,65,41527,1,0,0:0:0:0:
365,68,41673,1,0,0:0:0:0:
232,277,41819,6,0,L|240:383,2,100
21,232,42258,2,0,P|91:244|160:228,1,100
255,65,42551,2,0,P|227:106|213:154,1,100
424,180,42844,5,0,0:0:0:0:
432,279,42990,1,0,0:0:0:0:
342,237,43136,1,0,0:0:0:0:
424,180,43283,1,0,0:0:0:0:
453,361,43429,6,0,P|396:354|349:296,1,100
104,362,43722,2,0,P|126:309|99:240,1,100
3,70,44015,1,0,0:0:0:0:
112,112,44161,1,0,0:0:0:0:
221,157,44307,1,0,0:0:0:0:
369,51,44454,1,0,0:0:0:0:
369,51,44527,1,0,0:0:0:0:
369,51,44600,6,0,L|378:182,1,100
501,36,44893,1,0,0:0:0:0:
501,36,45039,1,0,0:0:0:0:
281,130,45185,2,0,L|290:261,1,100
473,296,45478,1,0,0:0:0:0:
391,356,45624,2,0,P|342:335|233:358,1,150
226,362,45917,5,0,0:0:0:0:
109,160,46063,1,0,0:0:0:0:
109,160,46210,1,0,0:0:0:0:
211,210,46356,1,0,0:0:0:0:
309,39,46502,6,0,P|357:32|425:30,2,100
465,199,46941,2,0,L|472:80,1,100
274,252,47234,2,0,L|267:133,1,100
81,339,47527,5,0,0:0:0:0:
53,235,47673,1,0,0:0:0:0:
125,156,47819,1,0,0:0:0:0:
97,52,47965,1,0,0:0:0:0:
53,235,48112,6,0,L|183:229,1,100
274,304,48405,2,0,L|276:373,2,50
511,210,48697,5,0,0:0:0:0:
461,213,48770,1,0,0:0:0:0:
411,216,48843,1,0,0:0:0:0:
361,219,48916,1,0,0:0:0:0:
311,222,48989,1,0,0:0:0:0:
103,80,49888,6,0,L|117:276,1,179.999994506836
6,303,50180,6,0,P|54:273|132:259,1,119.999996337891
257,342,50619,5,0,0:0:0:0:
283,199,50766,1,0,0:0:0:0:
309,57,50912,1,0,0:0:0:0:
410,249,51058,5,0,0:0:0:0:
267,230,51204,1,0,0:0:0:0:
267,230,51278,1,0,0:0:0:0:
267,230,51351,1,0,0:0:0:0:
125,204,51497,1,0,0:0:0:0:
382,111,51644,1,0,0:0:0:0:
309,57,51790,2,0,L|208:52,2,89.9999972534181
493,224,52229,6,0,L|297:210,1,179.999994506836
270,321,52521,6,0,P|300:273|314:195,1,119.999996337891
49,121,52961,5,0,0:0:0:0:
263,102,53107,1,0,0:0:0:0:
477,83,53253,1,0,0:0:0:0:
477,83,53546,5,0,0:0:0:0:
477,83,53619,1,0,0:0:0:0:
477,83,53692,1,0,0:0:0:0:
444,223,53839,1,0,0:0:0:0:
408,362,53985,5,0,0:0:0:0:
295,329,54131,1,0,0:0:0:0:
420,366,54278,5,0,0:0:0:0:
241,244,54424,1,0,0:0:0:0:
478,182,54570,6,0,P|393:172|244:167,1,179.999994506836
241,244,54863,6,0,P|271:241|288:153,1,119.999996337891
127,62,55302,5,0,0:0:0:0:
148,204,55448,1,0,0:0:0:0:
168,347,55595,1,0,0:0:0:0:
301,243,55741,5,0,0:0:0:0:
157,232,55887,1,0,0:0:0:0:
157,232,55961,1,0,0:0:0:0:
157,232,56034,1,0,0:0:0:0:
14,217,56180,1,0,0:0:0:0:
198,53,56327,1,0,0:0:0:0:
113,0,56473,2,0,P|111:43|94:115,2,89.9999972534181
272,101,56912,6,0,P|262:186|257:335,1,179.999994506836
334,338,57205,6,0,P|331:308|243:291,1,119.999996337891
63,359,57644,5,0,0:0:0:0:
277,333,57790,1,0,0:0:0:0:
490,306,57936,1,0,0:0:0:0:
490,306,58229,5,0,0:0:0:0:
394,198,58354,1,0,0:0:0:0:
448,73,58497,1,0,0:0:0:0:
408,218,58640,5,0,0:0:0:0:
294,142,58783,1,0,0:0:0:0:
294,142,58865,1,0,0:0:0:0:
294,142,58947,1,0,0:0:0:0:
512,191,59112,1,0,0:0:0:0:
351,341,59252,5,0,0:0:0:0:
295,15,59545,1,0,0:0:0:0:
