osu file format v14

[General]
AudioFilename: Bring Me The Horizon - Comedown .mp3
AudioLeadIn: 3000
PreviewTime: 67204
Countdown: 0
SampleSet: Normal
StackLeniency: 0.7
Mode: 2
LetterboxInBreaks: 1
WidescreenStoryboard: 1

[Editor]
Bookmarks: 69691,84472
DistanceSpacing: 0.65
BeatDivisor: 12
GridSize: 16
TimelineZoom: 5.799996

[Metadata]
Title:The Comedown (Album Version)
TitleUnicode:The Comedown (Album Version)
Artist:Bring Me The Horizon
ArtistUnicode:Bring Me The Horizon
Creator:monstratorfull
Version:Platter
Source:
Tags:Suicide Season BMTH Deathcore Metalcore Metal Deathmetal speedcore heavy heavymetal MMzz
BeatmapID:1324321
BeatmapSetID:318079

[Difficulty]
HPDrainRate:5
CircleSize:3
OverallDifficulty:8
ApproachRate:8
SliderMultiplier:3
SliderTickRate:2

[Events]
//Background and Video events
0,0,"wpapers_ru.jpg",0,0
//Break Periods
2,57241,66543
2,125053,125840
2,152112,155966
2,175513,180295
//Storyboard Layer 0 (Background)
//Storyboard Layer 1 (Fail)
//Storyboard Layer 2 (Pass)
//Storyboard Layer 3 (Foreground)
//Storyboard Sound Samples

[TimingPoints]
563,292.682926829268,4,1,1,80,1,0
563,-133.333333333333,4,1,1,80,0,0
4660,-133.333333333333,4,1,1,50,0,0
5245,-133.333333333333,4,1,1,80,0,0
9343,-133.333333333333,4,1,1,50,0,0
9923,-100,4,1,2,80,0,0
14026,-100,4,1,2,45,0,0
14611,-100,4,1,2,80,0,0
19728,-133.333333333333,4,1,1,80,0,0
19875,-133.333333333333,4,1,2,60,0,0
20026,-133.333333333333,4,1,1,80,0,0
20167,-133.333333333333,4,1,1,80,0,0
20314,-117.647058823529,4,1,1,80,0,0
20460,-117.647058823529,4,1,1,80,0,0
20606,-117.647058823529,4,1,2,80,0,0
20753,-117.647058823529,4,1,1,80,0,0
20899,-105.263157894737,4,1,2,80,0,0
21045,-105.263157894737,4,1,2,60,0,0
21192,-105.263157894737,4,1,2,80,0,0
21338,-105.263157894737,4,1,1,80,0,0
21484,-100,4,1,2,80,0,0
24416,-133.333333333333,4,1,1,80,0,0
24562,-133.333333333333,4,1,2,50,0,0
24709,-133.333333333333,4,1,1,80,0,0
24855,-133.333333333333,4,1,2,50,0,0
24997,-117.647058823529,4,1,1,80,0,0
25148,-117.647058823529,4,1,2,50,0,0
25294,-117.647058823529,4,1,1,80,0,0
25441,-117.647058823529,4,1,2,50,0,0
25582,-105.263157894737,4,1,1,80,0,0
25733,-105.263157894737,4,1,2,50,0,0
25880,-105.263157894737,4,1,1,80,0,0
26026,-105.263157894737,4,1,2,50,0,0
26167,-100,4,1,2,80,0,0
35972,292.682926829268,4,1,2,80,1,0
36850,-100,4,1,2,50,0,0
37289,-100,4,1,2,80,0,0
45923,-100,4,1,2,50,0,0
46215,-200,4,2,0,50,0,0
47388,292.540224280839,4,1,2,80,1,0
49874,-100,4,1,2,50,0,0
50167,-100,4,1,2,80,0,0
54408,-100,4,1,2,50,0,0
54701,-100,4,1,2,80,0,0
67293,292.682926829268,4,1,2,80,1,0
71390,-100,4,1,2,50,0,0
71975,-100,4,1,2,80,0,0
75488,-100,4,1,2,50,0,0
75780,-100,4,1,2,80,0,0
84843,-200,4,1,2,80,0,0
86015,-100,4,1,2,80,0,0
89536,-100,4,1,2,50,0,0
89829,-100,4,1,2,80,0,0
90122,-100,4,1,2,50,0,0
90414,-100,4,1,2,80,0,0
90707,-100,4,1,2,50,0,0
91000,-100,4,1,2,80,0,0
91269,-50,4,1,2,80,0,0
91782,-100,4,1,2,80,0,0
93634,-100,4,1,2,40,0,0
94219,-100,4,1,2,80,0,0
94292,-100,4,1,2,40,0,0
95390,-100,4,1,2,80,0,0
102414,-100,4,1,2,40,0,0
104171,-100,4,1,2,80,0,0
108853,-100,4,1,2,40,0,0
109439,-100,4,1,2,80,0,0
113536,-100,4,1,2,50,0,0
113975,-100,4,1,2,80,0,0
118512,-100,4,1,2,50,0,0
118805,-100,4,1,2,80,0,0
123488,-100,4,1,2,40,0,0
124268,-100,4,1,2,80,0,0
126590,387.0343492985,4,1,2,80,1,0
126590,-75.0001875004688,4,1,2,80,0,0
128508,-100,4,1,2,80,0,0
129669,-75.0018750468762,4,1,2,80,0,0
140689,387.0343492985,4,1,0,80,1,0
140689,-75.187969924812,4,1,2,80,0,0
142043,387.0343492985,4,1,2,80,1,0
142043,-75.187969924812,4,1,2,80,0,0
156716,388.349514563107,4,1,2,80,1,0
169919,-200,4,2,0,80,0,0
171084,-200,4,2,2,80,0,0
171444,388.349514563107,4,1,0,80,1,0
171444,-133.333333333333,4,2,0,80,0,0
172220,363.636363636364,4,1,2,80,1,0
172988,363.636363636364,4,2,0,80,1,0
173351,-100,4,1,2,80,0,0
173760,392.41334205363,4,1,0,80,1,0
173760,-80,4,2,0,80,0,0
174544,384.615384615385,4,1,2,80,1,0
181045,292.682926829268,4,1,1,100,1,0
181045,-133.333333333333,4,1,1,100,0,0
184849,-133.333333333333,4,1,1,40,0,0
185425,292.682926829268,4,1,1,50,1,0
185425,-133.333333333333,4,1,1,80,0,0
190802,297.029702970297,4,1,1,50,1,0
190802,-133.333333333333,4,1,1,50,0,0
190950,-133.333333333333,4,1,2,50,0,0
190987,-133.333333333333,4,1,1,50,0,0
191693,-133.333333333333,4,1,2,50,0,0
191730,-133.333333333333,4,1,1,50,0,0
192287,-133.333333333333,4,1,2,50,0,0
192324,-133.333333333333,4,1,1,50,0,0
192732,-133.333333333333,4,1,2,50,0,0
192769,-133.333333333333,4,1,1,50,0,0
193022,297.029702970297,4,1,1,50,1,0
193022,-133.333333333333,4,1,1,50,0,0
193319,-133.333333333333,4,1,2,50,0,0
193356,-133.333333333333,4,1,1,50,0,0
193484,-100,4,1,1,50,0,0
194337,292.682926829268,4,1,2,80,1,0
194783,292.682926829268,4,1,2,80,1,0
198880,-100,4,1,2,50,0,0
199465,-100,4,1,2,80,0,0
202978,-100,4,1,2,50,0,0
203709,-100,4,1,2,80,0,0
208246,-100,4,1,2,40,0,0
208539,-100,4,1,2,80,0,0
212343,-100,4,1,2,40,0,0
212929,-100,4,1,2,80,0,0

[Colours]
Combo1 : 136,0,136
Combo2 : 5,160,169
Combo3 : 159,0,0

[HitObjects]
32,192,563,5,0,0:0:0:0:
144,192,709,1,0,0:0:0:0:
256,192,855,1,8,0:0:0:0:
144,96,1002,1,0,0:0:0:0:
368,192,1294,5,0,0:0:0:0:
480,192,1441,1,8,0:0:0:0:
368,112,1587,1,0,0:0:0:0:
144,192,1880,5,0,0:0:0:0:
32,192,2026,1,8,0:0:0:0:
144,112,2172,1,0,0:0:0:0:
336,208,2465,5,0,0:0:0:0:
432,208,2611,1,8,0:0:0:0:
336,128,2758,1,0,0:0:0:0:
240,128,2904,1,8,0:0:0:0:
336,48,3050,1,0,0:0:0:0:
448,48,3197,1,8,0:0:0:0:
336,48,3343,6,0,B|222:12|122:84,1,224.999993294478
256,144,3782,2,0,B|232:264|360:328,1,225.000008583069,8|0,0:0|0:0,0:0:0:0:
464,336,4221,1,0,0:0:0:0:
224,320,4367,2,0,B|168:320|168:320|121:285,1,112.499996647239,8|0,0:0|0:0,0:0:0:0:
256,192,4660,12,0,5245,0:0:0:0:
192,224,5392,5,0,0:0:0:0:
96,224,5538,1,8,0:0:0:0:
48,144,5684,1,0,0:0:0:0:
320,224,5977,5,0,0:0:0:0:
416,224,6123,1,8,0:0:0:0:
464,144,6270,1,0,0:0:0:0:
224,160,6562,5,0,0:0:0:0:
144,112,6709,1,0,0:0:0:0:
224,64,6855,1,8,0:0:0:0:
384,64,7148,5,0,0:0:0:0:
496,64,7294,1,8,0:0:0:0:
384,144,7441,1,8,0:0:0:0:
272,144,7587,5,0,0:0:0:0:
384,224,7733,1,0,0:0:0:0:
496,224,7880,1,8,0:0:0:0:
384,304,8026,2,0,B|327:334|327:334|240:313|229:221,1,224.999993294478
336,112,8465,2,0,B|360:52|360:52|440:12|508:76,1,224.999993294478,8|0,0:0|0:0,0:0:0:0:
288,176,8904,1,0,0:0:0:0:
208,160,9050,1,8,0:0:0:0:
304,256,9197,1,0,0:0:0:0:
256,192,9343,12,0,9928,0:0:0:0:
80,96,10075,6,0,B|28:148|44:244,1,150,0|8,0:0|0:0,0:0:0:0:
128,176,10367,2,0,B|244:68|408:120,1,300
512,192,10806,1,8,0:0:0:0:
400,240,10953,2,0,B|320:376|144:364,1,300
16,256,11392,5,8,0:0:0:0:
128,192,11538,1,0,0:0:0:0:
304,160,11684,1,8,0:0:0:0:
352,112,11758,1,0,0:0:0:0:
304,96,11831,1,0,0:0:0:0:
352,48,11904,1,0,0:0:0:0:
384,16,11977,2,0,B|425:13|476:48|480:110,1,150,0|8,0:0|0:0,0:0:0:0:
368,224,12270,5,4,0:0:0:0:
256,256,12416,1,0,0:0:0:0:
144,288,12563,1,8,0:0:0:0:
256,336,12709,2,0,B|280:276|332:268|332:268|376:180|336:80,1,300
272,48,13148,2,0,B|248:108|196:116|196:116|152:204|192:304,1,300,8|0,0:0|0:0,0:0:0:0:
304,320,13587,1,0,0:0:0:0:
400,256,13733,2,0,B|464:216|496:144,1,150,8|0,0:0|0:0,0:0:0:0:
224,224,14026,5,8,0:0:0:0:
160,224,14099,1,8,0:0:0:0:
96,224,14172,1,0,0:0:0:0:
64,192,14245,1,0,0:0:0:0:
96,160,14319,5,0,0:0:0:0:
160,160,14392,1,0,0:0:0:0:
224,160,14465,1,0,0:0:0:0:
288,160,14538,1,0,0:0:0:0:
352,160,14611,6,0,B|432:140|464:60,2,150,4|0|8,0:0|0:0|0:0,0:0:0:0:
256,64,15050,2,0,B|176:92|128:172|152:268|192:312,1,300
320,304,15489,1,8,0:0:0:0:
448,240,15636,1,0,0:0:0:0:
512,208,15709,1,0,0:0:0:0:
448,176,15782,1,0,0:0:0:0:
304,112,15928,1,0,0:0:0:0:
160,64,16075,2,0,B|88:44|12:60,1,150
128,128,16367,2,0,B|200:148|276:132,1,150,8|0,0:0|0:0,0:0:0:0:
160,192,16660,2,0,B|128:208|112:240|112:240|32:256,1,150,8|0,0:0|0:0,0:0:0:0:
160,304,16953,5,4,0:0:0:0:
288,288,17099,1,0,0:0:0:0:
400,256,17245,1,8,0:0:0:0:
304,192,17392,2,0,B|256:140|256:140|124:116|48:212,1,300
144,240,17831,2,0,B|192:292|192:292|324:316|400:220,1,300,8|0,0:0|0:0,0:0:0:0:
288,160,18270,1,0,0:0:0:0:
144,96,18416,1,8,0:0:0:0:
112,48,18489,1,0,0:0:0:0:
192,32,18562,1,0,0:0:0:0:
352,64,18709,5,8,0:0:0:0:
432,112,18855,1,8,0:0:0:0:
336,192,19002,2,0,B|296:264,1,75,8|0,0:0|0:0,0:0:0:0:
240,288,19148,2,0,B|176:224,1,75
224,176,19294,2,0,B|296:188|296:188|348:248,1,150,4|0,0:0|0:0,0:0:0:0:
432,320,19587,1,0,0:0:0:0:
288,320,19733,6,0,B|204:240,1,112.500004291535,0|8,0:0|0:0,0:0:0:0:
32,192,20026,2,0,B|4:80,1,112.500004291535
224,176,20319,6,0,B|260:48,1,127.50000243187
96,192,20611,2,0,B|56:316,1,127.50000243187
288,192,20904,6,0,B|336:48,1,142.49999619484,0|8,0:0|0:0,0:0:0:0:
144,48,21197,2,0,B|100:196,1,142.49999619484
224,288,21489,1,0,0:0:0:0:
384,288,21636,2,0,B|464:264|472:176,1,150,4|0,0:0|0:0,0:0:0:0:
368,128,21928,1,0,0:0:0:0:
256,96,22075,2,0,B|176:120|168:208,1,150,0|8,0:0|0:0,0:0:0:0:
272,288,22367,1,0,0:0:0:0:
384,288,22514,1,0,0:0:0:0:
320,176,22660,1,0,0:0:0:0:
192,176,22806,5,4,0:0:0:0:
96,96,22953,1,0,0:0:0:0:
272,96,23099,5,4,0:0:0:0:
192,176,23246,1,0,0:0:0:0:
96,96,23392,5,4,0:0:0:0:
192,176,23539,1,0,0:0:0:0:
272,96,23684,5,4,0:0:0:0:
192,176,23831,1,0,0:0:0:0:
96,96,23977,5,4,0:0:0:0:
192,176,24124,1,0,0:0:0:0:
272,96,24270,1,0,0:0:0:0:
384,64,24416,2,0,B|424:20|424:20|488:20,1,112.499996647239,0|8,0:0|0:0,0:0:0:0:
384,128,24709,2,0,B|325:131|325:131|279:85,1,112.499996647239,0|8,0:0|0:0,0:0:0:0:
384,64,25002,6,0,B|446:63|446:63|494:112,1,127.499994680286,0|8,0:0|0:0,0:0:0:0:
384,128,25294,2,0,B|324:107|324:107|295:45,1,127.499994680286,0|8,0:0|0:0,0:0:0:0:
384,64,25587,6,0,B|442:84|442:84|476:157,1,142.499994903803,0|8,0:0|0:0,0:0:0:0:
384,128,25880,2,0,B|321:128|321:128|262:68,1,142.499994903803,0|8,0:0|0:0,0:0:0:0:
112,48,26172,5,0,0:0:0:0:
0,80,26319,1,4,0:0:0:0:
112,144,26465,1,0,0:0:0:0:
0,192,26611,1,8,0:0:0:0:
112,144,26758,6,0,B|188:144|188:144|244:188|248:248|212:304|140:304,1,300
48,208,27197,2,0,B|-28:208|-28:208|-84:164|-88:104|-52:48|20:48,1,300,8|4,0:0|0:0,0:0:0:0:
240,32,27636,5,0,0:0:0:0:
336,64,27782,1,0,0:0:0:0:
240,112,27928,5,0,0:0:0:0:
144,144,28075,1,12,0:0:0:0:
240,176,28221,5,0,0:0:0:0:
336,192,28367,1,4,0:0:0:0:
240,240,28514,5,0,0:0:0:0:
144,256,28660,1,4,0:0:0:0:
240,240,28806,2,0,B|312:254|332:145,1,150
224,160,29099,1,0,0:0:0:0:
320,160,29245,2,0,B|392:164|468:144,1,150,8|0,0:0|0:0,0:0:0:0:
400,80,29538,2,0,B|328:76|251:97,1,150
240,144,29831,1,4,0:0:0:0:
368,288,30123,5,0,0:0:0:0:
400,256,30197,1,0,0:0:0:0:
368,240,30270,1,0,0:0:0:0:
400,208,30343,1,0,0:0:0:0:
368,176,30416,2,0,B|428:124|508:148,2,150,8|0|0,0:0|0:0|0:0,0:0:0:0:
272,240,30855,1,0,0:0:0:0:
160,288,31002,1,4,0:0:0:0:
32,176,31294,5,0,0:0:0:0:
0,144,31367,1,0,0:0:0:0:
32,112,31441,1,0,0:0:0:0:
147,61,31587,2,0,B|167:29|200:5|243:5|279:17,1,150,12|0,0:0|0:0,0:0:0:0:
224,96,31880,2,0,B|204:128|171:152|128:152|92:140,1,150
176,208,32172,2,0,B|196:240|228:264|272:264|308:252,1,150,12|0,0:0|0:0,0:0:0:0:
240,176,32465,2,0,B|203:184|162:188|117:176|78:159,1,150
176,112,32758,2,0,B|324:85,1,150,12|0,0:0|0:0,0:0:0:0:
256,176,33050,6,0,B|250:176|250:176|244:179|244:179|240:177|240:177|234:180|234:180|229:178|229:178|224:181|224:181|218:180|218:180|212:181|212:181|206:180|206:180|201:181|201:181|196:180|196:180|191:181|191:181|187:181|187:181|184:185|184:185|178:184|178:184|177:188|177:188|173:189|173:189|171:193|171:193|168:197|168:197|164:197|164:197|161:201|161:201|156:203|156:203|154:208|154:208|151:209|151:209|146:209|146:209|147:214|147:214|141:214|141:214|142:220|142:220|138:219|138:219|134:222|134:222|138:225|138:225|133:225|133:225|137:229|137:229|134:237|134:237|130:229|130:229|129:234|129:234|129:243|129:243|123:242|123:242|124:250|124:250|120:247|120:247|119:253|119:253|115:257|115:257|114:252|114:252|111:256|111:256|112:263|112:263|108:261|108:261|112:269|112:269|106:267|106:267|111:274|111:274|106:276|106:276|112:281|112:281|103:287,1,300,8|4,0:0|0:0,0:0:0:0:
224,352,33489,1,0,0:0:0:0:
336,304,33636,1,0,0:0:0:0:
432,224,33782,2,0,B|284:200,1,150,0|8,0:0|0:0,0:0:0:0:
112,288,34075,2,0,B|24:224|16:108|72:12,1,300
160,32,34953,2,0,B|272:32|336:80|368:128,1,225
448,192,35245,2,0,B|422:260|347:302,1,150
240,304,35538,2,0,B|167:290|113:224,1,150,0|4,0:0|0:0,0:0:0:0:
256,176,35972,5,4,0:0:0:0:
448,192,36264,1,4,0:0:0:0:
256,112,36557,1,4,0:0:0:0:
64,192,36850,1,8,0:0:0:0:
32,224,36923,1,8,0:0:0:0:
48,272,36996,1,8,0:0:0:0:
80,288,37069,1,8,0:0:0:0:
128,288,37142,1,8,0:0:0:0:
320,320,37289,6,0,B|380:276,1,75
384,208,37435,2,0,B|324:164,1,75
320,96,37581,2,0,B|384:48,1,75
384,96,37728,2,0,L|304:32,1,75
272,32,38020,5,4,0:0:0:0:
160,80,38167,1,0,0:0:0:0:
112,176,38313,2,0,B|144:196|184:196|216:176|228:128,1,150,8|0,0:0|0:0,0:0:0:0:
144,96,38606,2,0,B|156:47|188:27|228:27|260:47,1,150
352,192,38898,2,0,B|428:165|475:105,1,150,8|8,0:0|0:0,0:0:0:0:
288,48,39191,1,0,0:0:0:0:
240,32,39264,1,0,0:0:0:0:
256,96,39337,1,0,0:0:0:0:
352,112,39484,2,0,B|424:148|504:120,1,150,0|8,0:0|0:0,0:0:0:0:
368,208,39776,6,0,B|333:234|319:272|319:272|259:310,1,150
272,192,40069,2,0,B|288:152|280:112|280:112|312:48,1,150,8|0,0:0|0:0,0:0:0:0:
368,128,40362,2,0,B|288:148|232:84,1,150,4|0,0:0|0:0,0:0:0:0:
112,48,40654,1,8,0:0:0:0:
48,128,40801,1,8,0:0:0:0:
160,192,40947,2,0,B|216:208|264:188|280:132,1,150
192,112,41240,2,0,B|136:96|88:116|68:168,1,150,0|8,0:0|0:0,0:0:0:0:
224,256,41532,5,0,0:0:0:0:
256,208,41606,1,0,0:0:0:0:
192,192,41679,1,0,0:0:0:0:
80,288,41825,1,12,0:0:0:0:
240,320,42118,5,0,0:0:0:0:
272,272,42191,1,0,0:0:0:0:
208,256,42264,1,0,0:0:0:0:
64,208,42411,1,12,0:0:0:0:
160,112,42557,1,8,0:0:0:0:
320,80,42703,1,0,0:0:0:0:
368,96,42776,1,0,0:0:0:0:
320,144,42850,1,0,0:0:0:0:
208,48,42996,1,0,0:0:0:0:
272,144,43142,6,0,B|320:200|320:200|356:204|396:220,1,150,0|8,0:0|0:0,0:0:0:0:
352,128,43435,2,0,B|303:71|303:71|267:67|232:48,1,150
96,80,43728,1,0,0:0:0:0:
208,144,43874,2,0,B|256:80,2,75,8|0|0,0:0|0:0|0:0,0:0:0:0:
96,192,44167,1,4,0:0:0:0:
208,240,44459,2,0,B|256:304,2,75,8|0|0,0:0|0:0|0:0,0:0:0:0:
96,192,44752,1,4,0:0:0:0:
272,336,45045,6,0,B|312:288|292:228|292:228|336:188|336:188|312:124|344:64,2,300
160,288,45776,1,0,0:0:0:0:
288,224,45923,5,8,0:0:0:0:
336,176,45996,1,8,0:0:0:0:
320,112,46069,1,8,0:0:0:0:
256,96,46142,1,8,0:0:0:0:
128,64,46215,2,0,B|26:121|104:166|-8:221|-8:221|19:257|13:311,1,300,2|2,0:0|0:0,0:0:0:0:
32,256,47388,5,2,0:0:0:0:
160,224,47534,1,0,0:0:0:0:
272,192,47680,1,0,0:0:0:0:
304,144,47753,1,0,0:0:0:0:
272,144,47826,2,0,B|240:120|200:120|200:120|148:68,2,150,0|8|8,0:0|0:0|0:0,0:0:0:0:
400,272,48265,5,0,0:0:0:0:
432,224,48338,1,0,0:0:0:0:
400,224,48411,2,0,B|368:200|328:200|328:200|276:148,2,150,0|8|8,0:0|0:0|0:0,0:0:0:0:
304,80,48850,5,0,0:0:0:0:
288,32,48923,1,0,0:0:0:0:
336,32,48996,1,0,0:0:0:0:
464,96,49143,1,4,0:0:0:0:
256,192,49435,1,4,0:0:0:0:
96,336,49728,5,0,0:0:0:0:
48,304,49801,1,0,0:0:0:0:
32,240,49874,2,0,B|72:240|112:252,1,75,8|8,0:0|0:0,0:0:0:0:
112,192,50020,2,0,B|152:191|187:181,1,75,8|8,0:0|0:0,0:0:0:0:
192,112,50167,2,0,B|230:111|265:122,1,75
272,48,50313,6,0,L|192:48,1,75
192,16,50459,2,0,L|112:16,1,75
112,64,50605,2,0,L|32:32,1,75,4|0,0:0|0:0,0:0:0:0:
48,96,50752,2,0,L|140:112,1,75,4|0,0:0|0:0,0:0:0:0:
128,176,50898,6,0,L|212:176,1,75
208,240,51044,2,0,L|280:196,1,75
272,144,51191,2,0,L|192:112,1,75
192,48,51337,2,0,L|112:72,1,75
128,128,51483,2,0,L|208:144,1,75
208,208,51629,6,0,L|320:172,1,75
352,176,51776,5,0,0:0:0:0:
416,144,51849,1,0,0:0:0:0:
400,80,51922,1,0,0:0:0:0:
352,64,51995,1,0,0:0:0:0:
288,64,52068,6,0,B|251:132|180:172,1,150,4|0,0:0|0:0,0:0:0:0:
32,192,52361,1,0,0:0:0:0:
16,148,52434,1,0,0:0:0:0:
64,164,52507,1,0,0:0:0:0:
224,160,52653,6,0,B|304:152|368:192,1,150,4|0,0:0|0:0,0:0:0:0:
272,320,52946,1,0,0:0:0:0:
256,276,53019,1,0,0:0:0:0:
304,292,53092,1,0,0:0:0:0:
400,240,53238,6,0,B|485:225|497:141,1,150,4|0,0:0|0:0,0:0:0:0:
352,96,53531,1,0,0:0:0:0:
272,80,53604,1,0,0:0:0:0:
192,64,53677,1,0,0:0:0:0:
48,96,53823,5,0,0:0:0:0:
128,192,53970,1,0,0:0:0:0:
256,272,54116,1,0,0:0:0:0:
128,192,54262,1,0,0:0:0:0:
272,208,54408,5,8,0:0:0:0:
320,176,54482,1,8,0:0:0:0:
336,128,54555,1,0,0:0:0:0:
320,96,54628,1,0,0:0:0:0:
272,64,54701,1,0,0:0:0:0:
160,80,54847,5,0,0:0:0:0:
304,80,54994,1,0,0:0:0:0:
432,112,55140,1,0,0:0:0:0:
304,192,55286,1,0,0:0:0:0:
176,176,55432,5,0,0:0:0:0:
128,160,55505,1,0,0:0:0:0:
96,112,55579,1,0,0:0:0:0:
144,80,55652,1,0,0:0:0:0:
192,64,55725,1,0,0:0:0:0:
240,64,55798,1,0,0:0:0:0:
320,80,55871,6,0,B|388:108,1,75
384,176,56017,2,0,B|312:204,1,75
320,272,56164,2,0,L|400:304,1,75
384,368,56310,1,0,0:0:0:0:
224,336,56456,1,12,0:0:0:0:
384,224,56749,1,0,0:0:0:0:
224,176,57041,5,4,0:0:0:0:
384,192,67293,5,0,0:0:0:0:
448,160,67439,1,0,0:0:0:0:
384,128,67585,1,8,0:0:0:0:
272,128,67732,2,0,B|228:148|228:148|200:196|144:192,1,150
224,112,68024,2,0,B|260:36|348:40,1,150,0|8,0:0|0:0,0:0:0:0:
432,112,68317,5,0,0:0:0:0:
480,144,68390,1,0,0:0:0:0:
432,176,68463,1,0,0:0:0:0:
288,272,68610,1,0,0:0:0:0:
176,272,68756,1,8,0:0:0:0:
64,272,68902,1,0,0:0:0:0:
176,192,69049,2,0,B|260:204|308:136,1,150
224,112,69341,2,0,B|202:196|100:187|59:116|102:22|185:46,1,300,12|0,0:0|0:0,0:0:0:0:
288,64,69780,6,0,B|309:-20|411:-12|452:59|409:153|326:129,1,300,4|0,0:0|0:0,0:0:0:0:
208,64,70219,2,0,B|120:84|116:176,1,150,8|0,0:0|0:0,0:0:0:0:
240,320,70512,1,0,0:0:0:0:
352,320,70658,1,0,0:0:0:0:
384,288,70732,1,0,0:0:0:0:
336,256,70805,2,0,B|262:210|253:128,1,150,4|0,0:0|0:0,0:0:0:0:
368,160,71097,2,0,B|454:163|501:231,1,150,8|0,0:0|0:0,0:0:0:0:
368,48,71390,6,8,B|288:64,1,75
288,128,71536,2,8,B|364:116,1,75
368,176,71683,2,8,B|288:188,1,75
288,256,71829,2,8,B|368:240,1,75
368,304,71975,6,0,B|421:305|459:257|459:195,1,150,4|0,0:0|0:0,0:0:0:0:
384,64,72268,1,0,0:0:0:0:
272,64,72414,1,0,0:0:0:0:
160,64,72561,2,0,B|84:64|16:112,1,150,8|0,0:0|0:0,0:0:0:0:
128,208,72853,1,0,0:0:0:0:
272,224,73000,6,0,B|321:204|334:134|277:105,2,150,8|0|0,0:0|0:0|0:0,0:0:0:0:
128,192,73439,2,0,B|67:50,1,150,4|0,0:0|0:0,0:0:0:0:
240,32,73732,6,0,B|298:51|296:122|250:148,2,150,8|0|0,0:0|0:0|0:0,0:0:0:0:
96,32,74171,2,0,B|0:192,1,150,8|0,0:0|0:0,0:0:0:0:
144,176,74463,6,0,B|224:212|284:156,1,150,0|8,0:0|0:0,0:0:0:0:
400,64,74756,2,0,B|485:84|498:165,1,150,4|0,0:0|0:0,0:0:0:0:
400,240,75049,2,0,B|272:140,1,150,0|8,0:0|0:0,0:0:0:0:
144,32,75341,1,0,0:0:0:0:
144,112,75488,6,8,B|224:160,1,75
208,208,75634,2,8,B|288:252,1,75
272,192,75780,2,0,B|364:140,1,75
336,208,75927,2,0,B|448:240,1,75
448,272,76073,5,0,0:0:0:0:
400,304,76146,1,0,0:0:0:0:
336,304,76219,1,0,0:0:0:0:
304,256,76292,1,0,0:0:0:0:
336,224,76366,1,0,0:0:0:0:
400,208,76439,1,0,0:0:0:0:
432,176,76512,1,0,0:0:0:0:
400,128,76585,1,0,0:0:0:0:
336,112,76658,6,0,B|296:80|244:68|196:84,1,150,4|0,0:0|0:0,0:0:0:0:
176,192,76951,1,0,0:0:0:0:
304,192,77097,5,0,0:0:0:0:
432,192,77244,1,4,0:0:0:0:
304,112,77390,1,0,0:0:0:0:
176,192,77536,1,0,0:0:0:0:
304,272,77683,1,0,0:0:0:0:
432,192,77829,1,4,0:0:0:0:
304,80,78122,5,0,0:0:0:0:
240,80,78195,1,0,0:0:0:0:
208,112,78268,1,0,0:0:0:0:
240,144,78341,1,0,0:0:0:0:
304,144,78414,2,0,B|335:161|379:161|411:129|419:89,1,150,4|0,0:0|0:0,0:0:0:0:
304,80,78707,2,0,B|273:63|229:63|197:95|189:136,1,150
320,224,79292,5,0,0:0:0:0:
368,224,79366,1,0,0:0:0:0:
320,272,79439,1,0,0:0:0:0:
368,272,79512,1,0,0:0:0:0:
368,336,79585,2,0,B|416:400,2,75,4|0|0,0:0|0:0|0:0,0:0:0:0:
272,336,79878,5,0,0:0:0:0:
224,288,79951,1,0,0:0:0:0:
272,272,80024,2,0,B|352:278|404:214,1,150,0|4,0:0|0:0,0:0:0:0:
304,176,80317,2,0,B|220:32,1,150
112,48,80610,2,0,B|32:64|1:141,1,150,0|4,0:0|0:0,0:0:0:0:
112,144,80902,2,0,B|146:157|144:208,2,75
16,64,81195,1,0,0:0:0:0:
144,48,81341,5,4,0:0:0:0:
272,80,81488,1,0,0:0:0:0:
144,128,81634,1,0,0:0:0:0:
16,208,81780,2,0,B|-20:280|4:356,1,150,0|8,0:0|0:0,0:0:0:0:
80,288,82073,2,0,B|153:311|229:275,1,150
144,208,82366,2,0,B|65:227|1:179,1,150,0|8,0:0|0:0,0:0:0:0:
96,128,82658,2,0,B|120:164|120:164|168:168|200:228,1,150
112,224,82951,2,0,B|136:188|136:188|184:184|216:124,1,150,0|8,0:0|0:0,0:0:0:0:
336,64,83244,1,0,0:0:0:0:
192,64,83390,5,8,0:0:0:0:
160,96,83463,1,0,0:0:0:0:
208,128,83536,1,0,0:0:0:0:
384,144,83683,1,0,0:0:0:0:
288,240,83829,6,0,B|243:321|155:283,1,150,0|8,0:0|0:0,0:0:0:0:
208,208,84122,2,0,B|352:128,1,150
224,80,84414,1,0,0:0:0:0:
112,160,84561,1,8,0:0:0:0:
368,240,84707,1,0,0:0:0:0:
416,208,84780,1,0,0:0:0:0:
464,128,84853,2,2,B|356:72|212:128|240:220|240:220|268:312|120:376|16:312,1,600,0|4,0:0|0:0,0:0:0:0:
48,272,86097,1,0,0:0:0:0:
96,256,86171,1,0,0:0:0:0:
240,176,86317,6,0,B|280:84|136:52,1,150,0|8,0:0|0:0,0:0:0:0:
160,144,86610,2,0,B|244:152|284:76,1,150
432,48,86902,1,0,0:0:0:0:
304,32,87049,2,0,B|224:16|144:48,1,150,8|4,0:0|0:0,0:0:0:0:
192,160,87488,5,0,0:0:0:0:
224,208,87561,1,0,0:0:0:0:
272,240,87634,1,0,0:0:0:0:
320,224,87707,1,0,0:0:0:0:
352,160,87780,2,0,B|308:164|280:160|280:160|260:188|220:208,2,150,4|8|0,0:0|0:0|0:0,0:0:0:0:
448,224,88219,2,0,B|473:260|496:277|496:277|488:311|448:352,1,150,8|4,0:0|0:0,0:0:0:0:
288,224,88658,5,0,0:0:0:0:
272,160,88732,1,0,0:0:0:0:
224,112,88805,1,0,0:0:0:0:
160,96,88878,1,0,0:0:0:0:
112,128,88951,2,0,B|85:139|85:139|79:128|79:128|74:142|74:142|63:132|63:132|62:145|62:145|53:139|53:139|52:152|52:152|39:151|39:151|38:164|38:164|23:168|23:168|30:178|30:178|14:182|14:182|25:192|25:192|10:196|10:196|22:210|22:210|2:215|2:215|17:223|17:223|-5:229|-5:229|9:238,1,300,4|8,0:0|0:0,0:0:0:0:
128,272,89536,5,8,0:0:0:0:
208,272,89610,1,8,0:0:0:0:
288,272,89683,1,8,0:0:0:0:
368,272,89756,1,8,0:0:0:0:
448,272,89829,2,0,B|448:112|208:112,1,300,0|8,0:0|0:0,0:0:0:0:
160,176,90195,5,8,0:0:0:0:
240,176,90268,1,8,0:0:0:0:
320,176,90341,1,8,0:0:0:0:
400,176,90414,2,0,B|416:48|144:160,1,300,0|8,0:0|0:0,0:0:0:0:
80,96,90780,5,8,0:0:0:0:
160,96,90854,1,8,0:0:0:0:
240,96,90927,1,8,0:0:0:0:
320,96,91000,1,4,0:0:0:0:
240,176,91146,1,0,0:0:0:0:
160,288,91292,2,0,B|111:262|111:262|106:260|108:255|108:255|149:230|121:199|121:199|121:191|121:191|114:185|114:185|87:158|60:185|60:185|51:176|51:176|50:163|50:163|73:156|84:124|84:124|83:111|83:111|74:102|74:102|54:96|54:96|38:102|18:89|18:89|13:61|40:70|40:70|42:47|42:47|30:39,2,450,4|0|0,0:0|0:0|0:0,0:0:0:0:
336,224,92244,5,0,0:0:0:0:
368,176,92317,1,0,0:0:0:0:
320,160,92390,1,0,0:0:0:0:
272,144,92463,2,0,B|128:184,1,150,4|0,0:0|0:0,0:0:0:0:
256,224,92756,1,0,0:0:0:0:
352,160,92902,2,0,B|356:116|388:92|428:84|472:112,1,150,4|0,0:0|0:0,0:0:0:0:
432,192,93195,2,0,B|272:256,1,150
160,272,93634,5,0,0:0:0:0:
112,240,93707,1,8,0:0:0:0:
144,208,93780,1,8,0:0:0:0:
96,176,93853,1,8,0:0:0:0:
128,144,93927,1,8,0:0:0:0:
80,112,94000,1,8,0:0:0:0:
112,80,94073,1,8,0:0:0:0:
64,64,94146,1,8,0:0:0:0:
112,16,94219,6,0,B|192:64,1,75,4|8,0:0|0:0,0:0:0:0:
176,112,94366,2,8,B|256:160,1,75
240,224,94512,2,8,B|304:272,1,75
304,304,94658,2,8,B|240:368,1,75
240,304,94805,6,8,B|168:256,1,75
176,208,94951,2,8,B|112:160,1,75
112,96,95097,2,8,B|224:48,1,75
192,128,95244,6,0,B|224:208,2,75
112,48,95536,1,4,0:0:0:0:
272,112,95683,2,0,B|316:96|348:100|348:100|392:40,1,150,8|0,0:0|0:0,0:0:0:0:
304,32,95975,2,0,B|288:68|248:92|204:80|180:44,1,150
64,64,96268,1,8,0:0:0:0:
32,96,96341,1,0,0:0:0:0:
96,112,96414,1,0,0:0:0:0:
208,176,96561,6,0,B|244:240|244:240|380:212|432:328,1,300,0|8,0:0|0:0,0:0:0:0:
336,352,96927,1,0,0:0:0:0:
240,352,97000,1,0,0:0:0:0:
144,352,97146,6,0,B|96:336|76:276|108:224,1,150
208,144,97439,1,8,0:0:0:0:
288,96,97512,1,0,0:0:0:0:
384,48,97585,2,0,B|414:97|394:157|346:173,1,150
224,208,97878,1,0,0:0:0:0:
80,176,98024,1,8,0:0:0:0:
44,144,98097,1,0,0:0:0:0:
96,112,98171,1,0,0:0:0:0:
240,112,98317,6,0,B|316:140|388:108,1,150
272,32,98610,1,8,0:0:0:0:
224,64,98683,1,0,0:0:0:0:
288,96,98756,2,0,B|432:160,2,150
112,64,99195,1,8,0:0:0:0:
64,96,99268,1,0,0:0:0:0:
128,128,99341,2,0,B|288:192,2,150
32,176,99780,2,0,B|106:182|180:156,1,150
224,96,100073,2,0,B|152:88|76:116,1,150,12|0,0:0|0:0,0:0:0:0:
160,176,100366,6,0,B|191:213|193:244|189:246|191:249|195:247|223:260|235:303,1,150
112,384,100658,2,0,B|124:336|112:308|108:308|108:304|112:304|140:280|137:241,1,150,8|0,0:0|0:0,0:0:0:0:
192,320,100951,2,0,B|264:344|344:336,1,150
272,256,101244,2,0,B|272:208|224:192,2,75,8|0|0,0:0|0:0|0:0,0:0:0:0:
336,176,101536,2,0,B|412:152|500:168,1,150
400,64,101829,2,0,B|336:64|336:64|311:91|261:117,1,150,8|0,0:0|0:0,0:0:0:0:
368,144,102122,2,0,B|431:145|431:145|453:176|505:199,1,150,8|0,0:0|0:0,0:0:0:0:
384,272,102414,6,8,B|313:250,1,75
304,192,102561,2,8,B|231:212,1,75
224,144,102707,2,8,B|152:124,1,75
160,48,102854,2,8,B|232:71,1,75
224,96,103000,2,8,B|296:75,2,75,8|8|4,0:0|0:0|0:0,0:0:0:0:
96,112,103292,6,8,B|22:102,1,75
32,32,103439,2,8,B|107:43,1,75
96,112,103585,2,8,B|169:98,1,75
176,160,103732,2,8,B|250:173,1,75
240,240,103878,2,8,B|168:222,1,75
160,288,104024,2,8,B|87:307,2,75
288,288,104317,5,8,0:0:0:0:
352,208,104463,1,8,0:0:0:0:
240,240,104610,1,8,0:0:0:0:
128,272,104756,6,0,B|49:243|51:155,1,150,4|0,0:0|0:0,0:0:0:0:
144,192,105049,2,0,B|180:116|252:96,1,150
144,96,105341,2,0,B|108:172|36:192,1,150,8|0,0:0|0:0,0:0:0:0:
144,96,105634,1,0,0:0:0:0:
272,176,105780,1,0,0:0:0:0:
320,144,105853,1,0,0:0:0:0:
272,112,105927,2,0,B|195:108|173:16,1,150,8|0,0:0|0:0,0:0:0:0:
80,144,106219,1,0,0:0:0:0:
208,144,106366,2,0,B|282:140|360:145,1,150,0|8,0:0|0:0,0:0:0:0:
272,64,106658,5,0,0:0:0:0:
224,96,106732,1,0,0:0:0:0:
272,128,106805,2,0,B|344:136|424:124,2,150,4|0|0,0:0|0:0|0:0,0:0:0:0:
128,96,107244,6,0,B|53:121|37:207,1,150
224,160,107536,1,0,0:0:0:0:
336,112,107683,2,0,B|414:109|414:109|474:135|500:182|487:257|443:288,1,300,12|0,0:0|0:0,0:0:0:0:
256,304,108122,1,0,0:0:0:0:
208,288,108195,1,0,0:0:0:0:
256,240,108268,2,0,B|332:220|332:220|396:232|432:272|436:348|344:368,1,300,12|0,0:0|0:0,0:0:0:0:
176,352,108707,1,0,0:0:0:0:
288,256,108853,6,8,B|352:192,1,75
336,144,109000,2,8,B|400:80,1,75
384,64,109146,2,8,B|320:0,1,75,0|0,0:0|0:0,0:0:0:0:
320,80,109292,2,8,B|256:16,1,75,0|0,0:0|0:0,0:0:0:0:
192,176,109439,5,0,0:0:0:0:
128,176,109512,1,0,0:0:0:0:
144,240,109585,2,0,B|222:219|262:154,1,150,0|8,0:0|0:0,0:0:0:0:
336,48,109878,5,0,0:0:0:0:
208,16,110024,1,0,0:0:0:0:
96,80,110171,1,0,0:0:0:0:
64,128,110244,1,0,0:0:0:0:
112,144,110317,1,8,0:0:0:0:
240,160,110463,6,0,B|274:207|274:207|274:258|234:291,2,150
96,80,110902,2,0,B|30:119|2:193,1,150,8|0,0:0|0:0,0:0:0:0:
128,176,111195,6,0,B|146:219|196:232|196:232|251:212,2,150,4|0|8,0:0|0:0|0:0,0:0:0:0:
32,112,111634,2,0,B|24:75|42:33|82:14|120:18,1,150
240,64,111927,1,0,0:0:0:0:
336,144,112073,1,8,0:0:0:0:
432,256,112219,6,0,B|376:288|376:288|360:356|284:376|232:316|232:316|232:264,1,300
240,192,112658,2,0,B|240:142|240:142|292:82|368:102|384:170|384:170|440:202,1,300,8|0,0:0|0:0,0:0:0:0:
384,288,113097,5,0,0:0:0:0:
320,320,113171,1,0,0:0:0:0:
256,320,113244,1,0,0:0:0:0:
208,288,113317,1,0,0:0:0:0:
176,240,113390,2,0,B|176:196|208:164,1,75
240,112,113536,5,8,0:0:0:0:
304,80,113610,1,8,0:0:0:0:
368,96,113683,1,8,0:0:0:0:
384,160,113756,1,8,0:0:0:0:
336,208,113829,2,8,B|296:198|270:174,1,75
224,128,113975,2,0,B|192:48,1,75
176,96,114122,6,0,B|147:166|65:197,1,150,4|0,0:0|0:0,0:0:0:0:
208,208,114414,2,0,B|276:200|328:232|328:232|352:216,1,150
256,128,114707,2,0,B|180:160|184:256,1,150,8|0,0:0|0:0,0:0:0:0:
288,240,115000,2,0,B|313:317|409:320,1,150
384,176,115292,2,0,B|306:148|306:52,2,150,8|0|0,0:0|0:0|0:0,0:0:0:0:
448,240,115732,2,0,B|441:288|488:321|488:321|513:375,2,150,0|8|0,0:0|0:0|0:0,0:0:0:0:
384,160,116171,6,0,B|288:0,1,150,4|0,0:0|0:0,0:0:0:0:
160,64,116463,2,0,B|83:85|40:151,1,150,8|0,0:0|0:0,0:0:0:0:
160,128,116756,1,0,0:0:0:0:
272,96,116902,1,0,0:0:0:0:
384,64,117049,2,0,B|459:88|486:164,1,150,8|0,0:0|0:0,0:0:0:0:
352,176,117341,1,0,0:0:0:0:
256,256,117488,6,0,B|198:311|118:299,1,150,0|8,0:0|0:0,0:0:0:0:
176,208,117780,2,0,B|237:159|317:179,1,150
240,96,118073,2,0,B|172:56|96:85,1,150,0|8,0:0|0:0,0:0:0:0:
176,144,118292,2,0,B|252:184,1,75
368,288,118512,1,8,0:0:0:0:
432,272,118585,1,8,0:0:0:0:
464,224,118658,1,8,0:0:0:0:
432,176,118732,1,0,0:0:0:0:
384,128,118805,6,0,B|338:63|255:57,1,150,4|0,0:0|0:0,0:0:0:0:
128,64,119097,1,0,0:0:0:0:
0,64,119244,1,0,0:0:0:0:
128,64,119390,2,0,B|279:77,2,150,0|8|0,0:0|0:0|0:0,0:0:0:0:
0,144,119829,2,0,B|-34:186|-19:243|36:266,1,150,8|0,0:0|0:0,0:0:0:0:
160,160,120122,2,0,B|210:138|264:171|269:227,2,150
80,192,120561,6,0,B|0:352,2,150,12|0|0,0:0|0:0|0:0,0:0:0:0:
176,80,121000,2,0,B|226:58|277:87|285:147,1,150,8|0,0:0|0:0,0:0:0:0:
176,224,121293,2,0,B|126:246|73:213|33:171,1,150
160,96,121585,6,0,B|335:163|314:347,1,300,12|0,0:0|0:0,0:0:0:0:
80,288,122024,2,0,B|-36:141|78:-7,1,300,12|8,0:0|0:0,0:0:0:0:
208,48,122463,1,0,0:0:0:0:
352,48,122610,1,8,0:0:0:0:
496,48,122756,1,0,0:0:0:0:
352,128,122902,5,8,0:0:0:0:
208,128,123049,1,8,0:0:0:0:
352,208,123195,1,8,0:0:0:0:
496,208,123341,1,8,0:0:0:0:
352,288,123488,5,8,0:0:0:0:
304,240,123585,1,8,0:0:0:0:
352,192,123683,1,8,0:0:0:0:
464,144,123878,2,8,B|512:48,2,100
272,80,124268,1,0,0:0:0:0:
80,224,124463,2,0,B|-4:180,1,75
192,128,124756,2,0,B|288:164,1,100
112,284,126590,5,0,0:0:0:0:
80,224,126686,1,0,0:0:0:0:
128,224,126783,1,0,0:0:0:0:
352,288,126977,5,0,0:0:0:0:
384,228,127073,1,0,0:0:0:0:
336,228,127170,1,0,0:0:0:0:
176,160,127364,5,0,0:0:0:0:
64,96,127557,2,0,B|8:184,1,99.9997536347419
144,192,127847,2,0,B|200:280,1,99.9997536347419
352,304,128331,5,0,0:0:0:0:
224,192,128525,2,0,B|231:148|186:104|125:129|117:173|110:216|46:233|-4:196|3:153,2,300
352,288,129492,1,0,0:0:0:0:
464,176,129686,6,0,B|512:64,2,99.9974976212143
352,176,130073,2,0,B|308:76,2,99.9974976212143
512,288,130460,2,0,B|568:180|460:120,1,199.994993335175
336,112,130750,2,0,B|220:148|253:267,1,199.994993335175
128,272,131040,2,0,B|32:236|32:236|4:140,2,199.994993335175,0|4|0,0:0|0:0|0:0,0:0:0:0:
240,272,131524,2,0,B|336:236|336:236|364:140,1,199.994993335175
256,176,131814,2,0,B|132:132|132:132|112:68,1,199.994993335175
224,64,132105,2,0,B|324:28,1,99.9974976212143
432,32,132298,6,0,B|520:88|496:216,1,199.994993335175
368,256,132589,2,0,B|312:344|184:319,1,199.994993335175,0|4,0:0|0:0,0:0:0:0:
80,272,132879,2,0,B|16:192,1,99.9974976212143
144,112,133169,2,0,B|208:16,2,99.9974976212143
32,160,133556,6,0,B|-22:175|-42:235|-22:295|30:311,1,199.994993335175,8|0,0:0|0:0,0:0:0:0:
128,224,133846,2,0,B|183:208|203:148|183:88|131:72,1,199.994993335175
0,80,134137,2,0,B|48:288,1,199.994995242429,0|4,0:0|0:0,0:0:0:0:
288,192,135104,5,0,0:0:0:0:
480,192,135491,1,0,0:0:0:0:
256,192,135878,2,0,B|192:288,2,99.9974976212143,8|0|0,0:0|0:0|0:0,0:0:0:0:
384,192,136265,2,0,B|448:288,2,99.9974976212143
256,192,136652,6,0,B|144:224,1,99.9974976212143,4|0,0:0|0:0,0:0:0:0:
160,288,136846,2,0,B|64:208,1,99.9974976212143
96,176,137039,2,0,B|176:96,1,99.9974976212143
176,48,137233,2,0,B|288:112,1,99.9974976212143
272,160,137426,6,0,B|336:240,2,99.9974976212143,8|0|0,0:0|0:0|0:0,0:0:0:0:
176,192,137813,2,0,B|112:96,2,99.9974976212143
384,96,138201,6,0,B|452:183,1,99.9974976212143,4|0,0:0|0:0,0:0:0:0:
480,240,138394,2,0,B|400:336,1,99.9974976212143
384,352,138588,2,0,B|304:272,1,99.9974976212143
288,224,138781,2,0,B|208:144,1,99.9974976212143
64,208,138975,6,0,B|32:160|22:109,2,99.9974976212143,8|0|0,0:0|0:0|0:0,0:0:0:0:
144,128,139362,2,0,B|176:80|176:16,2,99.9974976212143
64,304,139749,6,0,B|0:112,1,199.994995242429,4|0,0:0|0:0,0:0:0:0:
112,112,140039,2,0,B|288:0,1,199.994995242429
384,64,140329,2,0,B|192:176,1,199.994995242429,0|4,0:0|0:0,0:0:0:0:
64,256,140689,5,0,0:0:0:0:
192,336,140882,1,0,0:0:0:0:
352,272,141076,2,0,B|384:312,3,49.8750004756451
384,352,141269,2,0,B|436:252|364:164,1,199.50000190258,8|0,0:0|0:0,0:0:0:0:
224,96,141656,2,0,B|111:100|71:207,1,199.50000190258,8|0,0:0|0:0,0:0:0:0:
192,240,142043,6,0,B|240:352,2,99.7499958904268,4|0|0,0:0|0:0|0:0,0:0:0:0:
64,208,142430,2,0,B|8:100,2,99.7499958904268
208,256,142817,6,0,B|312:216|304:288|404:248,1,199.50000190258,8|0,0:0|0:0,0:0:0:0:
480,240,143107,2,0,B|424:143|308:170,1,199.50000190258
240,160,143398,2,0,B|136:200|144:128|44:168,2,199.50000190258,0|8|0,0:0|0:0|0:0,0:0:0:0:
336,176,143882,2,0,B|391:167|422:114|405:50|357:27,1,199.50000190258
272,80,144172,2,0,B|217:63|166:97|154:161|187:203,1,199.50000190258,0|8,0:0|0:0,0:0:0:0:
272,272,144462,6,0,B|308:308|368:300,1,99.7500009512901
448,272,144656,2,0,B|425:229|384:194|323:194|270:221,1,199.50000190258
192,256,144946,2,0,B|104:213|36:128,1,199.50000190258,0|8,0:0|0:0,0:0:0:0:
128,96,145236,2,0,B|182:98|214:140,1,99.7500009512901
368,304,145526,2,0,B|412:272|416:220,2,99.7500009512901
192,304,145913,6,0,B|172:312|172:312|136:308|136:308|124:328|124:328|88:308|88:308|56:332|56:332|24:312|24:312,1,199.50000190258,8|0,0:0|0:0,0:0:0:0:
96,224,146204,2,0,B|116:216|116:216|152:220|152:220|164:200|164:200|200:220|200:220|232:196|232:196|264:216|264:216,1,199.50000190258
176,128,146494,2,0,B|152:72|152:72|124:96|124:96|120:64|120:64|96:72|96:72|88:52|88:52|64:48,1,199.50000190258,0|4,0:0|0:0,0:0:0:0:
224,208,146881,5,0,0:0:0:0:
416,144,147075,1,0,0:0:0:0:
224,48,147268,2,0,B|196:92,4,49.8750004756451
224,48,147510,2,0,B|308:56|344:128,1,149.625001426935,8|0,0:0|0:0,0:0:0:0:
176,304,147849,1,8,0:0:0:0:
32,208,148042,1,0,0:0:0:0:
224,160,148236,6,0,B|261:193|265:247,2,99.7500009512901,4|0|0,0:0|0:0|0:0,0:0:0:0:
99,340,148623,2,0,B|67:300|73:247,2,99.7500009512901
240,336,149010,6,0,B|320:240,1,99.7499958904268,8|0,0:0|0:0,0:0:0:0:
320,192,149203,2,0,B|400:96,1,99.7499958904268
384,80,149397,2,0,B|304:-16,1,99.7499958904268
320,112,149590,2,0,B|240:32,1,99.7499958904268
128,80,149783,5,4,0:0:0:0:
96,112,149880,1,0,0:0:0:0:
128,144,149977,1,0,0:0:0:0:
320,224,150171,1,0,0:0:0:0:
350,189,150268,1,0,0:0:0:0:
320,160,150364,1,0,0:0:0:0:
144,80,150558,5,8,0:0:0:0:
368,304,150848,1,0,0:0:0:0:
144,288,151138,1,0,0:0:0:0:
288,176,151332,5,8,0:0:0:0:
72,52,151622,1,0,0:0:0:0:
272,32,151912,1,0,0:0:0:0:
128,80,156716,6,0,B|64:180|132:304,2,225,4|8|0,0:0|0:0|0:0,0:0:0:0:
288,48,157492,2,0,B|410:83|410:214,2,225,8|0|0,0:0|0:0|0:0,0:0:0:0:
128,64,158269,1,8,0:0:0:0:
0,192,158463,1,0,0:0:0:0:
160,208,158657,1,0,0:0:0:0:
208,224,158754,1,0,0:0:0:0:
192,160,158851,1,0,0:0:0:0:
0,160,159046,6,0,B|13:203|13:203|-25:250|-25:250|42:268|15:344,2,225,12|8|8,0:0|0:0|0:0,0:0:0:0:
192,256,159822,2,0,B|224:336,2,75,8|0|0,0:0|0:0|0:0,0:0:0:0:
84,212,160211,2,0,B|48:128,2,75
240,240,160599,2,0,B|316:236|388:216,1,150,12|0,0:0|0:0,0:0:0:0:
320,144,160890,2,0,B|241:126|180:179,1,150,8|0,0:0|0:0,0:0:0:0:
80,288,161182,1,0,0:0:0:0:
224,288,161376,6,0,B|272:368,2,75,8|0|0,0:0|0:0|0:0,0:0:0:0:
112,240,161764,2,0,B|64:160,2,75
272,240,162152,2,0,B|352:237|402:177,1,150,12|0,0:0|0:0,0:0:0:0:
320,144,162444,2,0,B|248:116|220:32,1,150,8|0,0:0|0:0,0:0:0:0:
304,32,162735,2,0,B|356:100|440:88,1,150,8|4,0:0|0:0,0:0:0:0:
368,32,163026,2,0,B|304:108,1,75
176,160,163317,1,0,0:0:0:0:
32,208,163512,1,0,0:0:0:0:
176,240,163706,2,0,B|222:284|226:323|226:323|255:307|255:307|257:344|309:377,2,225,4|8|0,0:0|0:0|0:0,0:0:0:0:
64,144,164482,5,8,0:0:0:0:
224,80,164677,1,0,0:0:0:0:
256,96,164774,1,0,0:0:0:0:
224,128,164871,1,0,0:0:0:0:
80,208,165065,1,0,0:0:0:0:
256,272,165259,5,4,0:0:0:0:
432,208,165550,1,8,0:0:0:0:
256,272,165842,1,0,0:0:0:0:
80,208,166036,1,8,0:0:0:0:
48,176,166133,1,0,0:0:0:0:
80,160,166230,1,0,0:0:0:0:
256,112,166424,2,0,B|316:144|316:144|308:180|328:224,1,150
256,336,166813,5,4,0:0:0:0:
80,256,167104,1,8,0:0:0:0:
256,192,167395,1,0,0:0:0:0:
432,256,167589,5,8,0:0:0:0:
480,224,167686,1,0,0:0:0:0:
432,192,167783,1,0,0:0:0:0:
384,192,167881,1,0,0:0:0:0:
336,192,167978,5,0,0:0:0:0:
288,160,168075,1,0,0:0:0:0:
336,128,168172,1,0,0:0:0:0:
384,128,168269,1,0,0:0:0:0:
432,128,168367,5,0,0:0:0:0:
480,96,168464,1,0,0:0:0:0:
432,64,168560,1,0,0:0:0:0:
304,64,168657,1,4,0:0:0:0:
256,64,168706,1,0,0:0:0:0:
160,192,169143,5,0,0:0:0:0:
32,192,169434,1,0,0:0:0:0:
160,192,169725,1,0,0:0:0:0:
288,192,169919,6,2,B|364:192,6,75,0|0|0|0|0|0|0,0:0|0:0|0:0|0:0|0:0|0:0|0:0,0:0:0:0:
96,192,171444,6,2,B|0:112,4,112.500004291535,0|0|0|0|0,0:0|0:0|0:0|0:0|0:0,0:0:0:0:
256,256,172583,1,0,0:0:0:0:
400,192,172988,6,0,B|528:80,2,150
240,192,173760,6,0,B|64:320,3,187.5
0,352,174544,1,0,0:0:0:0:
192,352,174832,1,0,0:0:0:0:
16,256,175120,1,0,0:0:0:0:
192,256,175313,1,4,0:0:0:0:
256,240,181045,6,0,B|196:129|151:203|91:92,2,224.999993294478,8|0|8,0:0|0:0|0:0,0:0:0:0:
384,272,181923,2,0,B|440:255|463:198,1,112.499996647239
304,192,182216,1,8,0:0:0:0:
160,192,182362,2,0,L|16:0,1,225.000008583069
192,32,182801,1,8,0:0:0:0:
352,32,182947,1,8,0:0:0:0:
512,32,183094,6,0,B|452:142|404:94|350:187,1,224.999993294478,4|0,0:0|0:0,0:0:0:0:
224,192,183533,1,0,0:0:0:0:
96,192,183679,2,0,B|52:156|52:156|32:96,1,112.499996647239
192,96,183972,2,0,B|253:100|283:157,1,112.499996647239,8|0,0:0|0:0,0:0:0:0:
112,96,184264,6,0,B|32:188,1,112.500004291535
192,192,184557,2,0,B|280:276,1,112.500004291535,8|0,0:0|0:0,0:0:0:0:
256,192,184849,12,8,185288,0:0:0:0:
256,192,185425,5,0,0:0:0:0:
400,192,185571,1,0,0:0:0:0:
256,112,185717,1,0,0:0:0:0:
112,192,185864,1,0,0:0:0:0:
256,112,186156,2,0,B|260:48|316:24,1,112.5
464,48,186449,5,0,0:0:0:0:
512,48,186522,1,0,0:0:0:0:
480,96,186595,1,0,0:0:0:0:
352,192,186742,1,0,0:0:0:0:
224,192,186888,5,0,0:0:0:0:
176,192,186961,1,0,0:0:0:0:
128,192,187034,1,0,0:0:0:0:
80,192,187107,1,0,0:0:0:0:
48,160,187181,1,0,0:0:0:0:
80,144,187254,1,0,0:0:0:0:
128,144,187327,1,0,0:0:0:0:
176,144,187400,1,0,0:0:0:0:
224,144,187473,5,0,0:0:0:0:
352,144,187620,1,0,0:0:0:0:
480,144,187766,1,0,0:0:0:0:
352,144,187912,1,0,0:0:0:0:
224,144,188059,1,0,0:0:0:0:
352,144,188205,1,0,0:0:0:0:
160,144,188498,1,0,0:0:0:0:
32,144,188644,5,0,0:0:0:0:
192,240,188790,1,0,0:0:0:0:
224,240,188864,1,0,0:0:0:0:
192,288,188937,1,0,0:0:0:0:
32,240,189083,1,0,0:0:0:0:
160,144,189229,1,0,0:0:0:0:
352,144,189376,5,0,0:0:0:0:
400,144,189449,1,0,0:0:0:0:
448,144,189522,1,0,0:0:0:0:
480,112,189595,1,0,0:0:0:0:
448,96,189668,1,0,0:0:0:0:
400,96,189742,1,0,0:0:0:0:
352,96,189815,1,4,0:0:0:0:
192,96,189961,1,0,0:0:0:0:
336,192,190107,5,4,0:0:0:0:
480,192,190254,1,0,0:0:0:0:
336,272,190400,1,0,0:0:0:0:
192,192,190546,1,0,0:0:0:0:
32,192,190802,5,0,0:0:0:0:
192,112,190951,1,8,0:0:0:0:
336,192,191099,1,0,0:0:0:0:
368,168,191173,1,0,0:0:0:0:
336,144,191246,1,0,0:0:0:0:
192,112,191396,1,0,0:0:0:0:
32,112,191545,1,0,0:0:0:0:
192,176,191693,6,0,B|244:208|300:184,1,112.499996647239,8|0,0:0|0:0,0:0:0:0:
176,272,191990,2,0,B|120:249|68:281,1,112.499996647239
176,352,192287,2,0,B|292:400|388:324,1,224.999993294478
272,272,192733,2,0,B|216:252|160:272,1,112.499996647239,8|0,0:0|0:0,0:0:0:0:
32,288,193022,5,0,0:0:0:0:
160,176,193170,1,0,0:0:0:0:
320,208,193319,2,0,B|361:176|393:116,2,112.499996647239,8|0|4,0:0|0:0|0:0,0:0:0:0:
256,192,193690,12,0,194337,0:0:0:0:
176,80,194483,6,0,B|258:81|318:153,1,150,8|0,0:0|0:0,0:0:0:0:
432,224,194783,5,4,0:0:0:0:
464,240,194856,1,0,0:0:0:0:
432,272,194929,2,0,B|378:313|378:313|283:302,2,150,0|8|0,0:0|0:0|0:0,0:0:0:0:
496,192,195368,2,0,B|539:125|503:45,1,150
368,48,195661,2,0,B|308:-4|224:20,1,150,8|0,0:0|0:0,0:0:0:0:
144,48,195880,2,0,B|114:75|106:111,1,75
224,176,196100,1,0,0:0:0:0:
368,176,196246,6,0,B|412:188|448:160|448:160|484:148|516:156,1,150,8|0,0:0|0:0,0:0:0:0:
416,80,196539,1,0,0:0:0:0:
352,64,196612,1,0,0:0:0:0:
288,64,196685,1,0,0:0:0:0:
96,96,196831,6,0,B|52:156|84:248,1,150,4|0,0:0|0:0,0:0:0:0:
224,256,197124,1,0,0:0:0:0:
352,256,197270,2,0,B|500:240,1,150,0|8,0:0|0:0,0:0:0:0:
400,176,197563,2,0,L|240:144,1,150
112,128,197856,1,0,0:0:0:0:
224,208,198002,2,0,B|272:288,2,75,8|0|0,0:0|0:0|0:0,0:0:0:0:
64,192,198295,2,0,B|0:48,1,150
144,48,198587,2,0,B|176:108|264:140,1,150,4|0,0:0|0:0,0:0:0:0:
400,144,198880,6,8,B|448:208,1,75
464,256,199026,2,8,B|496:336,1,75
464,304,199173,2,8,B|416:368,1,75
400,304,199319,2,8,B|336:352,1,75
224,304,199465,5,0,0:0:0:0:
160,256,199539,1,0,0:0:0:0:
192,192,199612,1,0,0:0:0:0:
272,112,199758,1,0,0:0:0:0:
400,96,199904,1,0,0:0:0:0:
480,160,200051,2,0,B|448:230|406:188|372:256,1,150
240,288,200344,1,8,0:0:0:0:
128,224,200490,6,0,B|6:124,1,150
128,128,200783,2,0,B|225:3,1,150,8|8,0:0|0:0,0:0:0:0:
368,32,201075,1,0,0:0:0:0:
480,144,201222,2,0,B|454:217|400:268,2,150,0|0|8,0:0|0:0|0:0,0:0:0:0:
368,32,201661,6,0,B|292:16|220:36,1,150
80,144,201953,1,8,0:0:0:0:
224,224,202100,1,8,0:0:0:0:
384,224,202246,2,0,B|440:170|465:100,1,150
304,32,202539,1,0,0:0:0:0:
160,48,202685,2,0,B|92:76|76:164,1,150,8|0,0:0|0:0,0:0:0:0:
208,240,202978,5,8,0:0:0:0:
288,256,203051,1,8,0:0:0:0:
368,240,203124,2,8,B|400:160,2,75
224,320,203417,6,8,B|151:303,1,75
144,240,203563,2,0,B|70:225,1,75
64,160,203709,1,0,0:0:0:0:
112,160,203783,1,0,0:0:0:0:
160,160,203856,1,0,0:0:0:0:
192,128,203929,1,0,0:0:0:0:
160,112,204002,1,0,0:0:0:0:
112,112,204075,1,0,0:0:0:0:
144,64,204148,5,4,0:0:0:0:
224,64,204295,1,0,0:0:0:0:
368,112,204441,2,0,B|448:92|512:144,1,150,8|0,0:0|0:0,0:0:0:0:
416,192,204734,2,0,B|336:205|264:168,1,150
368,96,205026,2,0,B|424:120|424:120|456:96|508:96,1,150,8|0,0:0|0:0,0:0:0:0:
432,32,205319,2,0,B|376:7|376:7|344:31|292:32,1,150
160,64,205612,1,8,0:0:0:0:
64,128,205758,1,0,0:0:0:0:
32,160,205831,1,0,0:0:0:0:
64,176,205904,1,0,0:0:0:0:
112,176,205978,2,0,B|180:144,1,75
320,80,206197,6,0,B|392:52|464:96,1,150,4|0,0:0|0:0,0:0:0:0:
512,208,206490,1,0,0:0:0:0:
384,272,206636,2,0,B|313:272|313:272|242:225,1,150,0|8,0:0|0:0,0:0:0:0:
144,144,206929,2,0,B|168:116|212:96|260:108|288:140|288:140|307:129|307:129|315:131|315:131|320:123|320:123|335:119|335:119|332:110|332:110|348:108|348:108|351:97|351:97|368:100|368:100|363:85|363:85|376:84|376:84,1,300
480,176,207368,2,0,B|456:204|412:224|364:212|336:180|336:180|318:190|318:190|310:188|310:188|304:196|304:196|290:200|290:200|292:209|292:209|277:211|277:211|274:222|274:222|256:220|256:220|262:234|262:234|248:236|248:236,1,300,8|0,0:0|0:0,0:0:0:0:
128,320,207807,1,0,0:0:0:0:
16,224,207953,2,0,B|57:160|146:154,1,150,8|0,0:0|0:0,0:0:0:0:
272,128,208246,6,8,B|348:112,1,75
352,48,208392,2,8,B|426:62,1,75
352,192,208539,2,0,B|203:176,1,150,0|8,0:0|0:0,0:0:0:0:
80,112,208831,6,0,B|8:148|8:236,1,150,4|0,0:0|0:0,0:0:0:0:
128,304,209124,1,0,0:0:0:0:
272,304,209270,2,0,B|280:308|280:308|288:308|288:308|296:312|296:312|304:312|304:312|312:316|312:316|320:316|320:316|324:320|324:320|332:320|332:320|340:324|340:324|348:324|348:324|356:328|356:328|364:328|364:328|372:332|372:332|380:332|380:332|388:336|388:336|396:336|396:336|404:340|404:340|412:340|412:340,1,150,8|0,0:0|0:0,0:0:0:0:
320,208,209563,2,0,B|279:135|201:127,1,150,0|8,0:0|0:0,0:0:0:0:
80,128,209856,6,0,B|16:64,2,75
224,128,210148,1,8,0:0:0:0:
352,144,210295,1,8,0:0:0:0:
224,240,210441,6,0,B|160:176,2,75,8|0|0,0:0|0:0|0:0,0:0:0:0:
352,256,210734,1,0,0:0:0:0:
480,224,210880,1,0,0:0:0:0:
352,256,211026,2,0,B|279:244|205:275,1,150,8|0,0:0|0:0,0:0:0:0:
304,336,211319,2,0,B|377:348|451:317,1,150,8|8,0:0|0:0,0:0:0:0:
352,256,211612,6,0,B|294:209|208:220,1,150,4|0,0:0|0:0,0:0:0:0:
320,144,211904,2,0,B|451:227,1,150
400,96,212197,1,0,0:0:0:0:
336,48,212270,1,0,0:0:0:0:
256,64,212343,6,8,B|211:62|162:86,1,75
176,144,212490,2,8,B|84:152,1,75
96,224,212636,2,8,B|16:240,1,75
32,304,212782,2,8,B|108:320,1,75
112,256,212929,5,0,0:0:0:0:
160,256,213002,1,0,0:0:0:0:
208,256,213075,1,0,0:0:0:0:
256,256,213148,1,0,0:0:0:0:
208,192,213222,1,0,0:0:0:0:
160,192,213295,1,0,0:0:0:0:
112,192,213368,1,0,0:0:0:0:
160,128,213441,6,0,B|240:128,1,75,0|4,0:0|0:0,0:0:0:0:
336,80,213661,1,0,0:0:0:0:
432,80,213807,1,0,0:0:0:0:
512,160,213953,2,0,B|492:277|409:237,1,150,0|4,0:0|0:0,0:0:0:0:
256,80,214246,2,0,B|186:36|115:78,1,150
176,144,214539,2,0,B|253:188|320:147,1,150,0|4,0:0|0:0,0:0:0:0:
384,144,214978,5,0,0:0:0:0:
416,144,215051,1,0,0:0:0:0:
400,96,215124,1,0,0:0:0:0:
432,96,215197,1,0,0:0:0:0:
416,48,215270,1,8,0:0:0:0:
512,32,215417,1,0,0:0:0:0:
318,148,215709,1,0,0:0:0:0:
192,224,216148,5,0,0:0:0:0:
160,224,216221,1,0,0:0:0:0:
176,176,216294,1,0,0:0:0:0:
144,176,216367,1,0,0:0:0:0:
160,128,216441,2,0,B|114:66|114:66|41:48,1,150,4|0,0:0|0:0,0:0:0:0:
0,192,216734,5,0,0:0:0:0:
32,240,216807,1,0,0:0:0:0:
80,240,216880,2,0,B|208:128,1,150,0|4,0:0|0:0,0:0:0:0:
112,64,217173,2,0,B|28:68|0:151,1,150
96,224,217465,5,0,0:0:0:0:
256,224,217612,1,4,0:0:0:0:
416,224,217758,1,0,0:0:0:0:
256,144,217905,1,0,0:0:0:0:
208,144,217978,1,0,0:0:0:0:
160,144,218051,1,0,0:0:0:0:
208,96,218124,1,0,0:0:0:0:
256,96,218197,1,8,0:0:0:0:
416,96,218343,1,0,0:0:0:0:
320,240,218490,6,0,B|262:293|180:288,1,150,8|0,0:0|0:0,0:0:0:0:
64,240,218782,2,0,B|8:100,1,150,8|0,0:0|0:0,0:0:0:0:
176,128,219075,2,0,B|228:188|312:180,1,150,8|0,0:0|0:0,0:0:0:0:
448,128,219368,6,0,B|496:276,1,150,8|0,0:0|0:0,0:0:0:0:
336,128,219661,2,0,B|296:60|208:68,1,150,8|0,0:0|0:0,0:0:0:0:
320,224,219953,2,0,B|464:288,1,150,8|0,0:0|0:0,0:0:0:0:
352,144,220246,2,0,B|332:56|256:36,1,150,8|0,0:0|0:0,0:0:0:0:
144,32,220465,2,0,B|120:60|116:104,1,75,0|8,0:0|0:0,0:0:0:0:
256,160,220685,2,0,B|320:189|396:212,1,150,0|8,0:0|0:0,0:0:0:0:
480,128,220978,5,0,0:0:0:0:
512,96,221051,1,0,0:0:0:0:
464,80,221124,2,0,B|404:48|324:20,1,150,8|0,0:0|0:0,0:0:0:0:
176,48,221417,1,0,0:0:0:0:
288,240,221563,1,0,0:0:0:0:
320,240,221636,1,0,0:0:0:0:
288,208,221709,2,0,B|272:176|272:176|292:160|292:160|272:144|272:144|284:120|284:120|256:116|256:116|260:88|260:88|227:96|227:96|216:72|216:72|192:88|192:88|176:72|148:68,1,300,8|0,0:0|0:0,0:0:0:0:
320,48,222075,1,0,0:0:0:0:
352,48,222148,1,0,0:0:0:0:
352,96,222222,1,0,0:0:0:0:
384,96,222295,1,4,0:0:0:0:
