osu file format v14

[General]
AudioFilename: audio.mp3
AudioLeadIn: 0
PreviewTime:44237
Countdown: 0
SampleSet: Soft
StackLeniency: 0.8
Mode: 0
LetterboxInBreaks: 0
WidescreenStoryboard: 1

[Editor]
Bookmarks: 129,5318,15696,26074,36453,46831,57210,67588,70183,80561,90939,101318,111696,124669,135047,145426,155804,163588,166183,176561,186939,199912,204777
DistanceSpacing: 0.6
BeatDivisor: 4
GridSize: 16
TimelineZoom: 1

[Metadata]
Title:LosT
TitleUnicode:LosT
Artist:Bring Me The Horizon
ArtistUnicode:Bring Me The Horizon
Creator:Embo
Version:TerRibLy LosT
Source:
Tags:english alternative alt emo rock hyperpop bmth Oliver Oli Sykes Matt Nicholls Lee Malia Kean Jordan Fish post human: nex gen
BeatmapID:4258136
BeatmapSetID:2041071

[Difficulty]
HPDrainRate:6
CircleSize:4.2
OverallDifficulty:8.7
ApproachRate:9.3
SliderMultiplier:1.8
SliderTickRate:1

[Events]
//Background and Video events
0,0,"lostbg.jpg",0,0
//Break Periods
2,124950,129108
2,156004,162838
//Storyboard Layer 0 (Background)
//Storyboard Layer 1 (Fail)
//Storyboard Layer 2 (Pass)
//Storyboard Layer 3 (Foreground)
//Storyboard Layer 4 (Overlay)
//Storyboard Sound Samples

[TimingPoints]
129,324.324324324324,4,2,1,55,1,0
129,-142.857142857143,4,2,1,55,0,0
5318,-90.9090909090909,4,2,1,70,0,0
6291,-111.111111111111,4,2,1,70,0,0
7912,-90.9090909090909,4,2,1,70,0,0
8237,-111.111111111111,4,2,1,70,0,0
10507,-83.3333333333333,4,2,1,70,0,0
10831,-111.111111111111,4,2,1,70,0,0
13426,-90.9090909090909,4,2,1,70,0,0
14074,-76.9230769230769,4,2,1,70,0,0
14399,-66.6666666666667,4,2,1,70,0,0
15047,-166.666666666667,4,2,1,30,0,0
15696,-125,4,2,1,60,0,0
36453,-111.111111111111,4,2,1,65,0,0
44237,-333.333333333333,4,2,1,30,0,0
45534,-250,4,2,1,30,0,0
46183,-250,4,2,1,30,0,0
46831,-83.3333333333333,4,2,1,80,0,1
48453,-71.4285714285714,4,2,1,80,0,1
49101,-58.8235294117647,4,2,1,80,0,1
49426,-83.3333333333333,4,2,1,80,0,1
51047,-71.4285714285714,4,2,1,80,0,1
51696,-58.8235294117647,4,2,1,80,0,1
52345,-83.3333333333333,4,2,1,80,0,1
54615,-71.4285714285714,4,2,1,80,0,1
57210,-83.3333333333333,4,2,1,80,0,1
58831,-71.4285714285714,4,2,1,80,0,1
59480,-58.8235294117647,4,2,1,80,0,1
59804,-100,4,2,1,80,0,1
60128,-83.3333333333333,4,2,1,80,0,1
61426,-71.4285714285714,4,2,1,80,0,1
62074,-58.8235294117647,4,2,1,80,0,1
62723,-83.3333333333333,4,2,1,80,0,1
64993,-66.6666666666667,4,2,1,80,0,1
67588,-133.333333333333,4,2,1,60,0,0
70183,-125,4,2,1,60,0,0
88507,-250,4,2,1,60,0,0
88993,-166.666666666667,4,2,1,60,0,0
90939,-100,4,2,1,65,0,0
96128,-83.3333333333333,4,2,1,65,0,0
98723,-83.3333333333333,4,2,1,65,0,0
99047,-125,4,2,1,65,0,0
99372,-83.3333333333333,4,2,1,65,0,0
99696,-100,4,2,1,65,0,0
101318,-83.3333333333333,4,2,1,80,0,1
102938,-71.4285714285714,4,2,1,80,0,1
103586,-58.8235294117647,4,2,1,80,0,1
103911,-83.3333333333333,4,2,1,80,0,1
105532,-71.4285714285714,4,2,1,80,0,1
106181,-58.8235294117647,4,2,1,80,0,1
106830,-83.3333333333333,4,2,1,80,0,1
109100,-71.4285714285714,4,2,1,80,0,1
111695,-83.3333333333333,4,2,1,80,0,1
113316,-71.4285714285714,4,2,1,80,0,1
113965,-58.8235294117647,4,2,1,80,0,1
114289,-100,4,2,1,80,0,1
114613,-83.3333333333333,4,2,1,80,0,1
115911,-71.4285714285714,4,2,1,80,0,1
116559,-58.8235294117647,4,2,1,80,0,1
117208,-83.3333333333333,4,2,1,80,0,1
119478,-66.6666666666667,4,2,1,80,0,1
124669,-66.6666666666667,4,2,1,80,0,0
124750,-66.6666666666667,4,2,1,5,0,0
129858,-133.333333333333,4,2,1,50,0,0
135047,-83.3333333333333,4,2,1,70,0,0
135696,-66.6666666666667,4,2,1,70,0,0
135858,-83.3333333333333,4,2,1,70,0,0
136993,-142.857142857143,4,2,1,70,0,0
137318,-83.3333333333333,4,2,1,70,0,0
138291,-66.6666666666667,4,2,1,70,0,0
138453,-83.3333333333333,4,2,1,70,0,0
138777,-142.857142857143,4,2,1,70,0,0
138939,-83.3333333333333,4,2,1,70,0,0
139912,-50,4,2,1,70,0,0
140237,-83.3333333333333,4,2,1,70,0,0
140885,-83.3333333333333,4,2,1,70,0,0
142507,-142.857142857143,4,2,1,70,0,0
143318,-100,4,2,1,70,0,0
143804,-76.9230769230769,4,2,1,70,0,0
144128,-62.5,4,2,1,70,0,0
145101,-125,4,2,1,70,0,0
145426,-83.3333333333333,4,2,1,75,0,0
146074,-66.6666666666667,4,2,1,75,0,0
146399,-100,4,2,1,75,0,0
146885,-83.3333333333333,4,2,1,75,0,0
148020,-83.3333333333333,4,2,1,75,0,0
148669,-66.6666666666667,4,2,1,75,0,0
148831,-83.3333333333333,4,2,1,75,0,0
150291,-166.666666666667,4,2,1,75,0,0
150615,-71.4285714285714,4,2,1,75,0,0
151264,-83.3333333333333,4,2,1,75,0,0
151750,-100,4,2,1,75,0,0
152074,-83.3333333333333,4,2,1,75,0,0
153210,-100,4,2,1,75,0,0
153858,-83.3333333333333,4,2,1,75,0,0
154507,-71.4285714285714,4,2,1,75,0,0
155480,-66.6666666666667,4,2,1,75,0,0
163588,-66.6666666666667,4,2,1,70,0,0
163912,-100,4,2,1,70,0,0
164885,-83.3333333333333,4,2,1,70,0,0
166183,-83.3333333333333,4,2,1,80,0,1
172507,-100,4,2,1,80,0,1
173318,-83.3333333333333,4,2,1,80,0,1
176559,-83.3333333333333,4,2,1,80,0,1
178181,-71.4285714285714,4,2,1,80,0,1
178829,-58.8235294117647,4,2,1,80,0,1
179154,-83.3333333333333,4,2,1,80,0,1
180775,-71.4285714285714,4,2,1,80,0,1
181424,-58.8235294117647,4,2,1,80,0,1
181750,-83.3333333333333,4,2,1,80,0,1
182073,-83.3333333333333,4,2,1,80,0,1
184343,-71.4285714285714,4,2,1,80,0,1
186938,-83.3333333333333,4,2,1,80,0,1
188559,-71.4285714285714,4,2,1,80,0,1
189208,-58.8235294117647,4,2,1,80,0,1
189532,-100,4,2,1,80,0,1
189856,-83.3333333333333,4,2,1,80,0,1
191154,-71.4285714285714,4,2,1,80,0,1
191802,-58.8235294117647,4,2,1,80,0,1
192451,-83.3333333333333,4,2,1,80,0,1
194721,-66.6666666666667,4,2,1,80,0,1
198939,-66.6666666666667,4,2,1,85,0,1
199264,-66.6666666666667,4,2,1,90,0,1
199588,-66.6666666666667,4,2,1,95,0,1
199912,-125,4,2,1,60,0,0
204128,-250,4,2,1,60,0,0

[Colours]
Combo1 : 187,34,187
Combo2 : 98,174,157
Combo3 : 186,44,118
Combo4 : 63,166,177

[HitObjects]
7,249,129,6,0,P|35:222|70:153,1,94.499997116089,0|0,1:0|0:0,0:0:0:0:
7,249,453,1,8,0:0:0:0:
68,301,615,1,0,1:0:0:0:
54,380,777,1,0,1:0:0:0:
54,380,1101,1,8,0:0:0:0:
71,304,1264,1,0,1:0:0:0:
144,272,1426,2,0,P|152:309|195:374,1,94.499997116089,0|0,1:0|0:0,0:0:0:0:
262,330,1750,2,0,P|299:341|376:337,1,94.499997116089,8|0,0:0|0:0,0:0:0:0:
262,330,2074,1,0,1:0:0:0:
144,272,2237,1,10,0:0:0:0:
179,357,2399,1,0,1:0:0:0:
227,244,2561,1,10,0:0:0:0:
93,163,2723,6,0,P|64:136|29:67,1,94.499997116089,0|0,1:0|0:0,0:0:0:0:
93,163,3047,1,8,0:0:0:0:
137,97,3210,1,0,1:0:0:0:
216,103,3372,1,0,1:0:0:0:
216,103,3696,1,8,0:0:0:0:
290,188,3858,1,0,1:0:0:0:
395,163,4020,2,0,P|432:151|509:155,1,94.499997116089,0|0,1:0|0:0,0:0:0:0:
512,75,4345,2,0,P|469:54|375:56,1,125.999996154785,8|0,0:0|0:0,0:0:0:0:
391,51,4831,5,8,0:0:0:0:
378,41,4912,1,8,0:0:0:0:
373,25,4993,1,8,0:0:0:0:
448,0,5156,1,8,0:0:0:0:
349,274,5318,6,0,P|291:271|201:226,1,148.50000453186,4|0,1:0|0:0,0:0:0:0:
385,206,5642,1,8,0:0:0:0:
349,274,5804,1,0,3:0:0:0:
164,66,5966,5,0,1:0:0:0:
191,0,6128,1,0,1:0:0:0:
261,18,6291,2,0,P|280:63|280:108,1,80.9999975280763,8|0,0:0|3:0,0:0:0:0:
245,163,6534,5,0,3:0:0:0:
235,167,6615,2,0,L|137:142,1,80.9999975280763,2|0,1:2|1:0,0:0:0:0:
418,341,6939,2,0,L|339:361,1,80.9999975280763,10|0,0:2|0:0,0:0:0:0:
458,197,7264,5,0,1:0:0:0:
461,186,7426,1,2,1:2:0:0:
266,312,7588,1,8,0:0:0:0:
269,301,7750,1,2,3:0:0:0:
160,80,7912,6,0,P|102:83|12:128,1,148.50000453186,4|0,1:0|0:0,0:0:0:0:
208,143,8237,1,8,0:0:0:0:
160,80,8399,1,0,3:0:0:0:
74,333,8561,5,0,1:0:0:0:
151,339,8723,1,0,1:0:0:0:
166,260,8885,2,0,P|156:219|134:180,1,80.9999975280763,8|0,0:0|3:0,0:0:0:0:
92,117,9128,5,0,3:0:0:0:
87,108,9210,2,0,L|99:23,1,80.9999975280763,2|0,1:2|1:0,0:0:0:0:
309,266,9534,2,0,L|321:181,1,80.9999975280763,10|0,0:2|3:0,0:0:0:0:
214,379,9858,5,0,1:0:0:0:
214,379,10183,2,0,L|142:364,1,40.4999987640381,10|0,0:0|0:0,0:0:0:0:
48,248,10345,1,8,0:0:0:0:
74,207,10426,1,8,0:0:0:0:
121,218,10507,6,0,P|133:242|138:280,1,53.9999983520508,4|0,1:0|0:0,0:0:0:0:
27,384,10669,2,0,P|15:360|10:322,1,53.9999983520508,0|0,1:0|0:0,0:0:0:0:
196,187,10831,1,8,0:0:0:0:
217,262,10993,1,0,3:0:0:0:
6,140,11156,1,0,1:0:0:0:
27,65,11318,1,0,1:0:0:0:
102,53,11480,2,0,P|127:93|132:138,1,80.9999975280763,8|0,0:0|3:0,0:0:0:0:
92,193,11723,5,0,3:0:0:0:
87,203,11804,2,0,L|4:225,1,80.9999975280763,2|0,1:2|1:0,0:0:0:0:
273,352,12128,2,0,L|190:374,1,80.9999975280763,10|0,0:0|0:0,0:0:0:0:
337,130,12453,5,0,1:0:0:0:
332,117,12615,1,2,1:2:0:0:
192,287,12777,1,8,0:0:0:0:
197,274,12939,1,2,3:0:0:0:
444,384,13101,5,4,1:0:0:0:
508,347,13264,1,0,1:0:0:0:
221,196,13426,2,0,P|201:158|191:83,1,99.0000030212403,8|0,0:0|1:0,0:0:0:0:
444,384,13750,5,0,1:0:0:0:
485,265,13912,1,0,1:0:0:0:
193,106,14074,2,0,P|164:146|145:222,1,116.999994644165,8|0,0:0|1:0,0:0:0:0:
444,384,14399,5,0,1:2:0:0:
361,183,14561,1,0,1:0:0:0:
148,213,14723,2,0,P|118:162|103:78,1,135.000005149842,8|0,0:2|1:0,0:0:0:0:
147,22,14966,5,0,3:0:0:0:
150,17,15047,2,0,B|159:7|159:7|207:-2,3,53.9999983520508,2|2|2|2,0:0|0:0|0:0|0:0,0:0:0:0:
107,92,15696,6,0,P|57:91|-10:56,1,108,2|0,1:2|0:2,0:2:0:0:
107,92,16020,1,10,0:2:0:0:
158,171,16183,1,0,1:2:0:0:
236,139,16345,2,0,P|248:101|245:64,1,72,2|0,1:2|0:2,0:2:0:0:
158,171,16669,1,10,0:2:0:0:
236,139,16831,1,0,1:2:0:0:
359,235,16993,6,0,P|390:278|436:306,1,108,2|0,1:2|0:2,0:2:0:0:
509,273,17318,1,10,0:2:0:0:
506,196,17480,1,2,0:2:0:0:
497,189,17561,1,0,0:2:0:0:
487,186,17642,1,0,1:2:0:0:
435,307,17804,1,8,0:2:0:0:
512,276,17966,1,2,1:2:0:0:
394,167,18128,1,10,0:2:0:0:
253,248,18291,6,0,P|227:200|222:147,1,108,2|0,1:2|0:2,0:2:0:0:
253,248,18615,1,10,0:2:0:0:
323,297,18777,1,0,1:2:0:0:
274,362,18939,2,0,P|239:380|201:384,1,72,2|0,1:2|0:2,0:2:0:0:
323,297,19264,1,10,0:2:0:0:
274,362,19426,1,0,1:2:0:0:
427,272,19588,6,0,P|452:224|457:171,1,108,2|0,1:2|0:2,0:2:0:0:
407,107,19912,1,10,0:2:0:0:
327,133,20074,2,0,P|332:168|349:199,1,72,2|0,0:2|1:2,0:2:0:0:
349,199,20399,5,8,0:2:0:0:
344,220,20480,1,8,0:2:0:0:
325,230,20561,1,8,0:2:0:0:
252,199,20723,1,10,0:2:0:0:
114,333,20885,6,0,P|72:347|19:387,1,108,2|0,1:2|0:2,0:2:0:0:
114,333,21210,1,10,0:2:0:0:
179,384,21372,1,0,1:2:0:0:
252,346,21534,2,0,P|263:307|258:262,1,72,2|0,1:2|0:2,0:2:0:0:
179,384,21858,1,10,0:2:0:0:
252,346,22020,1,0,1:2:0:0:
105,227,22183,6,0,P|84:193|65:117,1,108,2|0,1:2|0:2,0:2:0:0:
0,81,22507,2,0,P|11:39|34:9,1,72,10|0,0:2|0:2,0:2:0:0:
142,106,22831,1,2,1:2:0:0:
27,15,22993,1,8,0:2:0:0:
0,81,23156,1,2,1:2:0:0:
146,13,23318,1,10,0:2:0:0:
219,170,23480,5,0,1:2:0:0:
219,170,23804,5,8,0:2:0:0:
294,210,23966,1,0,1:2:0:0:
335,135,24128,1,0,1:2:0:0:
335,135,24453,5,8,0:2:0:0:
369,251,24615,1,0,1:2:0:0:
253,286,24777,1,0,1:2:0:0:
253,286,25101,5,8,0:2:0:0:
398,363,25426,5,0,1:2:0:0:
476,219,25588,5,8,0:2:0:0:
484,199,25669,1,8,0:2:0:0:
481,177,25750,1,8,0:2:0:0:
407,150,25912,1,10,0:2:0:0:
300,5,26074,6,0,P|330:48|342:117,1,108,2|0,1:2|0:2,0:2:0:0:
300,5,26399,1,10,0:2:0:0:
167,53,26561,1,0,1:2:0:0:
219,5,26723,2,0,P|205:33|172:60,1,72,2|0,1:2|0:2,0:2:0:0:
342,101,27047,1,10,0:2:0:0:
219,5,27210,1,0,1:2:0:0:
327,191,27372,6,0,P|384:172|442:124,1,108,2|0,1:2|0:2,0:2:0:0:
504,124,27696,2,0,P|516:65|503:-9,1,108,10|0,0:2|0:2,0:2:0:0:
504,124,28020,1,2,1:2:0:0:
460,231,28183,1,8,0:2:0:0:
330,194,28345,1,0,1:2:0:0:
460,231,28507,1,10,0:2:0:0:
331,355,28669,5,2,1:2:0:0:
348,274,28831,2,0,P|305:265|252:237,1,72,2|8,0:2|0:2,0:2:0:0:
415,373,29156,1,2,1:2:0:0:
415,373,29318,1,0,1:2:0:0:
279,254,29480,2,0,P|272:289|259:322,1,72,2|8,0:2|0:2,0:2:0:0:
139,380,29804,5,2,1:2:0:0:
128,377,29885,1,0,0:2:0:0:
117,374,29966,1,0,1:2:0:0:
254,316,30128,2,0,P|260:351|273:384,1,72,2|8,0:2|0:2,0:2:0:0:
126,273,30453,2,0,P|161:267|194:254,1,72,2|0,0:2|1:2,0:2:0:0:
194,253,30777,5,8,0:2:0:0:
210,238,30858,1,8,0:2:0:0:
208,216,30939,1,8,0:2:0:0:
146,164,31101,1,10,0:2:0:0:
34,357,31264,6,0,P|11:311|6:235,1,108,2|0,1:2|0:2,0:2:0:0:
34,357,31588,1,10,0:2:0:0:
126,239,31750,1,0,1:2:0:0:
58,193,31912,2,0,P|35:161|22:118,1,72,2|0,1:2|0:2,0:2:0:0:
4,255,32237,1,10,0:2:0:0:
149,310,32399,1,0,1:2:0:0:
225,162,32561,6,0,P|267:145|326:101,1,108,2|0,1:2|0:2,0:2:0:0:
360,36,32885,2,0,P|395:63|463:92,1,108,10|0,0:2|0:2,0:2:0:0:
360,36,33210,1,2,1:2:0:0:
370,174,33372,1,10,0:2:0:0:
225,162,33534,1,0,1:2:0:0:
370,174,33696,1,10,0:2:0:0:
167,102,33858,6,0,P|147:56|137:-13,1,108,0|0,1:2|0:2,0:2:0:0:
167,102,34183,5,8,0:2:0:0:
253,81,34345,1,0,1:2:0:0:
228,3,34507,1,0,1:2:0:0:
228,3,34669,2,0,L|291:12,1,36,2|0,0:2|0:2,0:2:0:0:
311,135,34831,5,8,0:2:0:0:
255,240,34993,1,0,1:2:0:0:
146,174,35155,1,0,1:2:0:0:
146,174,35318,2,0,L|139:227,1,36,2|0,0:2|0:2,0:2:0:0:
72,74,35480,6,0,P|36:64|-6:41,1,72,8|0,0:2|0:2,0:2:0:0:
206,43,35804,5,0,1:2:0:0:
67,187,35966,5,8,0:2:0:0:
52,202,36047,1,8,0:2:0:0:
30,206,36128,1,8,0:2:0:0:
0,137,36291,1,8,0:2:0:0:
156,302,36453,5,0,1:2:0:0:
226,282,36615,2,0,P|244:240|241:172,1,80.9999975280763,2|8,0:2|0:2,0:2:0:0:
115,380,36939,1,2,1:2:0:0:
246,204,37101,2,0,P|219:258|173:296,1,121.499996292114,2|0,1:2|0:2,0:2:0:0:
156,302,37426,1,10,0:2:0:0:
322,338,37588,2,0,P|271:371|212:381,1,121.499996292114,2|0,1:2|0:2,0:2:0:0:
195,377,37913,1,2,0:2:0:0:
95,251,38074,1,10,0:2:0:0:
156,302,38237,1,0,0:2:0:0:
142,321,38318,1,0,0:2:0:0:
118,328,38399,5,2,1:1:0:0:
28,197,38561,1,8,0:2:0:0:
11,299,38723,1,2,1:1:0:0:
119,143,38885,1,8,0:2:0:0:
268,253,39047,5,2,1:2:0:0:
324,201,39210,2,0,P|369:215|407:247,1,80.9999975280763,2|8,0:2|0:2,0:2:0:0:
200,214,39534,1,2,1:2:0:0:
395,234,39696,2,0,P|368:178|325:133,1,121.499996292114,2|0,1:2|0:2,0:2:0:0:
314,129,40020,1,10,0:2:0:0:
286,384,40183,2,0,P|290:322|275:262,1,121.499996292114,2|0,1:2|0:2,0:2:0:0:
268,252,40507,1,2,0:2:0:0:
462,375,40669,2,0,P|485:339|497:298,1,80.9999975280763,10|0,0:2|0:2,0:2:0:0:
434,119,40993,2,0,P|453:109|468:94,1,40.4999987640381,2|0,1:1|0:2,0:2:0:0:
464,16,41156,5,8,0:2:0:0:
444,1,41237,1,8,0:2:0:0:
420,5,41318,1,10,0:2:0:0:
466,96,41480,1,8,0:2:0:0:
291,202,41642,5,2,1:2:0:0:
228,172,41804,2,0,P|211:124|221:57,1,80.9999975280763,2|8,0:2|0:2,0:2:0:0:
323,283,42128,1,2,1:2:0:0:
211,95,42290,2,0,P|232:151|273:194,1,121.499996292114,2|0,1:2|0:2,0:2:0:0:
291,202,42615,1,10,0:2:0:0:
267,18,42777,2,0,P|313:56|371:72,1,121.499996292114,2|0,1:2|0:2,0:2:0:0:
300,82,43101,2,0,P|340:88|380:78,1,80.9999975280763,2|8,0:2|0:2,0:2:0:0:
264,9,43426,1,2,0:2:0:0:
142,181,43588,5,2,1:1:0:0:
300,82,43750,1,8,0:2:0:0:
309,160,43912,1,2,1:1:0:0:
129,9,44074,1,8,0:2:0:0:
182,62,44237,6,0,L|188:94,3,26.9999991760254,0|0|0|0,3:0|3:0|3:0|3:0,0:0:0:0:
189,91,44885,2,0,L|184:64,3,26.9999991760254,0|0|0|0,3:0|3:0|3:0|3:0,0:0:0:0:
172,43,45534,6,0,L|166:79,3,36,0|0|0|0,3:0|3:0|3:0|3:0,0:0:0:0:
93,59,46183,2,0,L|99:23,3,36,8|8|4|4,3:0|3:0|3:0|3:0,3:0:0:0:
29,198,46831,6,0,P|86:229|152:337,1,161.999995056153,4|0,1:0|0:0,0:0:0:0:
218,384,47156,2,0,P|218:346|252:281,1,107.999996704102,8|0,0:0|0:0,0:0:0:0:
142,305,47480,1,0,1:0:0:0:
218,384,47642,1,0,1:0:0:0:
337,148,47804,2,0,P|281:181|155:185,1,161.999995056153,8|0,0:0|3:0,0:0:0:0:
125,138,48128,5,0,1:0:0:0:
78,1,48291,1,0,1:0:0:0:
0,271,48453,2,0,P|77:218|125:137,1,188.999994232178,8|0,0:0|0:0,0:0:0:0:
141,59,48777,1,0,1:0:0:0:
0,14,48939,1,0,1:0:0:0:
282,102,49101,2,0,P|228:102|135:53,1,153.000002918243,8|0,0:0|3:0,0:0:0:0:
81,13,49345,5,0,3:0:0:0:
78,1,49426,2,0,L|50:143,1,107.999996704102,4|0,1:0|0:0,0:0:0:0:
327,327,49750,2,0,L|306:221,1,107.999996704102,8|0,0:0|0:0,0:0:0:0:
267,384,50074,1,0,1:0:0:0:
327,327,50237,1,0,1:0:0:0:
162,147,50399,2,0,P|211:189|334:215,1,161.999995056153,8|0,0:0|3:0,0:0:0:0:
367,174,50723,5,0,1:0:0:0:
423,59,50885,1,0,1:0:0:0:
470,325,51047,2,0,P|401:258|366:169,1,188.999994232178,8|0,0:0|0:0,0:0:0:0:
361,98,51372,1,0,1:0:0:0:
501,164,51534,1,0,1:0:0:0:
271,22,51696,2,0,P|300:27|356:9,1,76.5000014591217,8|0,0:0|0:0,0:0:0:0:
506,18,51858,5,8,0:0:0:0:
463,0,51939,1,8,0:0:0:0:
434,36,52020,1,4,1:0:0:0:
489,90,52183,1,0,1:0:0:0:
370,281,52345,6,0,P|332:311|203:341,1,161.999995056153,8|0,0:0|0:0,0:0:0:0:
160,294,52669,1,0,1:0:0:0:
187,173,52831,1,0,1:0:0:0:
374,290,52993,2,0,L|389:172,1,107.999996704102,8|0,0:0|3:0,0:0:0:0:
349,97,53237,5,0,3:0:0:0:
347,86,53318,1,0,1:0:0:0:
237,260,53480,1,0,1:0:0:0:
73,111,53642,2,0,L|58:-7,1,107.999996704102,8|0,0:0|0:0,0:0:0:0:
37,338,53966,5,0,1:0:0:0:
224,148,54128,1,2,1:2:0:0:
6,152,54291,5,8,0:0:0:0:
249,269,54453,1,2,3:0:0:0:
0,143,54615,6,0,P|84:157|139:200,1,125.999996154785,4|0,1:2|1:0,0:0:0:0:
395,26,54939,2,0,P|340:91|275:117,1,125.999996154785,12|0,0:0|1:0,0:0:0:0:
187,43,55264,5,2,1:0:0:0:
225,192,55426,1,2,1:0:0:0:
269,384,55588,2,0,P|239:304|249:235,1,125.999996154785,10|0,0:0|1:0,0:0:0:0:
395,26,55912,6,0,P|340:91|275:117,1,125.999996154785,4|0,1:2|1:0,0:0:0:0:
58,157,56237,5,12,0:0:0:0:
229,196,56399,1,0,1:0:0:0:
425,229,56561,2,0,P|407:209|373:191,1,62.9999980773926,2|0,1:0|0:0,0:0:0:0:
229,196,56723,5,8,0:0:0:0:
202,222,56804,1,8,0:0:0:0:
204,259,56885,1,8,0:0:0:0:
432,132,57047,5,8,0:0:0:0:
383,102,57128,1,8,0:0:0:0:
331,115,57210,6,0,P|395:75|493:71,1,161.999995056153,4|0,1:0|0:0,0:0:0:0:
323,124,57534,2,0,P|281:102|249:50,1,107.999996704102,8|0,0:0|0:0,0:0:0:0:
512,162,57858,1,0,1:0:0:0:
479,68,58020,1,0,1:0:0:0:
338,331,58183,2,0,P|373:258|371:178,1,161.999995056153,8|0,0:0|3:0,0:0:0:0:
323,124,58507,5,0,1:0:0:0:
194,86,58669,1,0,1:0:0:0:
372,1,58831,2,0,P|326:84|247:137,1,188.999994232178,8|0,0:0|0:0,0:0:0:0:
194,86,59156,1,0,1:0:0:0:
311,41,59318,1,0,1:0:0:0:
193,300,59480,2,0,P|187:223|147:158,1,153.000002918243,8|0,0:0|3:0,0:0:0:0:
73,130,59723,5,0,3:0:0:0:
66,125,59804,2,0,L|-26:112,1,90,4|0,1:0|0:0,0:0:0:0:
325,366,60128,2,0,L|212:381,1,107.999996704102,8|0,0:0|0:0,0:0:0:0:
371,285,60453,1,0,1:0:0:0:
325,366,60615,1,0,1:0:0:0:
155,174,60777,2,0,P|212:210|322:226,1,161.999995056153,8|0,0:0|3:0,0:0:0:0:
345,158,61101,5,0,1:0:0:0:
374,288,61264,1,0,1:0:0:0:
479,111,61426,2,0,P|444:124|408:123,1,62.9999980773926,8|0,0:0|0:0,0:0:0:0:
430,5,61588,2,0,P|407:33|375:51,1,62.9999980773926,8|0,0:0|0:0,0:0:0:0:
479,111,61750,1,0,1:0:0:0:
401,214,61912,1,0,1:0:0:0:
170,26,62074,2,0,P|185:55|229:90,1,76.5000014591217,8|0,0:0|0:0,0:0:0:0:
306,95,62237,5,8,0:0:0:0:
311,49,62318,1,8,0:0:0:0:
274,20,62399,1,4,1:0:0:0:
217,84,62561,1,0,1:0:0:0:
46,0,62723,6,0,P|9:74|5:190,1,161.999995056153,8|0,0:0|0:0,0:0:0:0:
36,219,63047,1,0,1:0:0:0:
167,186,63210,1,0,1:0:0:0:
38,0,63372,2,0,L|160:27,1,107.999996704102,8|0,0:0|3:0,0:0:0:0:
220,21,63615,5,0,3:0:0:0:
231,15,63696,1,0,1:0:0:0:
76,150,63858,1,0,1:0:0:0:
217,318,64020,2,0,L|339:291,1,107.999996704102,8|0,0:0|0:0,0:0:0:0:
57,368,64345,5,0,1:0:0:0:
177,171,64507,1,2,1:2:0:0:
178,384,64669,5,8,0:0:0:0:
71,157,64831,1,10,0:0:0:0:
44,137,64912,1,10,0:0:0:0:
13,147,64993,6,0,P|61:205|127:221,1,135.000005149842,4|0,1:2|1:0,0:0:0:0:
383,26,65318,2,0,P|308:38|261:87,1,135.000005149842,12|0,0:2|1:0,0:0:0:0:
280,364,65642,5,2,1:0:0:0:
116,221,65804,1,2,1:0:0:0:
266,77,65966,2,0,P|316:33|383:26,1,135.000005149842,10|0,0:2|1:0,0:0:0:0:
280,364,66291,6,0,P|307:293|288:227,1,135.000005149842,4|0,1:2|1:0,0:0:0:0:
88,18,66615,2,0,P|135:76|202:93,1,135.000005149842,12|0,0:2|1:0,0:0:0:0:
266,77,66858,1,0,3:0:0:0:
269,64,66939,1,2,1:0:0:0:
500,216,67101,5,8,0:0:0:0:
497,229,67182,1,8,0:0:0:0:
494,242,67264,1,8,0:0:0:0:
449,263,67345,1,8,0:0:0:0:
400,252,67426,1,8,0:0:0:0:
368,215,67507,1,8,0:0:0:0:
369,166,67588,6,0,P|390:127|395:62,1,101.250003862381,0|0,1:0|0:0,0:0:0:0:
369,166,67912,1,8,0:0:0:0:
290,176,68074,1,0,1:0:0:0:
242,113,68237,1,0,1:0:0:0:
242,113,68561,1,8,0:0:0:0:
293,179,68724,1,0,1:0:0:0:
262,257,68885,1,0,1:0:0:0:
262,257,70020,1,2,0:2:0:0:
415,356,70183,6,0,P|463:333|510:283,1,108,2|0,1:2|0:2,0:2:0:0:
415,356,70507,1,10,0:2:0:0:
350,292,70669,1,0,1:2:0:0:
277,343,70831,2,0,P|259:305|268:256,1,72,2|0,1:2|0:2,0:2:0:0:
350,292,71156,1,10,0:2:0:0:
277,343,71318,1,0,1:2:0:0:
184,185,71480,6,0,P|141:172|67:124,1,108,2|0,1:2|0:2,0:2:0:0:
71,65,71804,1,10,0:2:0:0:
142,28,71966,1,2,0:2:0:0:
150,21,72047,1,0,0:2:0:0:
156,12,72128,1,0,1:2:0:0:
86,140,72291,1,8,0:2:0:0:
74,68,72453,1,0,1:2:0:0:
184,185,72615,1,8,0:2:0:0:
18,261,72777,5,2,1:2:0:0:
82,313,72939,2,0,P|92:272|108:235,1,72,2|8,0:2|0:2,0:2:0:0:
9,347,73264,1,2,1:2:0:0:
9,347,73426,1,0,1:2:0:0:
103,244,73588,2,0,P|144:254|181:270,1,72,2|8,0:2|0:2,0:2:0:0:
300,362,73912,5,2,1:2:0:0:
310,358,73993,1,0,0:2:0:0:
320,354,74074,1,0,1:2:0:0:
171,265,74237,2,0,P|212:255|249:239,1,72,2|8,0:2|0:2,0:2:0:0:
110,384,74561,2,0,P|100:343|84:306,1,72,2|0,0:2|1:2,0:2:0:0:
88,315,74885,5,8,0:2:0:0:
73,300,74966,1,8,0:2:0:0:
52,292,75047,1,8,0:2:0:0:
5,355,75210,1,8,0:2:0:0:
143,193,75372,6,0,P|154:145|182:86,1,108,2|0,1:2|0:2,0:2:0:0:
143,193,75696,1,10,0:2:0:0:
55,214,75858,1,0,1:2:0:0:
12,138,76020,2,0,P|8:113|-17:65,1,72,2|0,1:2|0:2,0:2:0:0:
55,214,76345,1,10,0:2:0:0:
12,138,76507,1,0,1:2:0:0:
138,26,76669,6,0,P|177:46|260:60,1,108,2|0,1:2|0:2,0:2:0:0:
271,133,76993,2,0,P|297:131|344:114,1,72,10|0,0:2|0:2,0:2:0:0:
282,0,77318,1,2,1:2:0:0:
340,116,77480,1,10,0:2:0:0:
271,133,77642,1,0,1:2:0:0:
400,24,77804,1,10,0:2:0:0:
493,165,77966,5,0,1:2:0:0:
493,165,78291,5,8,0:2:0:0:
411,140,78453,1,0,1:2:0:0:
385,221,78615,1,0,1:2:0:0:
385,221,78940,5,8,0:2:0:0:
330,114,79102,1,0,1:2:0:0:
437,57,79264,1,0,1:2:0:0:
437,57,79588,5,8,0:2:0:0:
280,9,79913,5,0,1:2:0:0:
231,165,80075,5,8,0:2:0:0:
227,187,80156,1,8,0:2:0:0:
234,208,80237,1,8,0:2:0:0:
312,220,80399,1,10,0:2:0:0:
186,355,80561,6,0,P|146:344|80:286,1,108,2|0,1:2|0:2,0:2:0:0:
186,355,80885,1,10,0:2:0:0:
268,279,81047,1,0,1:2:0:0:
155,211,81210,2,0,P|165:245|188:272,1,72,2|0,1:2|0:2,0:2:0:0:
321,218,81534,1,10,0:2:0:0:
188,272,81696,1,0,1:2:0:0:
353,369,81858,6,0,P|362:322|391:262,1,108,2|0,1:2|0:2,0:2:0:0:
465,236,82183,1,10,0:2:0:0:
507,307,82345,1,2,0:2:0:0:
511,316,82426,1,0,0:2:0:0:
512,326,82507,1,0,1:2:0:0:
387,267,82669,1,8,0:2:0:0:
468,239,82831,1,2,1:2:0:0:
353,369,82993,1,10,0:2:0:0:
259,205,83156,6,0,P|243:155|223:118,1,72,2|0,1:2|0:2,0:2:0:0:
179,84,83399,1,2,0:2:0:0:
170,82,83480,1,8,0:2:0:0:
304,26,83642,1,2,1:2:0:0:
159,0,83804,1,0,1:2:0:0:
234,137,83966,2,0,P|284:121|321:101,1,72,2|8,0:2|0:2,0:2:0:0:
424,22,84291,5,2,1:2:0:0:
421,11,84372,1,0,0:2:0:0:
418,0,84453,1,0,1:2:0:0:
301,112,84615,2,0,P|351:128|388:148,1,72,2|8,0:2|0:2,0:2:0:0:
512,36,84939,2,0,P|497:68|487:103,1,72,2|0,0:2|1:2,0:2:0:0:
487,103,85264,5,8,0:2:0:0:
470,116,85345,1,8,0:2:0:0:
465,137,85426,1,8,0:2:0:0:
503,207,85588,1,10,0:2:0:0:
345,339,85750,6,0,P|335:298|322:269,1,72,2|0,1:2|0:0,0:0:0:0:
272,215,85993,1,2,0:0:0:0:
275,204,86074,1,8,0:0:0:0:
414,310,86237,1,2,1:2:0:0:
401,165,86399,1,0,1:2:0:0:
322,270,86561,2,0,P|290:287|256:297,1,72,2|8,0:2|0:2,0:2:0:0:
189,384,86885,6,0,P|152:364|120:356,1,72,2|0,1:2|1:2,0:2:0:0:
47,150,87210,2,0,P|27:186|19:218,1,72,2|8,0:2|0:2,0:2:0:0:
161,145,87534,1,2,0:2:0:0:
168,137,87615,1,0,0:2:0:0:
170,126,87696,1,0,1:2:0:0:
19,215,87858,1,10,0:2:0:0:
47,150,88020,1,0,1:2:0:0:
183,284,88183,1,10,0:2:0:0:
267,109,88345,5,0,3:0:0:0:
267,109,88507,2,0,L|259:78,2,18,0|0|0,3:0|3:0|3:0,3:0:0:0:
279,181,88831,1,0,3:0:0:0:
119,55,88993,6,0,L|79:47,1,26.9999991760254,2|0,3:0|3:0,3:0:0:0:
201,0,89156,1,0,3:0:0:0:
174,1,89237,1,0,3:0:0:0:
149,12,89318,1,0,3:0:0:0:
130,31,89399,1,0,3:0:0:0:
119,55,89480,6,0,L|79:47,1,26.9999991760254,2|0,3:0|3:0,3:0:0:0:
101,192,89642,1,0,3:0:0:0:
78,158,89723,1,0,3:0:0:0:
73,118,89804,1,0,3:0:0:0:
88,81,89885,1,0,3:0:0:0:
119,55,89966,6,0,L|79:47,1,26.9999991760254,2|0,3:0|3:0,3:0:0:0:
308,99,90128,1,0,3:0:0:0:
285,71,90209,1,0,3:0:0:0:
255,50,90290,1,0,3:0:0:0:
222,37,90371,1,0,3:0:0:0:
186,34,90452,1,0,3:0:0:0:
151,39,90533,1,0,3:0:0:0:
119,55,90615,6,0,L|79:47,1,26.9999991760254,2|0,3:0|3:0,3:0:0:0:
59,276,90777,1,0,3:0:0:0:
11,249,90858,1,0,3:0:0:0:
7,195,90939,5,2,1:2:0:0:
67,135,91101,2,0,P|116:146|160:175,1,90,2|8,0:2|0:2,0:2:0:0:
0,101,91426,1,2,1:2:0:0:
153,243,91588,2,0,P|121:183|71:138,1,135,2|0,1:2|0:2,0:2:0:0:
153,243,91912,1,10,0:2:0:0:
216,51,92074,2,0,P|237:116|234:183,1,135,2|0,1:2|0:2,0:2:0:0:
216,51,92399,1,2,0:2:0:0:
402,3,92561,1,10,0:2:0:0:
300,51,92723,1,0,3:2:0:0:
317,30,92804,1,0,3:2:0:0:
323,3,92885,5,2,1:1:0:0:
392,194,93047,1,8,0:2:0:0:
435,118,93210,1,2,1:1:0:0:
234,181,93372,1,8,0:2:0:0:
437,377,93534,5,2,1:2:0:0:
422,303,93696,2,0,P|380:286|336:281,1,90,2|8,0:2|0:2,0:2:0:0:
478,246,94020,1,2,1:2:0:0:
297,341,94183,2,0,P|359:314|425:305,1,135,2|0,1:2|0:2,0:2:0:0:
297,341,94507,1,10,0:2:0:0:
207,224,94669,1,8,3:3:0:0:
212,197,94750,1,4,3:3:0:0:
234,181,94831,1,0,1:2:0:0:
223,299,94993,1,0,1:2:0:0:
319,142,95156,5,8,0:2:0:0:
349,214,95318,1,0,1:2:0:0:
159,97,95480,5,2,1:1:0:0:
349,214,95642,1,8,0:2:0:0:
90,210,95804,5,2,1:1:0:0:
286,70,95966,1,8,0:2:0:0:
140,297,96128,5,2,1:2:0:0:
221,246,96291,2,0,B|259:280|259:280|245:346,1,107.999996704102,2|8,0:2|0:2,0:2:0:0:
80,219,96615,1,2,1:2:0:0:
185,384,96777,2,0,B|242:332|242:332|221:234,1,161.999995056153,2|0,1:2|0:2,0:2:0:0:
185,384,97101,1,10,0:2:0:0:
101,122,97264,2,0,B|75:203|75:203|0:219,1,161.999995056153,2|0,1:2|0:2,0:2:0:0:
108,169,97588,2,0,L|94:110,1,53.9999983520508,2|0,0:2|0:0,0:0:0:0:
12,329,97750,2,0,B|64:344|64:344|104:308,1,107.999996704102,10|0,0:2|3:2,0:2:0:0:
148,248,97993,5,0,3:2:0:0:
144,236,98074,1,2,1:1:0:0:
0,71,98237,1,8,0:2:0:0:
3,324,98399,5,2,1:1:0:0:
111,117,98561,1,8,0:2:0:0:
0,71,98723,5,0,1:2:0:0:
111,117,98885,1,0,1:2:0:0:
194,25,99047,2,0,B|171:-1|171:-1|129:3,1,72,8|0,0:2|1:2,0:2:0:0:
111,117,99372,1,0,1:2:0:0:
194,25,99534,1,0,1:2:0:0:
297,90,99696,2,0,B|301:136|301:136|268:165,1,90,8|0,0:2|1:2,0:2:0:0:
194,25,100020,5,8,0:2:0:0:
268,164,100183,1,0,1:2:0:0:
427,82,100345,1,8,0:2:0:0:
401,2,100507,1,8,0:0:0:0:
401,2,100588,1,8,0:0:0:0:
401,2,100669,5,8,3:0:0:0:
434,0,100750,1,8,3:0:0:0:
466,8,100831,1,8,3:0:0:0:
492,30,100912,1,8,3:0:0:0:
510,64,100993,5,4,3:0:0:0:
473,38,101075,1,4,3:0:0:0:
429,30,101156,1,4,3:0:0:0:
385,39,101237,1,4,3:0:0:0:
348,64,101318,6,0,P|322:117|309:226,1,161.999995056153,4|0,1:0|0:0,0:0:0:0:
396,297,101642,2,0,P|374:264|316:221,1,107.999996704102,8|0,0:0|0:0,0:0:0:0:
258,384,101966,1,0,1:0:0:0:
327,344,102128,1,0,1:0:0:0:
105,320,102291,2,0,P|163:316|264:272,1,161.999995056153,8|0,0:0|3:0,0:0:0:0:
308,218,102615,5,0,1:0:0:0:
327,344,102777,1,0,1:0:0:0:
195,155,102939,2,0,P|101:147|15:109,1,188.999994232178,8|0,0:0|0:0,0:0:0:0:
0,34,103264,1,0,1:0:0:0:
155,0,103426,1,0,1:0:0:0:
0,232,103588,2,0,P|44:202|103:122,1,153.000002918243,8|0,0:0|3:0,0:0:0:0:
85,27,103831,5,0,3:0:0:0:
78,18,103912,2,0,L|105:137,1,107.999996704102,4|0,1:0|0:0,0:0:0:0:
404,252,104237,2,0,L|431:371,1,107.999996704102,8|0,0:0|0:0,0:0:0:0:
331,200,104561,1,0,1:0:0:0:
404,252,104723,1,0,1:0:0:0:
498,37,104885,2,0,P|438:91|367:128,1,161.999995056153,8|0,0:0|3:0,0:0:0:0:
303,80,105210,5,0,1:0:0:0:
440,132,105372,1,0,1:0:0:0:
199,236,105534,2,0,P|262:165|302:79,1,188.999994232178,8|0,0:0|0:0,0:0:0:0:
256,13,105858,1,0,1:0:0:0:
98,54,106020,1,0,1:0:0:0:
377,83,106183,2,0,P|338:86|301:79,1,76.5000014591217,8|0,0:0|0:0,0:0:0:0:
98,54,106345,5,8,0:0:0:0:
129,20,106426,1,8,0:0:0:0:
172,34,106507,1,4,1:0:0:0:
194,111,106669,1,0,1:0:0:0:
41,346,106831,6,0,P|70:284|80:181,1,161.999995056153,8|0,0:0|0:0,0:0:0:0:
28,139,107156,1,0,1:0:0:0:
100,267,107318,1,0,1:0:0:0:
300,130,107480,2,0,L|182:108,1,107.999996704102,8|0,0:0|3:0,0:0:0:0:
119,95,107723,5,0,3:0:0:0:
108,92,107804,1,0,1:0:0:0:
290,46,107966,1,0,1:0:0:0:
388,230,108128,2,0,L|281:249,1,107.999996704102,8|0,0:0|0:0,0:0:0:0:
465,83,108453,5,0,1:0:0:0:
275,259,108615,1,2,1:2:0:0:
291,35,108777,5,8,0:0:0:0:
398,237,108939,1,2,3:0:0:0:
477,0,109101,6,0,P|411:26|376:94,1,125.999996154785,4|0,1:2|1:0,0:0:0:0:
215,329,109426,2,0,P|225:258|184:194,1,125.999996154785,12|0,0:0|1:0,0:0:0:0:
471,186,109750,5,2,1:0:0:0:
315,140,109912,1,2,1:0:0:0:
130,77,110074,2,0,P|185:121|261:117,1,125.999996154785,10|0,0:0|1:0,0:0:0:0:
477,0,110399,6,0,P|411:26|376:94,1,125.999996154785,4|0,1:2|1:0,0:0:0:0:
292,351,110723,5,12,0:0:0:0:
264,195,110885,1,0,1:0:0:0:
232,10,111047,2,0,P|259:33|274:74,1,62.9999980773926,2|0,1:0|0:0,0:0:0:0:
264,195,111210,5,8,0:0:0:0:
235,219,111291,1,8,0:0:0:0:
198,210,111372,1,8,0:0:0:0:
406,71,111534,5,8,0:0:0:0:
408,128,111615,1,8,0:0:0:0:
380,168,111696,2,0,P|353:117|251:51,1,161.999995056153,4|0,1:0|0:0,0:0:0:0:
376,177,112020,2,0,P|411:178|477:144,1,107.999996704102,8|0,0:0|0:0,0:0:0:0:
215,128,112345,1,0,1:0:0:0:
270,56,112507,1,0,1:0:0:0:
254,322,112669,2,0,P|257:241|295:171,1,161.999995056153,8|0,0:0|3:0,0:0:0:0:
376,177,112993,5,0,1:0:0:0:
332,299,113156,1,0,1:0:0:0:
118,45,113318,2,0,P|120:138|164:221,1,188.999994232178,8|0,0:0|0:0,0:0:0:0:
245,240,113642,5,0,1:0:0:0:
191,104,113804,1,0,1:0:0:0:
0,371,113966,2,0,P|40:305|103:266,1,153.000002918243,8|0,0:0|3:0,0:0:0:0:
164,221,114210,5,0,3:0:0:0:
171,229,114291,2,0,L|193:338,1,90,4|0,1:0|0:0,0:0:0:0:
1,20,114615,2,0,L|23:129,1,107.999996704102,8|0,0:0|0:0,0:0:0:0:
84,0,114939,1,0,1:0:0:0:
1,20,115101,1,0,1:0:0:0:
226,168,115264,2,0,P|275:140|356:53,1,161.999995056153,8|0,0:0|3:0,0:0:0:0:
307,0,115588,5,0,1:0:0:0:
334,146,115750,1,0,1:0:0:0:
133,24,115912,2,0,P|153:24|194:11,1,62.9999980773926,8|0,0:0|0:0,0:0:0:0:
107,104,116074,2,0,P|124:114|166:124,1,62.9999980773926,8|0,0:0|0:0,0:0:0:0:
133,24,116237,1,0,1:0:0:0:
237,188,116399,1,0,1:0:0:0:
415,109,116561,2,0,P|429:84|442:26,1,76.5000014591217,8|0,0:0|0:0,0:0:0:0:
291,3,116723,5,8,0:0:0:0:
258,35,116804,1,8,0:0:0:0:
275,77,116885,1,4,1:0:0:0:
351,70,117047,1,0,1:0:0:0:
473,270,117210,6,0,P|409:322|335:353,1,161.999995056153,8|0,0:0|0:0,0:0:0:0:
275,306,117534,1,0,1:0:0:0:
413,373,117696,1,0,1:0:0:0:
447,159,117858,2,0,L|479:262,1,107.999996704102,8|0,0:0|3:0,0:0:0:0:
504,339,118101,5,0,3:0:0:0:
508,351,118183,1,0,1:0:0:0:
356,193,118345,1,0,1:0:0:0:
194,322,118507,2,0,L|161:218,1,107.999996704102,8|0,0:0|0:0,0:0:0:0:
51,377,118831,5,0,1:0:0:0:
251,224,118993,1,2,1:2:0:0:
5,185,119156,5,8,0:0:0:0:
194,322,119318,1,10,0:0:0:0:
175,348,119399,1,10,0:0:0:0:
142,349,119480,6,0,P|134:283|161:220,1,135.000005149842,4|0,1:2|1:0,0:0:0:0:
421,25,119804,2,0,P|367:64|299:73,1,135.000005149842,12|0,0:2|1:0,0:0:0:0:
32,55,120128,5,2,1:0:0:0:
160,221,120291,1,2,1:0:0:0:
301,73,120453,2,0,P|367:65|421:25,1,135.000005149842,10|0,0:2|1:0,0:0:0:0:
133,134,120777,6,0,P|93:81|32:55,1,135.000005149842,4|0,1:2|0:0,0:0:0:0:
353,251,121101,2,0,P|326:312|334:378,1,135.000005149842,12|0,0:2|0:0,0:0:0:0:
420,25,121426,5,2,1:0:0:0:
354,254,121588,1,2,1:0:0:0:
133,134,121750,2,0,P|194:159|234:213,1,135.000005149842,10|0,0:0|0:0,0:0:0:0:
488,77,122074,5,4,1:2:0:0:
499,73,122237,1,0,1:0:0:0:
280,139,122399,5,12,0:2:0:0:
291,135,122561,1,0,1:0:0:0:
72,201,122723,5,2,1:0:0:0:
280,139,122885,1,2,1:0:0:0:
488,77,123047,2,0,P|435:117|368:125,1,135.000005149842,10|0,0:0|0:0,0:0:0:0:
63,28,123372,5,8,0:0:0:0:
108,7,123453,1,8,0:0:0:0:
157,14,123534,1,8,0:0:0:0:
195,46,123615,1,8,0:0:0:0:
209,94,123696,2,0,L|196:168,1,67.5000025749208,0|0,1:0|1:0,0:0:0:0:
210,321,123858,5,8,0:0:0:0:
243,285,123939,1,8,0:0:0:0:
253,236,124020,1,8,0:0:0:0:
236,190,124101,1,8,0:0:0:0:
197,160,124183,2,0,L|209:94,1,67.5000025749208,0|0,1:0|1:0,0:0:0:0:
4,182,124345,5,8,0:0:0:0:
24,115,124426,1,8,0:0:0:0:
77,70,124507,1,8,0:0:0:0:
146,62,124588,1,8,0:0:0:0:
209,94,124669,2,0,L|197:160,1,67.5000025749208,0|0,1:0|0:0,0:0:0:0:
197,160,129858,6,0,L|209:94,1,67.5000025749208,0|0,3:0|0:0,3:0:0:0:
179,232,130183,1,2,3:0:0:0:
197,160,130345,1,0,3:0:0:0:
197,160,130507,1,0,3:0:0:0:
168,312,130669,1,2,3:0:0:0:
186,240,130831,1,0,3:0:0:0:
186,240,130993,1,0,3:0:0:0:
206,169,131156,6,0,L|218:103,1,67.5000025749208,0|0,3:0|0:0,3:0:0:0:
270,237,131480,1,2,3:0:0:0:
206,169,131642,1,0,3:0:0:0:
206,169,131804,1,0,3:0:0:0:
337,314,131966,1,2,3:0:0:0:
277,244,132128,1,0,3:0:0:0:
277,244,132291,1,0,3:0:0:0:
216,178,132453,6,0,L|228:112,1,67.5000025749208,0|0,3:0|0:0,3:0:0:0:
116,260,132777,1,2,3:0:0:0:
216,178,132939,1,0,3:0:0:0:
216,178,133101,1,0,3:0:0:0:
33,344,133264,1,2,3:0:0:0:
122,266,133426,1,0,3:0:0:0:
122,266,133588,1,0,3:0:0:0:
33,344,133750,1,0,3:0:0:0:
33,344,135047,5,0,1:0:0:0:
2,306,135128,1,0,1:0:0:0:
6,257,135210,1,0,1:0:0:0:
161,95,135372,1,0,1:0:0:0:
123,126,135453,1,0,1:0:0:0:
78,119,135535,1,0,1:0:0:0:
78,119,135696,6,0,P|98:90|135:86,1,67.5000025749208,8|0,0:0|0:0,0:0:0:0:
210,249,135858,5,0,1:0:0:0:
161,256,135939,1,0,1:0:0:0:
121,228,136021,1,0,1:0:0:0:
121,228,136344,5,0,1:0:0:0:
141,272,136426,1,0,1:0:0:0:
187,290,136507,1,0,1:0:0:0:
187,290,136831,5,0,1:0:0:0:
138,297,136912,1,0,1:0:0:0:
98,269,136993,6,0,P|91:250|85:217,1,31.4999990386963,2|0,0:0|0:0,0:0:0:0:
12,263,137156,2,0,P|19:282|25:315,1,31.4999990386963,2|0,0:0|0:0,0:0:0:0:
49,66,137318,5,0,1:0:0:0:
56,115,137399,1,0,1:0:0:0:
28,155,137480,1,0,1:0:0:0:
186,88,137642,5,0,1:0:0:0:
190,39,137723,1,0,1:0:0:0:
159,0,137804,1,0,1:0:0:0:
272,262,137966,1,0,1:0:0:0:
321,266,138047,1,0,1:0:0:0:
360,235,138128,1,0,1:0:0:0:
360,235,138291,6,0,P|330:218|289:226,1,67.5000025749208,8|0,0:0|0:0,0:0:0:0:
186,88,138453,5,0,1:0:0:0:
207,132,138534,1,0,1:0:0:0:
253,150,138615,1,0,1:0:0:0:
253,150,138777,6,0,P|261:127|263:114,1,31.4999990386963,2|0,0:0|0:0,0:0:0:0:
407,15,138939,5,0,1:0:0:0:
379,54,139020,1,0,1:0:0:0:
386,103,139101,1,0,1:0:0:0:
425,132,139183,1,0,1:0:0:0:
473,124,139264,5,0,1:0:0:0:
435,154,139344,1,0,1:0:0:0:
387,149,139426,1,0,1:0:0:0:
356,110,139507,1,0,1:0:0:0:
361,62,139588,5,8,0:2:0:0:
380,106,139669,1,0,1:0:0:0:
427,124,139750,1,0,1:0:0:0:
471,104,139832,1,0,1:0:0:0:
488,59,139912,6,0,L|475:10,6,45,2|0|0|0|0|0|0,0:1|0:0|0:0|0:0|0:0|0:0|0:0,0:0:0:0:
508,198,140237,6,0,B|428:236|312:166|368:125|285:33|175:69,1,377.999988464356,0|0,1:0|0:0,0:0:0:0:
109,88,140885,5,8,0:0:0:0:
111,38,140966,1,0,1:0:0:0:
146,4,141047,1,0,1:0:0:0:
180,230,141210,1,0,1:0:0:0:
230,232,141291,1,0,1:0:0:0:
264,267,141372,1,0,1:0:0:0:
264,267,141696,5,0,1:0:0:0:
252,219,141777,1,0,1:0:0:0:
209,192,141858,1,0,1:0:0:0:
78,346,142020,5,0,1:0:0:0:
78,346,142101,1,0,1:0:0:0:
78,346,142183,2,0,P|83:317|77:279,1,53.9999983520508,8|0,0:0|0:0,0:0:0:0:
156,384,142345,2,0,P|175:362|189:325,1,53.9999983520508,0|0,1:0|0:0,0:0:0:0:
329,238,142507,6,0,P|342:233|357:221,1,31.4999990386963,0|0,1:0|0:0,0:0:0:0:
353,323,142669,1,0,1:0:0:0:
353,323,142750,1,0,1:0:0:0:
353,323,142831,6,0,P|367:325|386:322,1,31.4999990386963,8|0,0:0|0:0,0:0:0:0:
199,120,142993,1,0,1:0:0:0:
199,120,143156,1,0,1:0:0:0:
128,278,143318,6,0,P|106:288|82:293,1,45,8|0,0:0|0:0,0:0:0:0:
304,143,143480,1,0,1:0:0:0:
304,143,143642,1,0,1:0:0:0:
261,330,143804,6,0,P|268:354|288:384,1,58.4999973220826,8|0,0:0|0:0,0:0:0:0:
130,190,143966,1,0,1:0:0:0:
313,44,144128,6,0,P|355:32|397:-1,2,96,8|8|8,0:0|0:0|0:0,0:0:0:0:
130,190,144453,6,0,P|87:168|56:132,2,96,0|8|4,0:0|3:0|3:0,0:0:0:0:
261,330,144777,5,0,1:0:0:0:
325,288,144885,1,0,1:0:0:0:
256,253,144993,1,0,1:0:0:0:
282,291,145101,6,0,P|305:247|311:179,1,108,8|0,0:0|0:0,0:0:0:0:
263,113,145426,5,0,1:0:0:0:
272,161,145508,1,0,1:0:0:0:
312,189,145589,1,0,1:0:0:0:
496,277,145750,1,0,1:0:0:0:
448,286,145832,1,0,1:0:0:0:
420,326,145913,1,0,1:0:0:0:
420,326,146074,6,0,P|423:287|445:259,1,67.5000025749208,8|0,0:0|0:0,0:0:0:0:
432,87,146236,5,0,1:0:0:0:
480,91,146317,1,0,1:0:0:0:
512,128,146399,2,0,P|455:123|406:55,1,135,0|0,1:0|0:0,0:0:0:0:
318,41,146723,5,0,1:0:0:0:
328,92,146804,1,0,1:0:0:0:
301,138,146885,2,0,P|285:74|342:-1,1,161.999995056153,0|0,1:0|0:0,0:0:0:0:
219,28,147210,5,0,1:0:0:0:
170,55,147291,1,0,1:0:0:0:
114,43,147372,1,8,0:0:0:0:
165,19,147453,1,0,1:0:0:0:
219,28,147534,1,0,1:0:0:0:
258,254,147696,5,0,1:0:0:0:
213,214,147777,1,0,1:0:0:0:
205,155,147858,1,0,1:0:0:0:
90,383,148020,5,0,1:0:0:0:
127,351,148102,1,0,1:0:0:0:
131,302,148183,1,0,1:0:0:0:
0,135,148345,1,0,1:0:0:0:
32,172,148427,1,0,1:0:0:0:
81,176,148508,1,0,1:0:0:0:
81,176,148669,6,0,P|62:150|16:138,1,67.5000025749208,8|0,0:0|0:0,0:0:0:0:
131,302,148831,5,0,1:0:0:0:
179,292,148913,1,0,1:0:0:0:
207,252,148994,1,0,1:0:0:0:
207,252,149156,6,0,P|195:228|188:197,1,53.9999983520508,2|0,0:0|0:0,0:0:0:0:
133,31,149318,5,0,1:0:0:0:
168,0,149399,1,0,1:0:0:0:
216,3,149480,1,0,1:0:0:0:
248,40,149561,1,0,1:0:0:0:
245,88,149642,5,0,1:0:0:0:
197,85,149723,1,0,1:0:0:0:
160,116,149804,1,0,1:0:0:0:
157,165,149885,1,0,1:0:0:0:
189,202,149966,5,8,0:0:0:0:
226,170,150047,1,0,1:0:0:0:
275,173,150128,1,0,1:0:0:0:
306,210,150209,1,0,1:0:0:0:
303,258,150291,6,0,P|289:300|280:354,1,80.9999975280763,2|0,0:1|0:0,0:0:0:0:
203,383,150615,6,0,B|183:284|293:174|323:247|448:181|439:48,1,440.999986541748,0|0,1:0|0:0,0:0:0:0:
512,105,151264,5,8,0:0:0:0:
511,155,151345,1,0,1:0:0:0:
477,190,151426,1,0,1:0:0:0:
293,247,151587,1,0,1:0:0:0:
341,247,151668,1,0,1:0:0:0:
375,282,151750,2,0,P|317:280|264:216,1,135,0|0,1:0|0:0,0:0:0:0:
202,144,152074,5,0,1:0:0:0:
218,91,152155,1,0,1:0:0:0:
268,65,152237,2,0,P|246:127|157:162,1,161.999995056153,0|0,1:0|0:0,0:0:0:0:
87,211,152561,5,8,0:0:0:0:
39,178,152642,1,0,1:0:0:0:
37,121,152723,1,0,1:0:0:0:
192,239,152885,1,0,1:0:0:0:
105,384,153047,1,0,1:0:0:0:
105,384,153128,1,0,1:0:0:0:
105,384,153210,6,0,P|94:351|83:331,1,45,8|0,0:0|0:0,0:0:0:0:
192,239,153372,1,0,1:0:0:0:
40,124,153534,1,0,1:0:0:0:
87,211,153696,1,0,1:0:0:0:
256,22,153858,6,0,P|244:46|237:73,1,53.9999983520508,8|0,0:0|0:0,0:0:0:0:
40,124,154020,1,0,1:0:0:0:
192,239,154183,1,0,1:0:0:0:
160,149,154345,1,0,1:0:0:0:
404,98,154507,5,8,0:0:0:0:
455,74,154588,1,8,0:0:0:0:
479,23,154669,1,0,1:0:0:0:
326,146,154831,1,0,1:0:0:0:
479,23,154993,5,8,0:0:0:0:
484,78,155074,1,8,0:0:0:0:
452,125,155155,1,0,1:0:0:0:
237,72,155318,1,0,1:0:0:0:
152,329,155480,2,0,P|199:270|243:132,1,202.500007724762,8|0,0:0|0:0,0:0:0:0:
237,72,155804,5,4,1:0:0:0:
497,305,163588,6,0,P|433:270|269:235,1,202.500007724762,4|0,1:0|0:0,0:0:0:0:
435,239,163912,2,0,P|469:267|495:304,1,90,4|0,1:2|0:0,0:0:0:0:
307,237,164237,1,8,0:0:0:0:
183,383,164399,1,0,1:0:0:0:
18,264,164561,1,0,1:0:0:0:
48,191,164723,1,8,0:0:0:0:
260,371,164885,6,0,P|257:334|244:300,1,71.9999978027344,0|0,1:0|0:0,0:0:0:0:
147,137,165101,1,8,0:0:0:0:
126,204,165210,6,0,P|141:171|147:136,1,71.9999978027344,0|0,1:0|0:0,0:0:0:0:
49,384,165426,1,8,0:0:0:0:
0,327,165534,5,8,0:0:0:0:
26,256,165642,1,8,0:0:0:0:
99,273,165750,1,8,0:0:0:0:
142,334,165858,5,8,0:0:0:0:
217,340,165966,1,8,3:0:0:0:
237,269,166074,1,4,3:0:0:0:
237,269,166183,6,0,P|225:204|182:99,1,161.999995056153,4|0,1:0|0:0,0:0:0:0:
82,104,166507,2,0,P|96:63|106:-9,1,107.999996704102,0|0,1:0|0:0,0:0:0:0:
324,15,166831,6,0,P|307:37|284:55,1,53.9999983520508,8|0,0:0|0:0,0:0:0:0:
173,207,166993,2,0,P|91:195|10:163,1,161.999995056153,8|0,0:0|0:0,0:0:0:0:
6,89,167318,5,0,1:0:0:0:
173,207,167480,1,2,3:0:0:0:
286,53,167642,1,0,1:0:0:0:
217,14,167804,2,0,P|187:69|179:131,1,107.999996704102,0|0,1:0|0:0,0:0:0:0:
433,322,168128,2,0,P|361:206|252:124,1,269.999991760254,8|0,0:0|0:0,0:0:0:0:
179,113,168615,1,0,1:0:0:0:
390,51,168777,6,0,P|444:37|494:5,1,107.999996704102,4|0,1:2|0:0,0:0:0:0:
307,192,169101,2,0,P|292:245|294:305,1,107.999996704102,0|0,1:0|0:0,0:0:0:0:
240,19,169426,6,0,P|266:26|296:25,1,53.9999983520508,8|0,0:0|0:0,0:0:0:0:
420,205,169588,2,0,P|457:242|507:268,1,107.999996704102,0|0,1:0|0:0,0:0:0:0:
263,129,169912,5,0,1:0:0:0:
458,72,170074,1,2,3:0:0:0:
505,268,170237,1,0,1:0:0:0:
420,205,170399,2,0,P|394:162|388:103,1,107.999996704102,0|0,1:0|0:0,0:0:0:0:
312,346,170723,2,0,P|301:280|408:91,1,269.999991760254,8|0,0:0|0:0,0:0:0:0:
458,72,171210,1,0,1:0:0:0:
274,253,171372,6,0,P|210:271|123:317,1,161.999995056153,4|0,1:2|0:0,0:0:0:0:
167,239,171696,2,0,P|220:240|273:252,1,107.999996704102,0|0,1:0|0:0,0:0:0:0:
211,5,172020,2,0,P|130:87|39:231,1,269.999991760254,8|0,0:0|0:0,0:0:0:0:
0,282,172507,6,0,L|27:388,1,90,0|0,1:0|0:0,0:0:0:0:
156,190,172831,2,0,L|169:243,1,45,0|0,1:0|0:0,0:0:0:0:
20,53,172993,2,0,L|47:159,1,90,0|0,1:0|0:0,0:0:0:0:
367,166,173318,6,0,P|268:147|114:68,1,269.999991760254,8|0,0:0|0:0,0:0:0:0:
138,0,173804,1,0,1:0:0:0:
3,237,173966,6,0,P|34:190|41:133,1,107.999996704102,4|0,1:2|0:0,0:0:0:0:
88,359,174291,1,0,1:0:0:0:
88,359,174453,1,0,1:0:0:0:
172,138,174615,1,8,0:0:0:0:
3,237,174777,1,8,0:0:0:0:
184,343,174939,2,0,P|231:374|288:381,1,107.999996704102,0|0,1:0|1:0,0:0:0:0:
0,339,175264,5,0,1:0:0:0:
0,339,175426,1,8,0:0:0:0:
205,233,175588,1,0,1:0:0:0:
205,233,175750,1,0,1:0:0:0:
57,82,175912,5,8,0:0:0:0:
177,337,176074,1,0,1:0:0:0:
217,57,176237,5,8,0:0:0:0:
80,304,176399,1,0,1:0:0:0:
2,22,176561,6,0,P|66:67|162:86,1,161.999995056153,4|0,1:0|0:0,0:0:0:0:
303,0,176885,2,0,P|254:15|219:55,1,107.999996704102,8|0,0:0|0:0,0:0:0:0:
354,59,177210,1,0,1:0:0:0:
303,0,177372,1,0,1:0:0:0:
225,292,177534,2,0,P|231:211|208:134,1,161.999995056153,8|0,0:0|3:0,0:0:0:0:
146,85,177858,5,0,1:0:0:0:
282,111,178020,1,0,1:0:0:0:
12,163,178183,2,0,P|81:229|123:316,1,188.999994232178,8|0,0:0|0:0,0:0:0:0:
98,384,178507,1,0,1:0:0:0:
1,260,178669,1,0,1:0:0:0:
278,366,178831,2,0,P|321:302|338:228,1,153.000002918243,8|0,0:0|3:0,0:0:0:0:
307,153,179074,5,0,3:0:0:0:
296,158,179156,2,0,L|180:128,1,107.999996704102,4|0,1:0|0:0,0:0:0:0:
498,28,179480,2,0,L|382:-2,1,107.999996704102,8|0,0:0|0:0,0:0:0:0:
512,103,179804,1,0,1:0:0:0:
498,28,179966,1,0,1:0:0:0:
337,228,180128,2,0,P|300:162|285:70,1,161.999995056153,8|0,0:0|3:0,0:0:0:0:
312,6,180453,5,0,1:0:0:0:
433,91,180615,1,0,1:0:0:0:
216,0,180777,2,0,P|183:87|181:181,1,188.999994232178,8|0,0:0|0:0,0:0:0:0:
245,226,181101,1,0,1:0:0:0:
284,77,181264,1,0,1:0:0:0:
449,327,181426,2,0,P|389:291|335:225,1,153.000002918243,8|0,0:0|3:0,0:0:0:0:
350,150,181669,5,0,3:0:0:0:
353,141,181750,1,4,1:0:0:0:
478,201,181912,1,0,1:0:0:0:
269,307,182074,6,0,P|216:326|123:388,1,161.999995056153,8|0,0:0|0:0,0:0:0:0:
63,341,182399,1,0,1:0:0:0:
209,384,182561,1,0,1:0:0:0:
336,227,182723,2,0,L|228:203,1,107.999996704102,8|0,0:0|3:0,0:0:0:0:
176,154,182966,5,0,3:0:0:0:
164,151,183047,1,0,1:0:0:0:
363,108,183210,1,0,1:0:0:0:
407,311,183372,2,0,L|513:288,1,107.999996704102,8|0,0:0|0:0,0:0:0:0:
321,383,183696,5,0,1:0:0:0:
419,185,183858,1,2,1:2:0:0:
202,269,184020,6,0,P|235:279|263:296,1,53.9999983520508,8|0,0:0|0:0,0:0:0:0:
440,352,184183,2,0,P|425:330|407:311,1,53.9999983520508,10|0,0:0|0:0,0:0:0:0:
424,91,184345,6,0,P|359:119|334:192,1,125.999996154785,4|0,1:2|1:0,0:0:0:0:
125,384,184669,2,0,P|133:313|82:255,1,125.999996154785,12|0,0:0|1:0,0:0:0:0:
363,240,184993,5,2,1:0:0:0:
193,192,185156,1,2,1:0:0:0:
10,125,185318,2,0,P|67:167|143:152,1,125.999996154785,10|0,0:0|1:0,0:0:0:0:
424,91,185642,6,0,P|359:119|334:192,1,125.999996154785,4|0,1:2|1:0,0:0:0:0:
221,365,185966,5,12,0:0:0:0:
193,192,186128,1,0,1:0:0:0:
165,19,186291,1,2,1:0:0:0:
200,197,186453,5,2,1:0:0:0:
227,373,186615,2,0,P|164:372|116:333,1,125.999996154785,10|0,0:0|0:0,0:0:0:0:
11,79,186939,6,0,P|41:134|65:235,1,161.999995056153,4|0,1:0|0:0,0:0:0:0:
0,320,187264,2,0,P|21:284|72:236,1,107.999996704102,8|0,0:0|0:0,0:0:0:0:
270,307,187588,1,0,1:0:0:0:
227,373,187750,1,0,1:0:0:0:
131,152,187912,2,0,P|207:176|288:181,1,161.999995056153,8|0,0:0|3:0,0:0:0:0:
332,119,188237,5,0,1:0:0:0:
294,0,188399,1,0,1:0:0:0:
197,212,188561,2,0,P|111:255|17:275,1,188.999994232178,8|0,0:0|0:0,0:0:0:0:
0,201,188885,1,0,1:0:0:0:
130,290,189047,1,0,1:0:0:0:
92,0,189210,2,0,P|143:57|208:98,1,153.000002918243,8|0,0:0|3:0,0:0:0:0:
282,77,189453,5,0,3:0:0:0:
293,72,189534,2,0,L|309:-27,1,90,4|0,1:0|0:0,0:0:0:0:
0,201,189858,2,0,L|21:68,1,107.999996704102,8|0,0:0|0:0,0:0:0:0:
57,260,190183,1,0,1:0:0:0:
0,201,190345,1,0,1:0:0:0:
166,371,190507,2,0,P|212:329|267:216,1,161.999995056153,8|0,0:0|3:0,0:0:0:0:
216,177,190831,5,0,1:0:0:0:
86,116,190993,1,0,1:0:0:0:
269,115,191156,2,0,P|187:168|93:192,1,188.999994232178,8|0,0:0|0:0,0:0:0:0:
86,116,191480,1,0,1:0:0:0:
204,292,191642,1,0,1:0:0:0:
376,156,191804,2,0,P|383:131|380:79,1,76.5000014591217,8|0,0:0|0:0,0:0:0:0:
269,115,191966,2,0,P|287:96|310:50,1,76.5000014591217,8|0,0:0|0:0,0:0:0:0:
432,6,192128,5,4,1:0:0:0:
508,52,192291,1,0,1:0:0:0:
369,266,192453,6,0,P|291:241|222:200,1,161.999995056153,8|0,0:0|0:0,0:0:0:0:
191,129,192777,1,0,1:0:0:0:
236,2,192939,1,0,1:0:0:0:
82,163,193101,2,0,L|202:133,1,107.999996704102,8|0,0:0|3:0,0:0:0:0:
256,91,193345,5,0,3:0:0:0:
267,88,193426,1,0,1:0:0:0:
361,268,193588,1,0,1:0:0:0:
509,136,193750,2,0,L|404:109,1,107.999996704102,8|0,0:0|0:0,0:0:0:0:
264,302,194074,5,0,1:0:0:0:
403,110,194237,1,2,1:2:0:0:
477,321,194399,5,8,0:0:0:0:
246,177,194561,1,2,3:0:0:0:
477,321,194723,6,0,P|424:276|350:269,1,135.000005149842,4|0,1:2|1:0,0:0:0:0:
50,384,195047,2,0,P|114:360|158:300,1,135.000005149842,12|0,0:2|1:0,0:0:0:0:
89,104,195372,5,2,1:0:0:0:
154,309,195534,1,2,1:0:0:0:
360,267,195696,2,0,P|426:277|477:321,1,135.000005149842,10|0,0:2|1:0,0:0:0:0:
89,104,196020,6,0,P|76:169|101:231,1,135.000005149842,4|0,1:2|1:0,0:0:0:0:
357,45,196345,2,0,P|315:96|252:119,1,135.000005149842,12|0,0:0|1:0,0:0:0:0:
7,0,196669,5,2,1:0:0:0:
251,119,196831,5,8,0:0:0:0:
286,99,196912,1,8,0:0:0:0:
299,60,196993,1,8,0:0:0:0:
66,299,197156,5,8,0:0:0:0:
31,279,197237,1,8,0:0:0:0:
18,240,197318,5,4,1:2:0:0:
34,166,197480,1,0,1:0:0:0:
227,298,197642,5,12,0:0:0:0:
241,221,197804,1,0,1:0:0:0:
436,356,197966,5,2,1:0:0:0:
227,298,198128,1,2,1:0:0:0:
21,243,198291,2,0,P|86:252|136:296,1,135.000005149842,10|0,0:0|1:0,0:0:0:0:
179,360,198534,5,0,3:0:0:0:
177,372,198615,1,0,1:0:0:0:
346,301,198777,1,0,1:0:0:0:
105,222,198939,5,12,0:0:0:0:
346,301,199101,1,0,1:0:0:0:
386,115,199264,5,12,0:0:0:0:
105,222,199426,1,0,1:0:0:0:
90,14,199588,5,12,0:0:0:0:
386,115,199750,1,0,1:0:0:0:
239,0,199912,6,0,P|215:35|201:106,1,108,4|0,1:0|0:0,0:0:0:0:
239,0,200237,1,8,0:0:0:0:
293,61,200399,1,0,1:0:0:0:
373,45,200561,1,0,1:0:0:0:
373,45,200885,1,8,0:0:0:0:
296,64,201047,1,0,1:0:0:0:
274,141,201210,2,0,P|285:191|319:248,1,108,0|0,1:0|0:0,0:0:0:0:
407,200,201534,2,0,P|455:215|522:214,1,108,8|0,0:0|0:0,0:0:0:0:
407,200,201858,1,0,1:0:0:0:
274,141,202020,1,10,0:0:0:0:
312,240,202183,1,0,1:0:0:0:
373,103,202345,1,10,0:0:0:0:
261,306,202507,6,0,P|214:332|161:344,1,108,0|0,1:0|0:0,0:0:0:0:
261,306,202831,1,8,0:0:0:0:
312,240,202993,1,0,1:0:0:0:
281,163,203156,1,0,1:0:0:0:
281,163,203480,1,8,0:0:0:0:
186,102,203642,1,0,1:0:0:0:
248,10,203804,1,0,1:0:0:0:
248,10,204128,2,0,L|264:93,2,72,8|2|2,0:0|0:2|0:1,0:0:0:0:
