osu file format v14

[General]
AudioFilename: audio.mp3
AudioLeadIn: 0
PreviewTime: 44237
Countdown: 0
SampleSet: Soft
StackLeniency: 0.8
Mode: 0
LetterboxInBreaks: 0
WidescreenStoryboard: 1

[Editor]
Bookmarks: 129,5318,15696,26074,36453,46831,57210,67588,70183,80561,90939,101318,111696,124669,135047,145426,155804,163588,166183,176561,186939,199912,204777
DistanceSpacing: 1
BeatDivisor: 4
GridSize: 16
TimelineZoom: 1

[Metadata]
Title:LosT
TitleUnicode:LosT
Artist:Bring Me The Horizon
ArtistUnicode:Bring Me The Horizon
Creator:Embo
Version:NoRmaL
Source:
Tags:english alternative alt emo rock hyperpop bmth Oliver Oli Sykes Matt Nicholls Lee Malia Kean Jordan Fish post human: nex gen
BeatmapID:4268499
BeatmapSetID:2041071

[Difficulty]
HPDrainRate:3
CircleSize:3
OverallDifficulty:4
ApproachRate:5
SliderMultiplier:1
SliderTickRate:1

[Events]
//Background and Video events
0,0,"lostbg.jpg",0,0
//Break Periods
2,44436,45534
2,124869,133750
2,156004,162291
//Storyboard Layer 0 (Background)
//Storyboard Layer 1 (Fail)
//Storyboard Layer 2 (Pass)
//Storyboard Layer 3 (Foreground)
//Storyboard Layer 4 (Overlay)
//Storyboard Sound Samples

[TimingPoints]
129,324.324324324324,4,2,1,55,1,0
129,-100,4,2,1,55,0,0
5318,-100,4,2,1,70,0,0
6291,-100,4,2,1,70,0,0
7912,-100,4,2,1,70,0,0
8237,-100,4,2,1,70,0,0
10507,-100,4,2,1,70,0,0
10831,-100,4,2,1,70,0,0
13426,-100,4,2,1,70,0,0
14074,-100,4,2,1,70,0,0
14399,-100,4,2,1,70,0,0
15047,-100,4,2,1,70,0,0
15696,-111.111111111111,4,2,1,60,0,0
36453,-100,4,2,1,65,0,0
44237,-100,4,2,1,30,0,0
45534,-100,4,2,1,30,0,0
46183,-100,4,2,1,30,0,0
46831,-90.9090909090909,4,2,1,80,0,1
48453,-90.9090909090909,4,2,1,80,0,1
49101,-90.9090909090909,4,2,1,80,0,1
49426,-90.9090909090909,4,2,1,80,0,1
51047,-90.9090909090909,4,2,1,80,0,1
51696,-90.9090909090909,4,2,1,80,0,1
52345,-90.9090909090909,4,2,1,80,0,1
54615,-90.9090909090909,4,2,1,80,0,1
57210,-90.9090909090909,4,2,1,80,0,1
58831,-90.9090909090909,4,2,1,80,0,1
59480,-90.9090909090909,4,2,1,80,0,1
59804,-90.9090909090909,4,2,1,80,0,1
60128,-90.9090909090909,4,2,1,80,0,1
61426,-90.9090909090909,4,2,1,80,0,1
62074,-90.9090909090909,4,2,1,80,0,1
62723,-90.9090909090909,4,2,1,80,0,1
64993,-90.9090909090909,4,2,1,80,0,1
67588,-111.111111111111,4,2,1,60,0,0
70183,-111.111111111111,4,2,1,60,0,0
88507,-111.111111111111,4,2,1,60,0,0
88993,-111.111111111111,4,2,1,60,0,0
90939,-100,4,2,1,65,0,0
96128,-100,4,2,1,65,0,0
98723,-100,4,2,1,65,0,0
99047,-100,4,2,1,65,0,0
99372,-100,4,2,1,65,0,0
99696,-100,4,2,1,65,0,0
101318,-90.9090909090909,4,2,1,80,0,1
102938,-90.9090909090909,4,2,1,80,0,1
103586,-90.9090909090909,4,2,1,80,0,1
103911,-90.9090909090909,4,2,1,80,0,1
105532,-90.9090909090909,4,2,1,80,0,1
106181,-90.9090909090909,4,2,1,80,0,1
106830,-90.9090909090909,4,2,1,80,0,1
109100,-90.9090909090909,4,2,1,80,0,1
111695,-90.9090909090909,4,2,1,80,0,1
113316,-90.9090909090909,4,2,1,80,0,1
113965,-90.9090909090909,4,2,1,80,0,1
114289,-90.9090909090909,4,2,1,80,0,1
114613,-90.9090909090909,4,2,1,80,0,1
115911,-90.9090909090909,4,2,1,80,0,1
116559,-90.9090909090909,4,2,1,80,0,1
117208,-90.9090909090909,4,2,1,80,0,1
119478,-90.9090909090909,4,2,1,80,0,1
124669,-100,4,2,1,80,0,0
124750,-100,4,2,1,5,0,0
129858,-100,4,2,1,50,0,0
135047,-100,4,2,1,70,0,0
135696,-100,4,2,1,70,0,0
135858,-100,4,2,1,70,0,0
136993,-100,4,2,1,70,0,0
137318,-100,4,2,1,70,0,0
138291,-100,4,2,1,70,0,0
138453,-100,4,2,1,70,0,0
138777,-100,4,2,1,70,0,0
138939,-100,4,2,1,70,0,0
139912,-100,4,2,1,70,0,0
140237,-100,4,2,1,70,0,0
140885,-100,4,2,1,70,0,0
142507,-100,4,2,1,70,0,0
143318,-100,4,2,1,70,0,0
143804,-100,4,2,1,70,0,0
144128,-100,4,2,1,70,0,0
145101,-100,4,2,1,70,0,0
145426,-100,4,2,1,75,0,0
146074,-100,4,2,1,75,0,0
146399,-100,4,2,1,75,0,0
146885,-100,4,2,1,75,0,0
148020,-100,4,2,1,75,0,0
148669,-100,4,2,1,75,0,0
148831,-100,4,2,1,75,0,0
150291,-100,4,2,1,75,0,0
150615,-100,4,2,1,75,0,0
151264,-100,4,2,1,75,0,0
151750,-100,4,2,1,75,0,0
152074,-100,4,2,1,75,0,0
153210,-100,4,2,1,75,0,0
153858,-100,4,2,1,75,0,0
154507,-100,4,2,1,75,0,0
155480,-100,4,2,1,75,0,0
163588,-100,4,2,1,70,0,0
163912,-100,4,2,1,70,0,0
164885,-100,4,2,1,70,0,0
166183,-90.9090909090909,4,2,1,80,0,1
172507,-90.9090909090909,4,2,1,80,0,1
173318,-90.9090909090909,4,2,1,80,0,1
176559,-90.9090909090909,4,2,1,80,0,1
178181,-90.9090909090909,4,2,1,80,0,1
178829,-90.9090909090909,4,2,1,80,0,1
179154,-90.9090909090909,4,2,1,80,0,1
180775,-90.9090909090909,4,2,1,80,0,1
181424,-90.9090909090909,4,2,1,80,0,1
181750,-90.9090909090909,4,2,1,80,0,1
182073,-90.9090909090909,4,2,1,80,0,1
184343,-90.9090909090909,4,2,1,80,0,1
186938,-90.9090909090909,4,2,1,80,0,1
188559,-90.9090909090909,4,2,1,80,0,1
189208,-90.9090909090909,4,2,1,80,0,1
189532,-90.9090909090909,4,2,1,80,0,1
189856,-90.9090909090909,4,2,1,80,0,1
191154,-90.9090909090909,4,2,1,80,0,1
191802,-90.9090909090909,4,2,1,80,0,1
192451,-90.9090909090909,4,2,1,80,0,1
194721,-90.9090909090909,4,2,1,80,0,1
198939,-90.9090909090909,4,2,1,85,0,1
199264,-90.9090909090909,4,2,1,90,0,1
199588,-90.9090909090909,4,2,1,95,0,1
199912,-100,4,2,1,60,0,0
204128,-100,4,2,1,60,0,0

[Colours]
Combo1 : 187,34,187
Combo2 : 98,174,157
Combo3 : 186,44,118
Combo4 : 63,166,177

[HitObjects]
428,379,5318,6,0,L|439:321,1,50,4|0,1:0|0:0,0:0:0:0:
477,300,5642,2,0,L|466:242,1,50,8|0,0:0|3:0,0:0:0:0:
427,221,5966,1,0,1:0:0:0:
496,148,6291,1,8,0:0:0:0:
421,81,6615,2,0,P|378:73|308:36,1,100,2|10,1:2|0:2,0:0:0:0:
237,5,7264,2,0,L|224:75,1,50,0|2,1:0|1:2,0:0:0:0:
243,101,7588,1,8,0:0:0:0:
170,169,7912,6,0,P|145:155|111:152,1,50,4|0,1:0|0:0,0:0:0:0:
104,105,8237,2,0,P|118:80|121:46,1,50,8|0,0:0|3:0,0:0:0:0:
92,18,8561,1,0,1:0:0:0:
4,66,8885,1,8,0:0:0:0:
11,165,9210,2,0,L|39:268,1,100,2|10,1:2|0:2,0:0:0:0:
21,360,9858,2,0,P|56:365|77:378,1,50,0|0,1:0|1:0,0:0:0:0:
106,338,10183,2,0,P|141:333|162:320,1,50,10|8,0:0|0:0,0:0:0:0:
196,352,10507,5,4,1:0:0:0:
266,281,10831,2,0,L|276:224,1,50,8|0,0:0|3:0,0:0:0:0:
240,194,11156,1,0,1:0:0:0:
142,172,11480,1,8,0:0:0:0:
158,73,11804,2,0,L|269:44,1,100,2|10,1:2|0:0,0:0:0:0:
343,2,12453,2,0,P|354:32|353:61,1,50,0|2,1:0|1:2,0:0:0:0:
393,80,12777,2,0,P|382:110|383:139,1,50,8|2,0:0|3:0,0:0:0:0:
353,169,13101,5,4,1:0:0:0:
255,151,13426,1,8,0:0:0:0:
191,227,13750,1,0,1:0:0:0:
224,321,14074,1,8,0:0:0:0:
321,338,14399,2,0,L|387:322,1,50,0|0,1:2|1:0,0:0:0:0:
407,359,14723,1,8,0:2:0:0:
453,340,14885,1,0,1:0:0:0:
500,120,15696,6,0,P|457:111|401:82,1,89.9999972534181,2|10,1:2|0:2,0:2:0:0:
355,23,16345,1,2,1:2:0:0:
272,59,16669,1,10,0:2:0:0:
294,145,16993,2,0,P|280:188|249:241,1,89.9999972534181,2|10,1:2|0:2,0:2:0:0:
218,248,17480,1,2,0:2:0:0:
129,146,17966,6,0,L|76:138,1,44.999998626709,2|10,1:2|0:2,0:0:0:0:
49,110,18291,1,2,1:2:0:0:
65,21,18615,1,10,0:2:0:0:
154,31,18939,2,0,P|191:65|243:81,1,89.9999972534181,2|10,1:2|0:2,0:2:0:0:
261,162,19588,2,0,P|227:199|211:251,1,89.9999972534181,2|10,1:2|0:2,0:2:0:0:
195,276,20074,2,0,L|100:297,1,89.9999972534181,2|8,0:2|0:2,0:2:0:0:
25,270,20723,5,10,0:2:0:0:
25,270,20885,2,0,L|10:366,2,89.9999972534181,2|10|2,1:2|0:2|1:2,0:2:0:0:
3,182,21858,1,10,0:2:0:0:
74,126,22183,2,0,P|111:157|156:162,1,89.9999972534181,2|10,1:2|0:2,0:2:0:0:
218,103,22831,1,2,1:2:0:0:
262,187,23156,1,2,1:2:0:0:
262,187,23318,2,0,L|252:247,1,44.999998626709,10|0,0:2|1:2,0:0:0:0:
465,317,25912,5,10,0:2:0:0:
465,317,26074,2,0,P|494:274|492:235,2,89.9999972534181,2|10|2,1:2|0:2|1:2,0:2:0:0:
386,273,27047,1,10,0:2:0:0:
335,347,27372,2,0,L|234:322,1,89.9999972534181,2|10,1:2|0:2,0:2:0:0:
195,252,28020,2,0,L|141:264,2,44.999998626709,2|8|0,1:2|0:2|1:2,0:0:0:0:
227,220,28507,5,10,0:2:0:0:
227,220,28669,2,0,P|240:192|243:164,1,44.999998626709,2|2,1:2|0:2,0:0:0:0:
312,121,29156,2,0,P|357:130|404:169,1,89.9999972534181,2|2,1:2|0:2,0:0:0:0:
482,161,29804,2,0,P|473:204|448:241,2,89.9999972534181,2|2|2,1:2|0:2|0:2,0:0:0:0:
443,79,30777,2,0,L|429:25,1,44.999998626709,8|8,0:2|0:2,0:0:0:0:
400,11,31101,5,10,0:2:0:0:
400,11,31264,1,2,1:2:0:0:
311,27,31588,1,10,0:2:0:0:
327,115,31912,2,0,P|276:137|243:170,1,89.9999972534181,2|10,1:2|0:2,0:2:0:0:
177,212,32561,2,0,L|153:111,1,89.9999972534181,2|10,1:2|0:2,0:2:0:0:
88,73,33210,1,2,1:2:0:0:
88,73,33372,1,10,0:2:0:0:
159,17,33696,2,0,L|213:5,1,44.999998626709,10|0,0:2|1:2,0:0:0:0:
0,324,36128,5,8,0:2:0:0:
82,381,36453,1,0,1:2:0:0:
82,381,36615,2,0,P|90:340|114:280,1,100,2|2,0:2|1:2,0:2:0:0:
158,271,37101,1,2,1:2:0:0:
250,232,37426,2,0,P|239:201|238:168,1,50,10|2,0:2|1:2,0:0:0:0:
159,131,37912,1,2,0:2:0:0:
159,131,38074,1,10,0:2:0:0:
61,153,38399,1,2,1:1:0:0:
39,55,38723,1,2,1:1:0:0:
138,29,39047,5,2,1:2:0:0:
138,29,39210,2,0,L|238:52,1,100,2|2,0:2|1:2,0:2:0:0:
275,81,39696,1,2,1:2:0:0:
345,151,40020,2,0,L|356:202,1,50,10|2,0:2|1:2,0:0:0:0:
278,263,40507,1,2,0:2:0:0:
278,263,40669,1,10,0:2:0:0:
318,354,40993,1,2,1:1:0:0:
415,377,41318,1,10,0:2:0:0:
471,296,41642,5,2,1:2:0:0:
471,296,41804,2,0,P|493:254|480:192,1,100,2|2,0:2|1:2,0:2:0:0:
438,189,42291,1,2,1:2:0:0:
376,108,42615,2,0,L|443:92,1,50,10|2,0:2|1:2,0:0:0:0:
483,15,43101,2,0,L|373:-2,1,100,2|2,0:2|0:2,0:2:0:0:
342,27,43588,2,0,P|308:43|228:54,2,100,2|2|0,1:1|1:1|3:0,0:0:0:0:
61,377,46831,6,0,P|85:338|98:267,1,110.000003356934,4|8,1:0|0:0,0:0:0:0:
13,205,47480,2,0,L|-4:137,2,55.0000016784668,0|0|8,1:0|1:0|0:0,0:0:0:0:
96,133,48128,2,0,L|164:148,1,55.0000016784668,0|0,1:0|1:0,0:0:0:0:
184,187,48453,2,0,L|300:151,1,110.000003356934,8|0,0:0|1:0,0:0:0:0:
302,101,48939,1,0,1:0:0:0:
261,63,49101,1,8,0:0:0:0:
356,7,49426,6,0,P|419:20|450:70,1,110.000003356934,4|8,1:0|0:0,0:0:0:0:
399,153,50074,2,0,L|462:173,1,55.0000016784668,0|0,1:0|1:0,0:0:0:0:
490,208,50399,1,8,0:0:0:0:
486,317,50723,2,0,L|426:337,1,55.0000016784668,0|0,1:0|1:0,0:0:0:0:
395,373,51047,2,0,L|272:335,1,110.000003356934,8|0,0:0|1:0,0:0:0:0:
259,294,51534,1,0,1:0:0:0:
294,251,51696,2,0,P|308:213|311:179,1,55.0000016784668,8|8,0:0|0:0,0:0:0:0:
276,155,52020,1,4,1:0:0:0:
181,212,52345,6,0,L|59:250,1,110.000003356934,8|0,0:0|1:0,0:0:0:0:
26,220,52831,1,0,1:0:0:0:
37,166,52993,1,8,0:0:0:0:
91,70,53318,2,0,L|73:7,2,55.0000016784668,0|0|8,1:0|1:0|0:0,0:0:0:0:
165,152,53966,2,0,P|197:153|219:164,1,55.0000016784668,0|2,1:0|1:2,0:0:0:0:
262,131,54291,2,0,P|263:98|274:76,1,55.0000016784668,8|2,0:0|3:0,0:0:0:0:
237,37,54615,5,4,1:2:0:0:
129,14,54939,1,12,0:0:0:0:
67,105,55264,2,0,L|81:157,1,55.0000016784668,2|2,1:0|1:0,0:0:0:0:
98,210,55588,1,10,0:0:0:0:
35,300,55912,5,4,1:2:0:0:
118,371,56237,2,0,L|176:354,1,55.0000016784668,12|0,0:0|1:0,0:0:0:0:
195,306,56561,2,0,L|261:322,1,55.0000016784668,2|8,1:0|0:0,0:0:0:0:
294,349,56885,1,8,0:0:0:0:
386,289,57210,6,0,P|408:258|427:171,1,110.000003356934,4|8,1:0|0:0,0:0:0:0:
354,106,57858,2,0,L|341:46,2,55.0000016784668,0|0|8,1:0|1:0|0:0,0:0:0:0:
271,179,58507,2,0,P|290:202|300:230,1,55.0000016784668,0|0,1:0|1:0,0:0:0:0:
338,263,58831,2,0,P|381:239|455:237,1,110.000003356934,8|0,0:0|1:0,0:0:0:0:
482,270,59318,1,0,1:0:0:0:
470,323,59480,1,8,0:0:0:0:
371,370,59804,6,0,L|312:356,1,55.0000016784668,4|0,1:0|0:0,0:0:0:0:
278,318,60128,2,0,L|219:332,1,55.0000016784668,8|0,0:0|0:0,0:0:0:0:
188,373,60453,1,0,1:0:0:0:
86,330,60777,1,8,0:0:0:0:
163,252,61101,2,0,P|179:223|192:136,1,110.000003356934,0|8,1:0|0:0,0:0:0:0:
163,101,61588,1,8,0:0:0:0:
115,127,61750,2,0,L|55:141,1,55.0000016784668,0|0,1:0|1:0,0:0:0:0:
17,107,62074,2,0,P|19:58|71:20,1,110.000003356934,8|4,0:0|1:0,0:0:0:0:
173,12,62723,6,0,P|230:23|285:51,1,110.000003356934,8|0,0:0|1:0,0:0:0:0:
292,98,63210,1,0,1:0:0:0:
262,144,63372,1,8,0:0:0:0:
152,133,63696,2,0,L|139:207,1,55.0000016784668,0|0,1:0|1:0,0:0:0:0:
169,234,64020,2,0,P|206:260|277:262,1,110.000003356934,8|0,0:0|1:0,0:0:0:0:
312,229,64507,1,2,1:2:0:0:
355,262,64669,1,8,0:0:0:0:
356,374,64993,5,4,1:2:0:0:
466,378,65318,1,12,0:2:0:0:
480,269,65642,2,0,L|466:208,1,55.0000016784668,2|2,1:0|1:0,0:0:0:0:
494,167,65966,1,10,0:2:0:0:
450,65,66291,5,4,1:2:0:0:
341,45,66615,1,12,0:2:0:0:
318,152,66939,1,2,1:0:0:0:
281,193,67101,1,8,0:0:0:0:
225,193,67264,2,0,P|197:166|191:93,1,110.000003356934,8|0,0:0|1:0,0:0:0:0:
24,22,70020,5,2,0:2:0:0:
24,22,70183,2,0,L|125:43,1,89.9999972534181,2|10,1:2|0:2,0:2:0:0:
171,107,70831,1,2,1:2:0:0:
126,185,71156,1,10,0:2:0:0:
41,153,71480,2,0,P|11:185|4:244,1,89.9999972534181,2|10,1:2|0:2,0:2:0:0:
36,256,71966,2,0,P|96:278|119:355,1,134.999995880127,2|0,0:2|1:2,0:0:0:0:
211,368,72777,5,2,1:2:0:0:
211,368,72939,1,2,0:2:0:0:
269,299,73264,2,0,P|283:268|289:202,1,89.9999972534181,2|2,1:2|0:2,0:0:0:0:
207,177,73912,2,0,L|187:87,1,89.9999972534181,2|2,1:2|0:2,0:0:0:0:
239,15,74561,2,0,P|319:7|356:53,1,134.999995880127,2|8,0:2|0:2,0:2:0:0:
307,121,75372,6,0,L|401:142,1,89.9999972534181,2|10,1:2|0:2,0:2:0:0:
475,101,76020,1,2,1:2:0:0:
511,181,76345,1,10,0:2:0:0:
445,242,76669,2,0,P|430:270|414:334,1,89.9999972534181,2|10,1:2|0:2,0:2:0:0:
338,370,77318,1,2,1:2:0:0:
338,370,77480,1,10,0:2:0:0:
279,301,77804,2,0,L|230:287,1,44.999998626709,10|0,0:2|1:2,0:0:0:0:
508,79,80399,5,10,0:2:0:0:
508,79,80561,2,0,P|476:100|414:122,1,89.9999972534181,2|10,1:2|0:2,0:2:0:0:
352,69,81210,1,2,1:2:0:0:
285,129,81534,1,10,0:2:0:0:
221,65,81858,2,0,P|189:44|127:22,1,89.9999972534181,2|10,1:2|0:2,0:2:0:0:
99,42,82345,1,2,0:2:0:0:
16,148,82831,6,0,L|32:200,1,44.999998626709,2|10,1:2|0:2,0:0:0:0:
63,220,83156,2,0,P|40:250|29:291,2,67.4999979400635,2|2|2,1:2|0:2|1:2,0:2:0:0:
150,199,83966,1,2,0:2:0:0:
193,277,84291,2,0,L|291:295,2,89.9999972534181,2|2|2,1:2|0:2|0:2,0:0:0:0:
129,340,85264,2,0,L|80:354,1,44.999998626709,8|8,0:2|0:2,0:0:0:0:
43,338,85588,5,10,0:2:0:0:
43,338,85750,2,0,L|17:239,1,89.9999972534181,2|8,1:2|0:0,0:0:0:0:
35,208,86237,1,2,1:2:0:0:
95,141,86561,1,2,0:2:0:0:
173,184,86885,2,0,P|156:214|140:277,2,89.9999972534181,2|2|2,1:2|0:2|0:2,0:2:0:0:
248,134,87858,2,0,L|309:150,1,44.999998626709,10|0,0:2|1:2,0:0:0:0:
319,180,88183,2,0,P|362:169|402:147,1,89.9999972534181,10|0,0:2|3:0,0:0:0:0:
256,192,88993,12,0,90291,3:0:0:0:
213,158,90939,5,2,1:2:0:0:
213,158,91101,2,0,P|236:189|254:266,1,100,2|2,0:2|1:2,0:2:0:0:
221,286,91588,1,2,1:2:0:0:
292,355,91912,2,0,L|356:372,1,50,10|2,0:2|1:2,0:0:0:0:
426,316,92399,1,2,0:2:0:0:
426,316,92561,1,10,0:2:0:0:
378,228,92885,2,0,L|387:173,1,50,2|8,1:1|0:2,0:0:0:0:
421,143,93210,2,0,L|476:152,1,50,2|8,1:1|0:2,0:0:0:0:
500,191,93534,5,2,1:2:0:0:
500,191,93696,1,2,0:2:0:0:
504,290,94020,2,0,P|490:321|487:348,1,50,2|2,1:2|1:2,0:0:0:0:
393,372,94507,1,10,0:2:0:0:
393,372,94669,2,0,P|378:325|350:282,1,100,8|0,3:3|1:2,0:0:0:0:
302,268,95156,1,8,0:2:0:0:
225,332,95480,2,0,L|166:317,1,50,2|8,1:1|0:2,0:0:0:0:
145,280,95804,2,0,L|96:292,1,50,2|8,1:1|0:2,0:0:0:0:
66,331,96128,5,2,1:2:0:0:
66,331,96291,1,2,0:2:0:0:
9,248,96615,2,0,P|20:217|21:190,1,50,2|2,1:2|1:2,0:0:0:0:
93,131,97101,1,10,0:2:0:0:
93,131,97264,2,0,P|140:149|210:151,1,100,2|2,1:2|0:2,0:2:0:0:
228,122,97750,1,10,0:2:0:0:
277,35,98074,2,0,L|346:21,1,50,2|8,1:1|0:2,0:0:0:0:
363,58,98399,2,0,L|412:67,1,50,2|8,1:1|0:2,0:0:0:0:
451,36,98723,5,0,1:2:0:0:
493,126,99047,1,8,0:2:0:0:
403,171,99372,1,0,1:2:0:0:
446,264,99696,1,8,0:2:0:0:
365,322,100020,6,0,L|297:306,1,50,8|0,0:2|1:2,0:0:0:0:
282,273,100345,2,0,L|298:205,1,50,8|8,0:2|0:0,0:0:0:0:
265,183,100669,2,0,L|241:76,1,100,8|4,3:0|3:0,0:0:0:0:
155,18,101318,6,0,P|118:54|107:127,1,110.000003356934,4|8,1:0|0:0,0:0:0:0:
53,206,101966,2,0,L|-8:195,2,55.0000016784668,0|0|8,1:0|1:0|0:0,0:0:0:0:
158,236,102615,2,0,P|173:266|178:296,1,55.0000016784668,0|0,1:0|1:0,0:0:0:0:
150,334,102939,2,0,L|35:367,1,110.000003356934,8|0,0:0|1:0,0:0:0:0:
2,328,103426,1,0,1:0:0:0:
27,279,103588,1,8,0:0:0:0:
93,191,103912,6,0,P|133:183|195:141,1,110.000003356934,4|8,1:0|0:0,0:0:0:0:
279,80,104561,2,0,L|294:140,1,55.0000016784668,0|0,1:0|1:0,0:0:0:0:
331,172,104885,1,8,0:0:0:0:
243,239,105210,2,0,L|230:309,1,55.0000016784668,0|0,1:0|1:0,0:0:0:0:
192,330,105534,2,0,L|307:356,1,110.000003356934,8|0,0:0|1:0,0:0:0:0:
346,382,106020,1,0,1:0:0:0:
390,349,106183,2,0,P|399:317|416:295,1,55.0000016784668,8|8,0:0|0:0,0:0:0:0:
463,280,106507,1,4,1:0:0:0:
419,179,106831,6,0,P|385:142|319:144,1,110.000003356934,8|0,0:0|1:0,0:0:0:0:
292,181,107318,1,0,1:0:0:0:
239,166,107480,1,8,0:0:0:0:
263,58,107804,2,0,L|331:39,2,55.0000016784668,0|0|8,1:0|1:0|0:0,0:0:0:0:
164,8,108453,2,0,P|150:41|147:72,1,55.0000016784668,0|2,1:0|1:2,0:0:0:0:
108,99,108777,2,0,P|75:85|44:82,1,55.0000016784668,8|2,0:0|3:0,0:0:0:0:
24,37,109101,5,4,1:2:0:0:
1,144,109426,1,12,0:0:0:0:
92,205,109750,2,0,L|161:192,1,55.0000016784668,2|2,1:0|1:0,0:0:0:0:
181,152,110074,1,10,0:0:0:0:
269,217,110399,5,4,1:2:0:0:
230,320,110723,2,0,L|174:333,1,55.0000016784668,12|0,0:0|1:0,0:0:0:0:
135,369,111047,2,0,L|79:356,1,55.0000016784668,2|8,1:0|0:0,0:0:0:0:
45,314,111372,1,8,0:0:0:0:
2,212,111696,6,0,P|9:163|49:111,1,110.000003356934,4|8,1:0|0:0,0:0:0:0:
145,157,112345,2,0,L|158:212,2,55.0000016784668,0|0|8,1:0|1:0|0:0,0:0:0:0:
230,87,112993,2,0,P|246:59|253:32,1,55.0000016784668,0|0,1:0|1:0,0:0:0:0:
299,8,113318,2,0,P|335:27|420:39,1,110.000003356934,8|0,0:0|1:0,0:0:0:0:
437,82,113804,1,0,1:0:0:0:
487,61,113966,1,8,0:0:0:0:
509,168,114291,6,0,L|451:180,1,55.0000016784668,4|0,1:0|0:0,0:0:0:0:
417,218,114615,2,0,L|429:276,1,55.0000016784668,8|0,0:0|0:0,0:0:0:0:
473,303,114939,1,0,1:0:0:0:
390,376,115264,1,8,0:0:0:0:
303,307,115588,2,0,P|280:278|259:194,1,110.000003356934,0|8,1:0|0:0,0:0:0:0:
297,170,116074,1,8,0:0:0:0:
277,118,116237,2,0,L|200:105,1,55.0000016784668,0|0,1:0|1:0,0:0:0:0:
180,73,116561,2,0,L|61:109,1,110.000003356934,8|4,0:0|1:0,0:0:0:0:
18,199,117210,6,0,P|6:248|40:292,1,110.000003356934,8|0,0:0|1:0,0:0:0:0:
92,274,117696,1,0,1:0:0:0:
126,316,117858,1,8,0:0:0:0:
216,378,118183,2,0,L|227:324,1,55.0000016784668,0|0,1:0|1:0,0:0:0:0:
240,270,118507,2,0,L|354:241,1,110.000003356934,8|0,0:0|1:0,0:0:0:0:
386,280,118993,1,2,1:2:0:0:
368,332,119156,1,8,0:0:0:0:
465,383,119480,5,4,1:2:0:0:
502,279,119804,1,12,0:2:0:0:
429,196,120128,2,0,L|416:140,1,55.0000016784668,2|2,1:0|1:0,0:0:0:0:
403,89,120453,1,10,0:2:0:0:
314,23,120777,5,4,1:2:0:0:
229,93,121101,1,12,0:2:0:0:
285,187,121426,2,0,L|298:255,1,55.0000016784668,2|2,1:0|1:0,0:0:0:0:
306,294,121750,1,10,0:0:0:0:
227,370,122074,5,4,1:2:0:0:
126,324,122399,1,12,0:2:0:0:
156,218,122723,1,2,1:0:0:0:
199,184,122885,1,2,1:0:0:0:
186,130,123047,1,10,0:0:0:0:
256,192,123372,12,0,124669,1:0:0:0:
26,21,135047,5,0,1:0:0:0:
76,107,135372,1,0,1:0:0:0:
155,46,135696,1,8,0:0:0:0:
155,46,135858,2,0,L|210:57,1,50,0|0,1:0|1:0,0:0:0:0:
248,145,136345,2,0,L|297:135,1,50,0|0,1:0|1:0,0:0:0:0:
349,50,136831,1,0,1:0:0:0:
458,153,137318,2,0,L|467:207,1,50,0|0,1:0|1:0,0:0:0:0:
433,240,137642,5,0,1:0:0:0:
456,337,137966,1,0,1:0:0:0:
365,376,138291,1,8,0:0:0:0:
365,376,138453,2,0,L|300:360,1,50,0|0,1:0|1:0,0:0:0:0:
256,192,138939,12,0,140237,1:0:0:0:
301,291,140885,5,8,0:0:0:0:
335,197,141210,1,0,1:0:0:0:
217,100,141696,2,0,L|160:116,1,50,0|0,1:0|1:0,0:0:0:0:
122,202,142183,2,0,L|73:188,1,50,8|0,0:0|1:0,0:0:0:0:
36,155,142507,1,0,1:0:0:0:
40,55,142831,6,0,P|31:26|12:6,2,50,8|0|0,0:0|1:0|1:0,0:0:0:0:
90,52,143318,2,0,P|119:43|139:24,2,50,8|0|0,0:0|1:0|1:0,0:0:0:0:
102,100,143804,1,8,0:0:0:0:
29,168,144128,6,0,B|127:192|127:192|152:290|152:290|252:315,1,300,8|8,0:0|0:0,0:0:0:0:
306,232,145426,5,0,1:0:0:0:
405,244,145750,1,0,1:0:0:0:
457,160,146074,1,8,0:0:0:0:
457,160,146237,2,0,L|474:99,1,50,0|0,1:0|1:0,0:0:0:0:
417,27,146723,2,0,L|356:10,1,50,0|0,1:0|1:0,0:0:0:0:
288,73,147210,2,0,L|274:121,2,50,0|8|0,1:0|0:0|1:0,0:0:0:0:
261,30,147696,1,0,1:0:0:0:
162,11,148020,5,0,1:0:0:0:
89,80,148345,1,0,1:0:0:0:
169,150,148669,1,8,0:0:0:0:
169,150,148831,2,0,L|181:209,1,50,0|0,1:0|1:0,0:0:0:0:
256,192,149318,12,2,150291,0:1:0:0:
57,234,151264,5,8,0:0:0:0:
12,323,151588,1,0,1:0:0:0:
155,375,152074,2,0,L|213:367,1,50,0|0,1:0|1:0,0:0:0:0:
256,282,152561,2,0,L|305:288,1,50,8|0,0:0|1:0,0:0:0:0:
339,325,152885,1,0,1:0:0:0:
424,270,153210,6,0,P|446:280|471:284,2,50,8|0|0,0:0|1:0|1:0,0:0:0:0:
395,174,153858,2,0,P|405:151|409:126,2,50,8|0|0,0:0|1:0|1:0,0:0:0:0:
304,216,154507,2,0,L|286:154,2,50,8|0|0,0:0|1:0|1:0,0:0:0:0:
276,258,154993,1,8,0:0:0:0:
276,258,155156,2,0,L|262:306,1,50,0|0,1:0|1:0,0:0:0:0:
288,348,155480,2,0,P|337:345|375:314,1,100,8|4,0:0|1:0,0:0:0:0:
17,101,163588,5,4,1:0:0:0:
61,11,163912,1,4,1:2:0:0:
152,52,164237,2,0,L|219:66,2,50,8|0|0,0:0|1:0|1:0,0:0:0:0:
108,141,164885,1,0,1:0:0:0:
175,215,165210,1,0,1:0:0:0:
272,237,165534,1,8,0:0:0:0:
243,332,165858,1,8,0:0:0:0:
143,375,166183,6,0,P|131:339|86:272,1,110.000003356934,4|0,1:0|1:0,0:0:0:0:
5,220,166831,1,8,0:0:0:0:
5,220,166993,2,0,L|29:107,1,110.000003356934,8|0,0:0|1:0,0:0:0:0:
19,57,167480,2,0,P|58:24|125:30,1,110.000003356934,2|0,3:0|1:0,0:0:0:0:
155,126,168128,2,0,L|324:159,1,165.000005035401,8|0,0:0|1:0,0:0:0:0:
347,203,168777,6,0,P|364:233|366:262,1,55.0000016784668,4|0,1:2|0:0,0:0:0:0:
413,282,169101,2,0,P|443:265|472:263,1,55.0000016784668,0|0,1:0|0:0,0:0:0:0:
484,211,169426,1,8,0:0:0:0:
411,128,169750,1,0,0:0:0:0:
493,54,170074,2,0,P|452:18|335:47,1,165.000005035401,2|0,3:0|0:0,0:0:0:0:
313,75,170723,1,8,0:0:0:0:
211,32,171047,2,0,L|201:97,1,55.0000016784668,2|0,3:0|1:0,0:0:0:0:
160,122,171372,6,0,P|185:149|206:234,1,110.000003356934,4|0,1:2|1:0,0:0:0:0:
308,259,172020,2,0,P|297:297|197:367,1,165.000005035401,8|0,0:0|1:0,0:0:0:0:
96,343,172831,1,0,1:0:0:0:
96,343,172993,2,0,L|72:234,1,110.000003356934,0|8,1:0|0:0,0:0:0:0:
25,205,173480,1,2,3:0:0:0:
38,151,173642,1,2,3:0:0:0:
134,98,173966,5,4,1:2:0:0:
202,184,174291,1,0,1:0:0:0:
145,278,174615,2,0,L|214:292,1,55.0000016784668,8|8,0:0|0:0,0:0:0:0:
252,300,174939,1,0,1:0:0:0:
335,372,175264,5,0,1:0:0:0:
413,295,175588,1,0,1:0:0:0:
350,204,175912,2,0,L|338:147,1,55.0000016784668,8|0,0:0|1:0,0:0:0:0:
327,95,176237,1,8,0:0:0:0:
241,26,176561,6,0,P|237:62|199:133,1,110.000003356934,4|8,1:0|0:0,0:0:0:0:
112,65,177210,2,0,L|53:55,2,55.0000016784668,0|0|8,1:0|1:0|0:0,0:0:0:0:
48,154,177858,2,0,P|36:184|35:218,1,55.0000016784668,0|0,1:0|1:0,0:0:0:0:
76,242,178183,2,0,L|97:354,1,110.000003356934,8|0,0:0|1:0,0:0:0:0:
145,375,178669,1,0,1:0:0:0:
185,337,178831,1,8,0:0:0:0:
213,230,179156,6,0,P|247:200|314:200,1,110.000003356934,4|8,1:0|0:0,0:0:0:0:
347,301,179804,2,0,L|403:314,1,55.0000016784668,0|0,1:0|1:0,0:0:0:0:
451,292,180128,1,8,0:0:0:0:
509,198,180453,2,0,L|455:185,1,55.0000016784668,0|0,1:0|1:0,0:0:0:0:
400,189,180777,2,0,P|395:140|436:95,1,110.000003356934,8|0,0:0|1:0,0:0:0:0:
487,91,181264,1,0,1:0:0:0:
501,37,181426,2,0,P|477:7|402:14,1,110.000003356934,8|4,0:0|1:0,0:0:0:0:
324,76,182074,6,0,L|201:104,1,110.000003356934,8|0,0:0|1:0,0:0:0:0:
167,75,182561,1,0,1:0:0:0:
184,22,182723,1,8,0:0:0:0:
75,40,183047,2,0,P|48:33|24:19,2,55.0000016784668,0|0|8,1:0|1:0|0:0,0:0:0:0:
78,150,183696,2,0,P|92:178|95:210,1,55.0000016784668,0|2,1:0|1:2,0:0:0:0:
137,236,184020,2,0,P|165:222|197:219,1,55.0000016784668,8|10,0:0|0:0,0:0:0:0:
210,167,184345,5,4,1:2:0:0:
317,188,184669,1,12,0:0:0:0:
291,294,184993,2,0,L|233:312,1,55.0000016784668,2|2,1:0|1:0,0:0:0:0:
187,331,185318,1,10,0:0:0:0:
84,370,185642,5,4,1:2:0:0:
9,289,185966,2,0,L|20:231,1,55.0000016784668,12|0,0:0|1:0,0:0:0:0:
63,201,186291,2,0,L|52:143,1,55.0000016784668,2|2,1:0|1:0,0:0:0:0:
15,106,186615,1,10,0:0:0:0:
91,26,186939,6,0,P|127:49|205:63,1,110.000003356934,4|8,1:0|0:0,0:0:0:0:
291,15,187588,2,0,L|354:3,2,55.0000016784668,0|0|8,1:0|1:0|0:0,0:0:0:0:
313,123,188237,2,0,P|300:152|298:186,1,55.0000016784668,0|0,1:0|1:0,0:0:0:0:
275,225,188561,2,0,P|310:207|386:206,1,110.000003356934,8|0,0:0|1:0,0:0:0:0:
416,244,189047,1,0,1:0:0:0:
395,295,189210,1,8,0:0:0:0:
312,367,189534,6,0,P|291:353|248:346,1,55.0000016784668,4|0,1:0|0:0,0:0:0:0:
225,304,189858,2,0,P|204:318|161:325,1,55.0000016784668,8|0,0:0|0:0,0:0:0:0:
137,365,190183,1,0,1:0:0:0:
55,291,190507,1,8,0:0:0:0:
136,216,190831,2,0,L|156:95,1,110.000003356934,0|8,1:0|0:0,0:0:0:0:
87,19,191480,2,0,P|60:33|25:37,1,55.0000016784668,0|0,1:0|1:0,0:0:0:0:
5,82,191804,1,8,0:0:0:0:
5,82,191966,2,0,P|23:110|41:185,1,110.000003356934,8|0,0:0|1:0,0:0:0:0:
17,233,192453,5,8,0:0:0:0:
99,305,192777,2,0,L|86:365,2,55.0000016784668,0|0|8,1:0|1:0|0:0,0:0:0:0:
175,225,193426,2,0,L|231:210,1,55.0000016784668,0|0,1:0|1:0,0:0:0:0:
259,256,193750,2,0,P|294:292|365:300,1,110.000003356934,8|0,0:0|1:0,0:0:0:0:
398,274,194237,1,2,1:2:0:0:
383,220,194399,1,8,0:0:0:0:
470,154,194723,5,4,1:2:0:0:
441,47,195047,1,12,0:2:0:0:
337,85,195372,2,0,L|271:72,1,55.0000016784668,2|2,1:0|1:0,0:0:0:0:
228,67,195696,1,10,0:2:0:0:
130,117,196020,5,4,1:2:0:0:
165,221,196345,1,12,0:0:0:0:
274,187,196669,1,2,1:0:0:0:
274,187,196831,1,8,0:0:0:0:
274,187,196993,2,0,L|347:202,1,55.0000016784668,8|8,0:0|0:0,0:0:0:0:
361,241,197318,5,4,1:2:0:0:
330,346,197642,1,12,0:0:0:0:
226,310,197966,1,2,1:0:0:0:
172,323,198128,1,2,1:0:0:0:
143,370,198291,1,10,0:0:0:0:
256,192,198615,12,4,199912,1:0:0:0:
