osu file format v14

[General]
AudioFilename: audio.mp3
AudioLeadIn: 0
PreviewTime:44237
Countdown: 0
SampleSet: Soft
StackLeniency: 0.8
Mode: 0
LetterboxInBreaks: 0
WidescreenStoryboard: 1

[Editor]
Bookmarks: 129,5318,15696,26074,36453,46831,57210,67588,70183,80561,90939,101318,111696,124669,135047,145426,155804,163588,166183,176561,186939,199912,204777
DistanceSpacing: 0.6
BeatDivisor: 4
GridSize: 16
TimelineZoom: 1

[Metadata]
Title:LosT
TitleUnicode:LosT
Artist:Bring Me The Horizon
ArtistUnicode:Bring Me The Horizon
Creator:Embo
Version:InSanE
Source:
Tags:english alternative alt emo rock hyperpop bmth Oliver Oli Sykes Matt Nicholls Lee Malia Kean Jordan Fish post human: nex gen
BeatmapID:4258134
BeatmapSetID:2041071

[Difficulty]
HPDrainRate:5.5
CircleSize:4
OverallDifficulty:7.5
ApproachRate:9
SliderMultiplier:1.7
SliderTickRate:1

[Events]
//Background and Video events
0,0,"lostbg.jpg",0,0
//Break Periods
2,124869,129258
2,156004,162988
//Storyboard Layer 0 (Background)
//Storyboard Layer 1 (Fail)
//Storyboard Layer 2 (Pass)
//Storyboard Layer 3 (Foreground)
//Storyboard Layer 4 (Overlay)
//Storyboard Sound Samples

[TimingPoints]
129,324.324324324324,4,2,1,55,1,0
129,-142.857142857143,4,2,1,55,0,0
5318,-100,4,2,1,70,0,0
6291,-100,4,2,1,70,0,0
7912,-100,4,2,1,70,0,0
8237,-100,4,2,1,70,0,0
10507,-100,4,2,1,70,0,0
10831,-100,4,2,1,70,0,0
13426,-100,4,2,1,70,0,0
14074,-100,4,2,1,70,0,0
14399,-100,4,2,1,70,0,0
15047,-200,4,2,1,30,0,0
15696,-125,4,2,1,60,0,0
36453,-111.111111111111,4,2,1,65,0,0
44237,-200,4,2,1,30,0,0
45534,-200,4,2,1,30,0,0
46183,-200,4,2,1,30,0,0
46831,-90.9090909090909,4,2,1,80,0,1
48453,-90.9090909090909,4,2,1,80,0,1
49101,-90.9090909090909,4,2,1,80,0,1
49426,-90.9090909090909,4,2,1,80,0,1
51047,-90.9090909090909,4,2,1,80,0,1
51696,-90.9090909090909,4,2,1,80,0,1
52345,-90.9090909090909,4,2,1,80,0,1
54615,-83.3333333333333,4,2,1,80,0,1
57210,-90.9090909090909,4,2,1,80,0,1
58831,-90.9090909090909,4,2,1,80,0,1
59480,-90.9090909090909,4,2,1,80,0,1
59804,-90.9090909090909,4,2,1,80,0,1
60128,-90.9090909090909,4,2,1,80,0,1
61426,-90.9090909090909,4,2,1,80,0,1
62074,-90.9090909090909,4,2,1,80,0,1
62723,-90.9090909090909,4,2,1,80,0,1
64993,-83.3333333333333,4,2,1,80,0,1
67588,-142.857142857143,4,2,1,60,0,0
70183,-125,4,2,1,60,0,0
88507,-166.666666666667,4,2,1,60,0,0
88993,-125,4,2,1,60,0,0
90939,-100,4,2,1,65,0,0
96128,-100,4,2,1,65,0,0
98723,-125,4,2,1,65,0,0
99047,-100,4,2,1,65,0,0
99372,-111.111111111111,4,2,1,65,0,0
99696,-100,4,2,1,65,0,0
100020,-100,4,2,1,65,0,0
101318,-86.9565217391304,4,2,1,80,0,1
102938,-86.9565217391304,4,2,1,80,0,1
103586,-86.9565217391304,4,2,1,80,0,1
103911,-86.9565217391304,4,2,1,80,0,1
105532,-86.9565217391304,4,2,1,80,0,1
106181,-86.9565217391304,4,2,1,80,0,1
106830,-86.9565217391304,4,2,1,80,0,1
109100,-80,4,2,1,80,0,1
111695,-86.9565217391304,4,2,1,80,0,1
113316,-86.9565217391304,4,2,1,80,0,1
113965,-86.9565217391304,4,2,1,80,0,1
114289,-86.9565217391304,4,2,1,80,0,1
114613,-86.9565217391304,4,2,1,80,0,1
115911,-86.9565217391304,4,2,1,80,0,1
116559,-86.9565217391304,4,2,1,80,0,1
117208,-86.9565217391304,4,2,1,80,0,1
119478,-80,4,2,1,80,0,1
124669,-100,4,2,1,80,0,0
124750,-100,4,2,1,5,0,0
129858,-166.666666666667,4,2,1,50,0,0
131156,-142.857142857143,4,2,1,50,0,0
132453,-125,4,2,1,50,0,0
135047,-100,4,2,1,70,0,0
135696,-100,4,2,1,70,0,0
135858,-100,4,2,1,70,0,0
136993,-100,4,2,1,70,0,0
137318,-100,4,2,1,70,0,0
138291,-100,4,2,1,70,0,0
138453,-100,4,2,1,70,0,0
138777,-100,4,2,1,70,0,0
138939,-100,4,2,1,70,0,0
139912,-100,4,2,1,70,0,0
140237,-83.3333333333333,4,2,1,70,0,0
140885,-100,4,2,1,70,0,0
142507,-100,4,2,1,70,0,0
143318,-100,4,2,1,70,0,0
143804,-100,4,2,1,70,0,0
144128,-83.3333333333333,4,2,1,70,0,0
145101,-125,4,2,1,70,0,0
145426,-90.9090909090909,4,2,1,75,0,0
146074,-90.9090909090909,4,2,1,75,0,0
146399,-90.9090909090909,4,2,1,75,0,0
146885,-90.9090909090909,4,2,1,75,0,0
148020,-90.9090909090909,4,2,1,75,0,0
148669,-90.9090909090909,4,2,1,75,0,0
148831,-90.9090909090909,4,2,1,75,0,0
150291,-125,4,2,1,75,0,0
150615,-76.9230769230769,4,2,1,75,0,0
151264,-90.9090909090909,4,2,1,75,0,0
151750,-90.9090909090909,4,2,1,75,0,0
152074,-90.9090909090909,4,2,1,75,0,0
153210,-90.9090909090909,4,2,1,75,0,0
153858,-90.9090909090909,4,2,1,75,0,0
154507,-90.9090909090909,4,2,1,75,0,0
155480,-83.3333333333333,4,2,1,75,0,0
163588,-90.9090909090909,4,2,1,70,0,0
163912,-90.9090909090909,4,2,1,70,0,0
164885,-90.9090909090909,4,2,1,70,0,0
166183,-90.9090909090909,4,2,1,80,0,1
172507,-90.9090909090909,4,2,1,80,0,1
173318,-90.9090909090909,4,2,1,80,0,1
173966,-83.3333333333333,4,2,1,80,0,1
176559,-83.3333333333333,4,2,1,80,0,1
178181,-83.3333333333333,4,2,1,80,0,1
178829,-83.3333333333333,4,2,1,80,0,1
179154,-83.3333333333333,4,2,1,80,0,1
180775,-83.3333333333333,4,2,1,80,0,1
181424,-83.3333333333333,4,2,1,80,0,1
181750,-83.3333333333333,4,2,1,80,0,1
182073,-83.3333333333333,4,2,1,80,0,1
184343,-76.9230769230769,4,2,1,80,0,1
186938,-83.3333333333333,4,2,1,80,0,1
188559,-83.3333333333333,4,2,1,80,0,1
189208,-83.3333333333333,4,2,1,80,0,1
189532,-83.3333333333333,4,2,1,80,0,1
189856,-83.3333333333333,4,2,1,80,0,1
191154,-83.3333333333333,4,2,1,80,0,1
191802,-83.3333333333333,4,2,1,80,0,1
192451,-83.3333333333333,4,2,1,80,0,1
194721,-76.9230769230769,4,2,1,80,0,1
198939,-76.9230769230769,4,2,1,85,0,1
199264,-76.9230769230769,4,2,1,90,0,1
199588,-76.9230769230769,4,2,1,95,0,1
199912,-125,4,2,1,60,0,0
204128,-166.666666666667,4,2,1,60,0,0

[Colours]
Combo1 : 187,34,187
Combo2 : 98,174,157
Combo3 : 186,44,118
Combo4 : 63,166,177

[HitObjects]
0,373,129,6,0,P|41:360|86:331,1,89.2499972763062,0|0,1:0|0:0,0:0:0:0:
90,321,453,1,8,0:0:0:0:
33,270,615,1,0,1:0:0:0:
0,143,939,1,0,0:0:0:0:
50,82,1101,2,0,L|111:67,1,59.4999981842042,8|0,0:0|1:0,0:0:0:0:
150,3,1426,2,0,P|183:26|203:86,1,89.2499972763062,0|0,1:0|0:0,0:0:0:0:
194,84,1750,2,0,P|177:120|191:182,1,89.2499972763062,8|0,0:0|0:0,0:0:0:0:
193,178,2074,1,0,1:0:0:0:
263,142,2237,1,10,0:0:0:0:
307,206,2399,2,0,L|292:271,1,59.4999981842042,0|10,1:0|0:0,0:0:0:0:
365,354,2723,6,0,P|410:345|446:308,1,89.2499972763062,0|0,1:0|0:0,0:0:0:0:
447,304,3047,1,8,0:0:0:0:
422,230,3210,1,0,1:0:0:0:
497,110,3534,1,0,0:0:0:0:
432,71,3696,2,0,L|365:90,1,59.4999981842042,8|0,0:0|1:0,0:0:0:0:
327,146,4020,2,0,P|301:119|281:43,1,89.2499972763062,0|0,1:0|0:0,0:0:0:0:
281,57,4345,2,0,P|248:83|229:176,1,118.999996368408,8|0,0:0|0:0,0:0:0:0:
269,222,4831,5,8,0:0:0:0:
292,226,4912,1,8,0:0:0:0:
315,230,4993,1,8,0:0:0:0:
285,303,5156,1,8,0:0:0:0:
148,175,5318,5,4,1:0:0:0:
148,175,5480,1,0,0:0:0:0:
114,346,5642,1,8,0:0:0:0:
114,346,5804,1,0,3:0:0:0:
18,228,5966,2,0,L|38:140,1,85,0|0,1:0|1:0,0:0:0:0:
212,347,6291,2,0,L|193:264,1,85,8|0,0:0|3:0,0:0:0:0:
193,241,6534,5,0,3:0:0:0:
193,241,6615,2,0,P|226:213|277:205,1,85,2|0,1:2|1:0,0:0:0:0:
128,60,6939,2,0,P|86:50|55:23,1,85,10|0,0:2|0:0,0:0:0:0:
284,27,7264,1,0,1:0:0:0:
165,145,7426,1,2,1:2:0:0:
194,1,7588,1,8,0:0:0:0:
269,126,7750,1,2,3:0:0:0:
108,212,7912,6,0,L|4:192,1,85,4|0,1:0|0:0,0:0:0:0:
160,329,8237,1,8,0:0:0:0:
160,329,8399,1,0,3:0:0:0:
258,206,8561,2,0,P|274:165|264:116,1,85,0|0,1:0|1:0,0:0:0:0:
329,353,8885,2,0,P|370:369|419:359,1,85,8|0,0:0|3:0,0:0:0:0:
430,354,9128,5,0,3:0:0:0:
430,354,9210,2,0,L|445:266,1,85,2|0,1:2|1:0,0:0:0:0:
353,116,9534,2,0,L|368:28,1,85,10|0,0:2|3:0,0:0:0:0:
272,184,9858,1,0,1:0:0:0:
438,119,10020,1,0,1:0:0:0:
259,191,10183,1,10,0:0:0:0:
450,278,10345,1,8,0:0:0:0:
450,278,10426,1,8,0:0:0:0:
450,278,10507,6,0,L|436:222,1,42.5,4|0,1:0|0:0,0:0:0:0:
358,170,10669,2,0,L|344:114,1,42.5,0|0,1:0|0:0,0:0:0:0:
435,38,10831,1,8,0:0:0:0:
435,38,10993,1,0,3:0:0:0:
289,73,11156,2,0,P|257:121|271:156,1,85,0|0,1:0|1:0,0:0:0:0:
446,158,11480,2,0,L|353:178,1,85,8|0,0:0|3:0,0:0:0:0:
345,171,11723,5,0,3:0:0:0:
345,171,11804,2,0,L|366:266,1,85,2|0,1:2|1:0,0:0:0:0:
160,117,12128,2,0,L|181:212,1,85,10|0,0:0|0:0,0:0:0:0:
335,20,12453,1,0,1:0:0:0:
248,162,12615,1,2,1:2:0:0:
185,13,12777,1,8,0:0:0:0:
315,99,12939,1,2,3:0:0:0:
168,198,13101,5,4,1:0:0:0:
168,198,13264,1,0,1:0:0:0:
322,106,13426,2,0,L|412:126,1,85,8|0,0:0|1:0,0:0:0:0:
143,115,13750,5,0,1:0:0:0:
143,115,13912,1,0,1:0:0:0:
336,198,14074,2,0,L|426:218,1,85,8|0,0:0|1:0,0:0:0:0:
186,284,14399,5,0,1:2:0:0:
186,284,14561,1,0,1:0:0:0:
315,99,14723,2,0,L|405:119,1,85,8|0,0:2|1:0,0:0:0:0:
92,41,15047,6,0,L|80:-4,3,42.5,2|2|2|2,0:0|0:0|0:0|0:0,0:0:0:0:
30,102,15696,6,0,P|5:145|3:207,1,102,2|0,1:2|0:2,0:2:0:0:
8,208,16020,2,0,L|77:219,1,68,10|0,0:2|1:2,0:0:0:0:
0,305,16345,2,0,L|116:324,1,102,2|0,1:2|0:0,0:2:0:0:
110,327,16669,2,0,P|124:287|143:260,1,68,10|0,0:2|1:2,0:0:0:0:
247,216,16993,2,0,P|268:184|205:128,1,136,2|10,1:2|0:2,0:2:0:0:
123,155,17480,2,0,P|105:126|94:93,1,68,2|0,0:2|1:2,0:0:0:0:
142,11,17804,1,8,0:2:0:0:
94,93,17966,1,2,1:2:0:0:
224,39,18128,1,10,0:2:0:0:
276,161,18291,6,0,L|292:267,1,102,2|0,1:2|0:2,0:2:0:0:
294,274,18615,2,0,P|266:300|223:310,1,68,10|0,0:2|1:2,0:0:0:0:
362,334,18939,2,0,P|411:345|450:378,1,102,2|0,1:2|0:0,0:2:0:0:
457,380,19264,2,0,L|466:303,1,68,10|0,0:2|1:2,0:0:0:0:
376,228,19588,2,0,P|396:184|482:188,1,136,2|10,1:2|0:2,0:2:0:0:
464,312,20074,2,0,L|377:337,1,68,2|0,0:2|1:2,0:2:0:0:
278,233,20399,5,8,0:2:0:0:
274,259,20480,1,8,0:2:0:0:
270,285,20561,1,8,0:2:0:0:
200,244,20723,1,10,0:2:0:0:
341,130,20885,6,0,P|377:115|438:74,1,102,2|0,1:2|0:2,0:2:0:0:
434,72,21210,2,0,P|427:35|392:11,1,68,10|0,0:2|1:2,0:0:0:0:
266,121,21534,2,0,P|272:76|322:48,1,102,2|0,1:2|0:0,0:2:0:0:
325,54,21858,2,0,L|339:125,1,68,10|0,0:2|1:2,0:0:0:0:
265,235,22183,2,0,P|305:246|337:265,1,68,2|0,1:2|0:0,0:2:0:0:
183,175,22507,2,0,P|152:190|119:198,1,68,10|0,0:2|0:2,0:2:0:0:
237,98,22831,1,2,1:2:0:0:
268,226,22993,1,8,0:2:0:0:
318,144,23156,1,2,1:2:0:0:
187,180,23318,1,10,0:2:0:0:
147,40,23480,5,0,1:2:0:0:
147,40,23804,5,8,0:2:0:0:
221,22,23966,1,0,1:2:0:0:
298,7,24128,1,0,1:2:0:0:
298,7,24453,5,8,0:2:0:0:
276,80,24615,1,0,1:2:0:0:
258,155,24777,1,0,1:2:0:0:
258,155,25101,5,8,0:2:0:0:
147,40,25426,1,0,1:2:0:0:
202,97,25588,5,8,0:2:0:0:
194,122,25669,1,8,0:2:0:0:
187,148,25750,1,8,0:2:0:0:
276,80,25912,1,10,0:2:0:0:
108,129,26074,6,0,P|71:123|7:83,1,102,2|0,1:2|0:2,0:2:0:0:
9,82,26399,2,0,L|26:14,1,68,10|0,0:2|1:2,0:0:0:0:
111,138,26723,2,0,L|94:203,1,68,2|0,1:2|0:2,0:2:0:0:
13,260,27047,1,10,0:2:0:0:
13,260,27210,1,0,1:2:0:0:
78,359,27372,2,0,P|104:331|173:326,1,102,2|0,1:2|0:2,0:2:0:0:
172,333,27696,2,0,L|276:357,1,102,10|0,0:2|0:2,0:2:0:0:
281,368,28020,1,2,1:2:0:0:
375,279,28183,1,8,0:2:0:0:
313,234,28345,1,0,1:2:0:0:
373,362,28507,1,10,0:2:0:0:
233,261,28669,5,2,1:2:0:0:
233,261,28831,2,0,P|215:228|209:192,1,68,2|8,0:2|0:2,0:2:0:0:
355,134,29156,2,0,P|318:123|289:102,1,68,2|0,1:2|1:2,0:0:0:0:
214,17,29480,1,2,0:2:0:0:
214,17,29642,1,8,0:2:0:0:
290,112,29804,2,0,L|304:38,1,68,2|0,1:2|1:2,0:0:0:0:
200,199,30128,2,0,L|94:174,1,102,2|0,0:2|0:0,0:2:0:0:
94,166,30453,2,0,P|104:129|125:100,1,68,2|0,0:2|1:2,0:2:0:0:
235,19,30777,5,8,0:2:0:0:
208,12,30858,1,8,0:2:0:0:
181,6,30939,1,8,0:2:0:0:
196,85,31101,1,10,0:2:0:0:
312,6,31264,6,0,P|341:30|357:104,1,102,2|0,1:2|0:2,0:2:0:0:
352,97,31588,2,0,L|282:114,1,68,10|0,0:2|1:2,0:0:0:0:
435,169,31912,2,0,L|501:152,1,68,2|0,1:2|0:2,0:2:0:0:
345,197,32237,1,10,0:2:0:0:
345,197,32399,1,0,1:2:0:0:
436,89,32561,2,0,P|449:55|475:29,1,68,2|0,1:2|0:0,0:2:0:0:
428,177,32885,2,0,P|450:202|462:233,1,68,10|0,0:2|0:0,0:2:0:0:
360,305,33210,1,2,1:2:0:0:
488,366,33372,1,10,0:2:0:0:
511,295,33534,1,0,1:2:0:0:
408,374,33696,1,10,0:2:0:0:
290,276,33858,6,0,L|181:303,1,102,0|0,1:2|0:2,0:2:0:0:
185,311,34183,5,8,0:2:0:0:
129,256,34345,1,0,1:2:0:0:
74,204,34507,1,0,1:2:0:0:
74,204,34669,2,0,L|83:164,1,34,2|0,0:2|0:2,0:2:0:0:
155,178,34831,5,8,0:2:0:0:
132,262,34993,1,0,1:2:0:0:
112,346,35155,1,0,1:2:0:0:
112,346,35318,2,0,L|119:379,1,34,2|0,0:2|0:2,0:2:0:0:
20,295,35480,5,8,0:2:0:0:
230,235,35804,1,0,1:2:0:0:
126,265,35966,5,8,0:2:0:0:
99,257,36047,1,8,0:2:0:0:
73,249,36128,1,8,0:2:0:0:
143,189,36291,1,8,0:2:0:0:
14,58,36453,5,0,1:2:0:0:
70,4,36615,2,0,P|130:20|158:81,1,114.749996498108,2|0,0:2|0:0,0:2:0:0:
155,74,36939,1,2,1:2:0:0:
53,168,37101,2,0,L|130:187,1,76.4999976654053,2|0,1:2|0:0,0:2:0:0:
210,269,37426,1,10,0:2:0:0:
126,196,37588,2,0,L|254:163,1,114.749996498108,2|0,1:2|0:2,0:2:0:0:
244,158,37912,1,2,0:2:0:0:
330,53,38074,2,0,P|302:30|249:35,1,76.4999976654053,10|0,0:2|0:2,0:0:0:0:
248,47,38318,5,0,0:2:0:0:
248,47,38399,1,2,1:1:0:0:
319,185,38561,1,8,0:2:0:0:
244,158,38723,1,2,1:1:0:0:
399,89,38885,1,8,0:2:0:0:
416,251,39047,5,2,1:2:0:0:
485,217,39210,2,0,P|509:174|509:97,1,114.749996498108,2|0,0:2|0:0,0:2:0:0:
507,98,39534,1,2,1:2:0:0:
341,18,39696,2,0,L|429:-2,1,76.4999976654053,2|0,1:2|0:0,0:2:0:0:
320,97,40020,1,10,0:2:0:0:
411,9,40183,2,0,L|437:128,1,114.749996498108,2|0,1:2|0:2,0:2:0:0:
430,130,40507,1,2,0:2:0:0:
308,188,40669,2,0,P|272:179|234:153,1,76.4999976654053,10|0,0:2|0:2,0:2:0:0:
324,295,40993,1,2,1:1:0:0:
435,271,41156,5,8,0:2:0:0:
441,241,41237,1,8,0:2:0:0:
448,211,41318,1,10,0:2:0:0:
512,259,41480,1,8,0:2:0:0:
358,377,41642,5,2,1:2:0:0:
427,349,41804,2,0,P|368:336|314:295,1,114.749996498108,2|0,0:2|0:0,0:2:0:0:
319,290,42128,1,2,1:2:0:0:
201,383,42291,2,0,L|181:301,1,76.4999976654053,2|0,1:2|0:0,0:2:0:0:
89,237,42615,1,10,0:2:0:0:
192,313,42777,2,0,L|219:199,1,114.749996498108,2|0,1:2|0:2,0:2:0:0:
212,190,43101,2,0,L|130:170,1,76.4999976654053,2|8,0:2|0:2,0:2:0:0:
51,67,43426,1,2,0:2:0:0:
173,95,43588,5,2,1:1:0:0:
1,162,43750,1,8,0:2:0:0:
42,72,43912,1,2,1:1:0:0:
100,264,44074,1,8,0:2:0:0:
44,320,44237,6,0,L|2:331,3,42.5,0|0|0|0,3:0|3:0|3:0|3:0,0:0:0:0:
0,320,44885,2,0,L|42:331,3,42.5,0|0|0|0,3:0|3:0|3:0|3:0,0:0:0:0:
129,339,45534,6,0,L|118:381,3,42.5,0|0|0|0,3:0|3:0|3:0|3:0,0:0:0:0:
184,281,46183,2,0,L|173:239,2,42.5,8|8|4,3:0|3:0|3:0,3:0:0:0:
1,72,46831,6,0,P|40:102|132:131,1,140.25000428009,4|0,1:0|0:0,0:0:0:0:
190,93,47156,2,0,L|207:-4,1,93.5000028533936,8|0,0:0|0:0,0:0:0:0:
310,230,47480,1,0,1:0:0:0:
192,175,47642,1,0,1:0:0:0:
306,63,47804,2,0,P|332:39|391:25,1,93.5000028533936,8|0,0:0|0:0,0:0:0:0:
419,40,48047,5,0,3:0:0:0:
419,40,48128,2,0,L|441:146,1,93.5000028533936,0|0,1:0|1:0,0:0:0:0:
297,240,48453,2,0,L|319:346,1,93.5000028533936,8|0,0:0|0:0,0:0:0:0:
230,106,48777,1,0,1:0:0:0:
379,176,48939,1,0,1:0:0:0:
220,250,49101,1,8,0:0:0:0:
220,250,49264,1,0,3:0:0:0:
392,384,49426,6,0,P|402:326|434:250,1,140.25000428009,4|0,1:0|0:0,0:0:0:0:
494,212,49750,2,0,L|376:178,1,93.5000028533936,8|0,0:0|0:0,0:0:0:0:
216,336,50074,1,0,1:0:0:0:
331,291,50237,1,0,1:0:0:0:
202,161,50399,2,0,P|169:204|179:261,1,93.5000028533936,8|0,0:0|0:0,0:0:0:0:
183,261,50642,5,0,3:0:0:0:
183,261,50723,2,0,L|281:236,1,93.5000028533936,0|0,1:0|1:0,0:0:0:0:
21,123,51047,2,0,L|111:99,1,93.5000028533936,8|0,0:0|0:0,0:0:0:0:
55,331,51372,1,0,1:0:0:0:
0,199,51534,1,0,1:0:0:0:
130,373,51696,6,0,L|138:309,1,46.7500014266968,8|0,0:0|0:0,0:0:0:0:
222,216,51858,1,8,0:0:0:0:
199,211,51939,1,8,0:0:0:0:
176,206,52020,6,0,P|113:167|79:110,1,140.25000428009,4|0,1:0|0:0,0:0:0:0:
3,92,52345,2,0,L|18:-3,1,93.5000028533936,8|0,0:0|0:0,0:0:0:0:
99,213,52669,1,0,1:0:0:0:
99,213,52831,1,0,1:0:0:0:
212,72,52993,2,0,P|171:44|117:59,1,93.5000028533936,8|0,0:0|3:0,0:0:0:0:
295,222,53318,5,0,1:0:0:0:
205,178,53480,1,0,1:0:0:0:
367,49,53642,2,0,P|372:94|345:131,1,93.5000028533936,8|0,0:0|0:0,0:0:0:0:
211,42,53966,1,0,1:0:0:0:
211,42,54128,1,2,1:2:0:0:
348,136,54291,1,8,0:0:0:0:
348,136,54453,1,2,3:0:0:0:
193,256,54615,6,0,P|143:241|94:231,1,101.999996887207,4|0,1:2|1:0,0:0:0:0:
291,21,54939,2,0,P|276:71|266:120,1,101.999996887207,12|0,0:0|1:0,0:0:0:0:
432,308,55264,5,2,1:0:0:0:
255,208,55426,1,2,1:0:0:0:
432,308,55588,2,0,P|470:270|471:212,1,101.999996887207,10|0,0:0|1:0,0:0:0:0:
299,384,55912,6,0,P|288:334|274:285,1,101.999996887207,4|0,1:2|1:0,0:0:0:0:
419,137,56237,1,12,0:0:0:0:
244,217,56399,1,0,1:0:0:0:
419,137,56561,1,2,1:0:0:0:
252,55,56723,5,8,0:0:0:0:
245,30,56804,1,8,0:0:0:0:
239,5,56885,1,8,0:0:0:0:
330,218,57047,1,8,0:0:0:0:
337,193,57128,1,8,0:0:0:0:
343,168,57210,6,0,P|285:131|200:148,1,140.25000428009,4|0,1:0|0:0,0:0:0:0:
172,200,57534,2,0,L|201:301,1,93.5000028533936,8|0,0:0|0:0,0:0:0:0:
30,147,57858,1,0,1:0:0:0:
159,93,58020,1,0,1:0:0:0:
87,266,58183,2,0,P|33:253|2:220,1,93.5000028533936,8|0,0:0|0:0,0:0:0:0:
6,218,58426,5,0,3:0:0:0:
6,218,58507,2,0,L|-13:339,1,93.5000028533936,0|0,1:0|1:0,0:0:0:0:
192,163,58831,2,0,L|173:284,1,93.5000028533936,8|0,0:0|0:0,0:0:0:0:
7,54,59156,1,0,1:0:0:0:
85,174,59318,1,0,1:0:0:0:
151,14,59480,1,8,0:0:0:0:
151,14,59642,1,0,3:0:0:0:
263,198,59804,6,0,P|302:172|375:157,1,93.5000028533936,4|0,1:0|0:0,0:0:0:0:
498,40,60128,2,0,P|453:26|414:0,1,93.5000028533936,8|0,0:0|0:0,0:0:0:0:
417,213,60453,1,0,1:0:0:0:
511,115,60615,1,0,1:0:0:0:
315,91,60777,2,0,L|335:-11,1,93.5000028533936,8|0,0:0|0:0,0:0:0:0:
503,197,61101,6,0,L|474:341,1,140.25000428009,0|0,1:0|0:0,0:0:0:0:
466,340,61426,2,0,L|412:327,1,46.7500014266968,8|0,0:0|0:0,0:0:0:0:
346,235,61588,2,0,L|292:222,1,46.7500014266968,8|0,0:0|0:0,0:0:0:0:
235,330,61750,1,0,1:0:0:0:
235,330,61912,1,0,1:0:0:0:
205,161,62074,6,0,L|194:206,1,46.7500014266968,8|0,0:0|0:0,0:0:0:0:
307,302,62237,1,8,0:0:0:0:
313,324,62318,1,8,0:0:0:0:
319,346,62399,6,0,P|333:279|375:211,1,140.25000428009,4|0,1:0|0:0,0:0:0:0:
437,182,62723,2,0,L|412:66,1,93.5000028533936,8|0,0:0|0:0,0:0:0:0:
282,8,63047,1,0,1:0:0:0:
282,8,63210,1,0,1:0:0:0:
206,177,63372,2,0,P|160:167|110:136,1,93.5000028533936,8|0,0:0|3:0,0:0:0:0:
325,77,63696,5,0,1:0:0:0:
342,170,63858,1,0,1:0:0:0:
203,0,64020,2,0,L|183:91,1,93.5000028533936,8|0,0:0|0:0,0:0:0:0:
66,229,64345,1,0,1:0:0:0:
222,167,64507,1,2,1:2:0:0:
61,83,64669,6,0,L|-2:102,1,46.7500014266968,8|0,0:0|0:0,0:0:0:0:
148,225,64831,1,10,0:0:0:0:
142,202,64912,1,10,0:0:0:0:
136,179,64993,6,0,P|149:134|185:88,1,101.999996887207,4|0,1:2|1:0,0:0:0:0:
88,383,65318,2,0,P|43:370|-3:334,1,101.999996887207,12|0,0:2|1:0,0:0:0:0:
263,343,65642,1,2,1:0:0:0:
77,282,65804,1,2,1:0:0:0:
263,343,65966,2,0,L|277:240,1,101.999996887207,10|0,0:2|1:0,0:0:0:0:
106,75,66291,6,0,P|66:106|17:121,1,101.999996887207,4|0,1:2|1:0,0:0:0:0:
302,0,66615,2,0,P|333:39|348:88,1,101.999996887207,12|0,0:2|1:0,0:0:0:0:
139,0,66939,1,2,1:0:0:0:
237,160,67101,1,8,0:0:0:0:
237,160,67183,1,8,0:0:0:0:
237,160,67264,1,8,0:0:0:0:
261,166,67345,1,8,0:0:0:0:
285,172,67426,1,8,0:0:0:0:
309,178,67507,1,8,0:0:0:0:
329,184,67588,6,0,P|375:157|429:147,1,89.2499972763062,0|0,1:0|0:0,0:0:0:0:
422,155,67912,1,8,0:0:0:0:
446,229,68074,1,0,1:0:0:0:
389,357,68399,1,0,0:0:0:0:
326,315,68561,2,0,L|262:301,1,59.4999981842042,8|0,0:0|1:0,0:0:0:0:
367,249,68885,1,0,1:0:0:0:
367,249,70020,1,2,0:2:0:0:
447,154,70183,6,0,P|422:128|349:126,1,102,2|0,1:2|0:2,0:2:0:0:
351,127,70507,2,0,L|337:57,1,68,10|0,0:2|1:2,0:0:0:0:
224,0,70831,2,0,L|206:107,1,102,2|0,1:2|0:0,0:2:0:0:
201,111,71156,2,0,L|273:127,1,68,10|0,0:2|1:2,0:0:0:0:
156,197,71480,2,0,P|118:219|128:311,1,136,2|10,1:2|0:2,0:2:0:0:
213,322,71966,2,0,P|246:305|290:293,1,68,2|0,0:2|1:2,0:0:0:0:
152,384,72291,1,8,0:2:0:0:
213,322,72453,1,0,1:2:0:0:
88,279,72615,1,8,0:2:0:0:
234,220,72777,5,2,1:2:0:0:
234,220,72939,2,0,P|195:207|156:185,1,68,2|8,0:2|0:2,0:2:0:0:
119,96,73264,2,0,P|88:111|56:121,1,68,2|0,1:2|1:2,0:0:0:0:
0,208,73588,1,2,0:2:0:0:
0,208,73750,1,8,0:2:0:0:
51,116,73912,2,0,L|40:44,1,68,2|0,1:2|1:2,0:0:0:0:
95,204,74237,2,0,L|79:307,1,102,2|0,0:2|0:0,0:2:0:0:
72,314,74561,2,0,L|-2:303,1,68,2|0,0:2|1:2,0:2:0:0:
157,373,74885,5,8,0:2:0:0:
183,366,74966,1,8,0:2:0:0:
209,359,75047,1,8,0:2:0:0:
166,291,75210,1,8,0:2:0:0:
241,166,75372,6,0,P|271:142|341:123,1,102,2|0,1:2|0:2,0:2:0:0:
341,132,75696,2,0,L|352:207,1,68,10|0,0:2|1:2,0:0:0:0:
449,133,76020,2,0,P|473:98|443:38,1,102,2|0,1:2|0:0,0:2:0:0:
446,37,76345,2,0,L|378:27,1,68,10|0,0:2|1:2,0:0:0:0:
254,99,76669,2,0,P|243:60|224:28,1,68,2|0,1:2|0:0,0:2:0:0:
321,203,76993,2,0,P|360:192|392:173,1,68,10|0,0:2|0:2,0:2:0:0:
248,275,77318,1,2,1:2:0:0:
366,332,77480,1,10,0:2:0:0:
291,351,77642,1,0,1:2:0:0:
321,203,77804,1,10,0:2:0:0:
464,271,77966,5,0,1:2:0:0:
464,271,78290,5,8,0:2:0:0:
388,254,78452,1,0,1:2:0:0:
313,233,78614,1,0,1:2:0:0:
313,233,78939,5,8,0:2:0:0:
364,178,79101,1,0,1:2:0:0:
413,119,79263,1,0,1:2:0:0:
413,119,79587,5,8,0:2:0:0:
464,271,79912,1,0,1:2:0:0:
439,195,80074,5,8,0:2:0:0:
463,184,80155,1,8,0:2:0:0:
487,173,80237,1,8,0:2:0:0:
388,254,80399,1,10,0:2:0:0:
296,128,80561,6,0,P|288:93|249:31,1,102,2|0,1:2|0:2,0:2:0:0:
244,30,80885,2,0,L|325:10,1,68,10|0,0:2|1:2,0:0:0:0:
458,97,81210,2,0,L|391:113,1,68,2|0,1:2|0:2,0:2:0:0:
418,12,81534,1,10,0:2:0:0:
418,12,81696,1,0,1:2:0:0:
317,94,81858,2,0,P|289:136|275:185,1,102,2|0,1:2|0:2,0:2:0:0:
283,198,82183,1,10,0:2:0:0:
211,122,82345,2,0,L|138:109,1,68,2|0,0:2|1:2,0:0:0:0:
47,12,82669,1,8,0:2:0:0:
133,18,82831,1,2,1:2:0:0:
13,89,82993,1,10,0:2:0:0:
116,190,83156,6,0,P|137:228|142:256,1,68,2|0,1:2|0:2,0:2:0:0:
141,278,83399,1,2,0:2:0:0:
141,278,83480,1,8,0:2:0:0:
221,206,83642,2,0,L|287:192,1,68,2|0,1:2|1:2,0:0:0:0:
180,132,83966,1,2,0:2:0:0:
180,132,84128,1,8,0:2:0:0:
291,202,84291,2,0,P|329:221|365:228,1,68,2|0,1:2|1:2,0:0:0:0:
215,278,84615,2,0,P|189:328|180:376,1,102,2|0,0:2|0:0,0:2:0:0:
185,383,84939,2,0,P|147:364|111:357,1,68,2|0,0:2|1:2,0:2:0:0:
24,238,85264,5,8,0:2:0:0:
17,211,85345,1,8,0:2:0:0:
11,184,85426,1,8,0:2:0:0:
91,192,85588,1,10,0:2:0:0:
2,338,85750,6,0,P|42:326|74:302,1,68,2|0,1:2|0:0,0:0:0:0:
80,295,85993,1,2,0:0:0:0:
80,295,86074,1,8,0:0:0:0:
193,373,86237,2,0,L|207:299,1,68,2|0,1:2|1:2,0:0:0:0:
290,224,86561,1,2,0:2:0:0:
290,224,86723,1,8,0:2:0:0:
385,313,86885,2,0,P|352:321|323:339,1,68,2|0,1:2|1:2,0:2:0:0:
423,218,87210,2,0,P|414:185|374:126,1,102,2|0,0:2|0:0,0:2:0:0:
367,126,87534,2,0,L|379:47,1,68,2|0,0:2|1:2,0:0:0:0:
241,23,87858,1,10,0:2:0:0:
317,0,88020,1,0,1:2:0:0:
233,108,88183,1,10,0:2:0:0:
384,54,88345,5,0,3:0:0:0:
384,54,88507,2,0,L|416:38,2,25.4999992218018,0|0|0,3:0|3:0|3:0,3:0:0:0:
347,121,88831,1,0,3:0:0:0:
435,214,88993,6,0,L|477:223,1,34,2|0,3:0|3:0,3:0:0:0:
455,298,89156,2,0,L|421:290,2,34,0|0|0,3:0|3:0|3:0,0:0:0:0:
278,205,89480,6,0,L|287:163,1,34,2|0,3:0|3:0,3:0:0:0:
332,291,89642,2,0,L|324:325,2,34,0|0|0,3:0|3:0|3:0,0:0:0:0:
222,373,89966,6,0,L|214:339,1,34,2|0,3:0|3:0,3:0:0:0:
153,274,90128,1,0,3:0:0:0:
156,260,90210,1,0,3:0:0:0:
159,246,90291,1,0,3:0:0:0:
162,232,90372,1,0,3:0:0:0:
165,218,90453,2,0,L|176:172,1,34,0|0,3:0|3:0,0:0:0:0:
80,229,90615,6,0,L|46:237,1,34,2|0,3:0|3:0,3:0:0:0:
3,314,90777,1,0,3:0:0:0:
3,337,90858,1,0,3:0:0:0:
22,352,90939,5,2,1:2:0:0:
146,281,91101,2,0,L|252:303,1,85,2|8,0:2|0:2,0:2:0:0:
75,221,91426,1,2,1:2:0:0:
195,134,91588,2,0,P|217:98|206:13,1,127.5,2|0,1:2|0:2,0:2:0:0:
199,6,91912,1,10,0:2:0:0:
106,139,92074,2,0,L|77:9,1,127.5,2|0,1:2|0:2,0:2:0:0:
76,2,92399,1,2,0:2:0:0:
187,126,92561,2,0,L|285:99,1,85,10|0,0:2|3:2,0:0:0:0:
297,102,92804,5,0,3:2:0:0:
297,102,92885,1,2,1:1:0:0:
198,204,93047,1,8,0:2:0:0:
274,228,93210,1,2,1:1:0:0:
180,118,93372,1,8,0:2:0:0:
304,19,93534,5,2,1:2:0:0:
370,136,93696,2,0,P|379:92|397:49,1,85,2|8,0:2|0:2,0:2:0:0:
512,12,94020,1,2,1:2:0:0:
386,51,94183,2,0,P|431:87|443:186,1,127.5,2|0,1:2|0:2,0:2:0:0:
448,166,94507,1,10,0:2:0:0:
370,232,94669,1,8,3:3:0:0:
345,225,94750,1,4,3:3:0:0:
320,218,94831,1,0,1:2:0:0:
373,316,94993,1,0,1:2:0:0:
503,239,95156,6,0,L|481:333,1,85,8|0,0:2|1:2,0:0:0:0:
368,160,95480,1,2,1:1:0:0:
412,250,95642,1,8,0:2:0:0:
288,322,95804,1,2,1:1:0:0:
420,254,95966,1,8,0:2:0:0:
236,159,96128,5,2,1:2:0:0:
321,226,96291,2,0,P|278:236|239:265,1,85,2|8,0:2|0:2,0:2:0:0:
214,374,96615,1,2,1:2:0:0:
107,197,96777,2,0,P|151:234|179:313,1,127.5,2|0,1:2|0:2,0:2:0:0:
177,309,97101,1,10,0:2:0:0:
46,362,97264,2,0,L|28:271,1,85,2|0,1:2|0:0,0:2:0:0:
126,384,97588,1,2,0:2:0:0:
197,228,97750,2,0,L|215:137,1,85,10|0,0:2|3:2,0:2:0:0:
218,121,97993,5,0,3:2:0:0:
218,121,98074,1,2,1:1:0:0:
50,196,98237,1,8,0:2:0:0:
117,240,98399,1,2,1:1:0:0:
145,91,98561,1,8,0:2:0:0:
0,66,98723,6,0,L|81:46,1,68,0|0,1:2|1:2,0:0:0:0:
188,2,99047,1,8,0:2:0:0:
188,2,99210,1,0,1:2:0:0:
323,177,99372,6,0,L|242:157,1,76.4999976654053,0|0,1:2|1:2,0:0:0:0:
146,72,99696,1,8,0:2:0:0:
146,72,99858,1,0,1:2:0:0:
28,235,100020,5,8,0:2:0:0:
178,143,100183,1,0,1:2:0:0:
17,241,100345,1,8,0:2:0:0:
88,131,100507,1,8,0:0:0:0:
88,131,100588,1,8,0:0:0:0:
88,131,100669,5,8,3:0:0:0:
102,159,100750,1,8,3:0:0:0:
117,187,100831,1,8,3:0:0:0:
132,215,100912,1,8,3:0:0:0:
146,244,100993,5,4,3:0:0:0:
140,264,101075,1,4,3:0:0:0:
134,284,101156,1,4,3:0:0:0:
128,305,101237,1,4,3:0:0:0:
122,325,101318,6,0,P|170:282|266:267,1,146.62500279665,4|0,1:0|0:0,0:0:0:0:
323,288,101642,2,0,L|304:393,1,97.7500018644333,8|0,0:0|0:0,0:0:0:0:
495,252,101966,1,0,1:0:0:0:
390,185,102128,1,0,1:0:0:0:
470,357,102291,2,0,P|501:313|496:259,1,97.7500018644333,8|0,0:0|0:0,0:0:0:0:
495,252,102534,5,0,3:0:0:0:
495,252,102615,2,0,L|386:269,1,97.7500018644333,0|0,1:0|1:0,0:0:0:0:
287,92,102939,2,0,L|178:109,1,97.7500018644333,8|0,0:0|0:0,0:0:0:0:
335,0,103264,1,0,1:0:0:0:
464,44,103426,1,0,1:0:0:0:
337,166,103588,1,8,0:0:0:0:
337,166,103750,1,0,3:0:0:0:
218,0,103912,6,0,P|213:52|186:147,1,146.62500279665,4|0,1:0|0:0,0:0:0:0:
120,183,104237,2,0,L|100:85,1,97.7500018644333,8|0,0:0|0:0,0:0:0:0:
92,329,104561,1,0,1:0:0:0:
191,223,104723,1,0,1:0:0:0:
34,120,104885,2,0,P|6:165|2:225,1,97.7500018644333,8|0,0:0|0:0,0:0:0:0:
9,232,105128,5,0,3:0:0:0:
9,232,105210,2,0,L|109:253,1,97.7500018644333,0|0,1:0|1:0,0:0:0:0:
275,100,105534,2,0,L|179:79,1,97.7500018644333,8|0,0:0|0:0,0:0:0:0:
314,15,105858,1,0,1:0:0:0:
347,153,106020,1,0,1:0:0:0:
179,79,106183,6,0,L|190:24,1,48.8750009322167,8|0,0:0|0:0,0:0:0:0:
108,210,106345,1,8,0:0:0:0:
131,202,106426,1,8,0:0:0:0:
154,194,106507,6,0,P|222:214|274:277,1,146.62500279665,4|0,1:0|0:0,0:0:0:0:
244,339,106831,2,0,L|143:318,1,97.7500018644333,8|0,0:0|0:0,0:0:0:0:
7,384,107156,1,0,1:0:0:0:
7,384,107318,1,0,1:0:0:0:
57,177,107480,2,0,L|78:278,1,97.7500018644333,8|0,0:0|3:0,0:0:0:0:
272,257,107804,5,0,1:0:0:0:
242,384,107966,1,0,1:0:0:0:
76,272,108128,2,0,P|117:297|164:307,1,97.7500018644333,8|0,0:0|0:0,0:0:0:0:
284,180,108453,1,0,1:0:0:0:
284,180,108615,1,2,1:2:0:0:
169,313,108777,1,8,0:0:0:0:
169,313,108939,1,2,3:0:0:0:
50,150,109101,6,0,P|38:94|10:42,1,106.25,4|0,1:2|1:0,0:0:0:0:
258,262,109426,2,0,P|314:250|366:222,1,106.25,12|0,0:0|1:0,0:0:0:0:
42,233,109750,1,2,1:0:0:0:
208,162,109912,1,2,1:0:0:0:
42,233,110074,2,0,L|25:345,1,106.25,10|0,0:0|1:0,0:0:0:0:
134,50,110399,6,0,P|190:62|242:90,1,106.25,4|0,1:2|1:0,0:0:0:0:
346,291,110723,1,12,0:0:0:0:
391,109,110885,1,0,1:0:0:0:
346,291,111047,1,2,1:0:0:0:
227,173,111210,5,8,0:0:0:0:
252,165,111291,1,8,0:0:0:0:
277,157,111372,1,8,0:0:0:0:
420,249,111534,1,8,0:0:0:0:
445,257,111615,1,8,0:0:0:0:
470,265,111696,6,0,P|435:198|364:182,1,146.62500279665,4|0,1:0|0:0,0:0:0:0:
310,226,112020,2,0,L|299:336,1,97.7500018644333,8|0,0:0|0:0,0:0:0:0:
512,337,112345,1,0,1:0:0:0:
396,384,112507,1,0,1:0:0:0:
299,229,112669,2,0,P|286:177|260:138,1,97.7500018644333,8|0,0:0|0:0,0:0:0:0:
246,134,112912,5,0,3:0:0:0:
246,134,112993,2,0,L|267:28,1,97.7500018644333,0|0,1:0|1:0,0:0:0:0:
494,107,113318,2,0,L|515:1,1,97.7500018644333,8|0,0:0|0:0,0:0:0:0:
507,226,113642,1,0,1:0:0:0:
367,115,113804,1,0,1:0:0:0:
419,285,113966,1,8,0:0:0:0:
419,285,114128,1,0,3:0:0:0:
241,142,114291,6,0,P|246:101|281:56,1,97.7500018644333,4|0,1:0|0:0,0:0:0:0:
508,0,114615,2,0,P|469:16|413:8,1,97.7500018644333,8|0,0:0|0:0,0:0:0:0:
392,204,114939,1,0,1:0:0:0:
484,115,115101,1,0,1:0:0:0:
277,51,115264,2,0,L|166:77,1,97.7500018644333,8|0,0:0|0:0,0:0:0:0:
201,265,115588,6,0,L|44:301,1,146.62500279665,0|0,1:0|0:0,0:0:0:0:
49,293,115912,2,0,L|36:235,1,48.8750009322167,8|0,0:0|0:0,0:0:0:0:
122,152,116074,2,0,L|109:94,1,48.8750009322167,8|0,0:0|0:0,0:0:0:0:
0,48,116237,1,0,1:0:0:0:
0,48,116399,1,0,1:0:0:0:
160,2,116561,6,0,L|102:15,1,48.8750009322167,8|0,0:0|0:0,0:0:0:0:
29,123,116723,1,8,0:0:0:0:
34,146,116804,1,8,0:0:0:0:
39,169,116885,6,0,P|111:184|176:224,1,146.62500279665,4|0,1:0|0:0,0:0:0:0:
242,180,117210,2,0,L|257:277,1,97.7500018644333,8|0,0:0|0:0,0:0:0:0:
186,379,117534,1,0,1:0:0:0:
186,379,117696,1,0,1:0:0:0:
59,241,117858,2,0,P|41:187|8:150,1,97.7500018644333,8|0,0:0|3:0,0:0:0:0:
0,331,118183,5,0,1:0:0:0:
103,384,118345,1,0,1:0:0:0:
170,199,118507,2,0,P|224:181|261:148,1,97.7500018644333,8|0,0:0|0:0,0:0:0:0:
124,287,118831,1,0,1:0:0:0:
176,116,118993,1,2,1:2:0:0:
290,243,119156,6,0,L|347:256,1,48.8750009322167,8|0,0:0|0:0,0:0:0:0:
410,129,119318,1,10,0:0:0:0:
434,124,119399,1,10,0:0:0:0:
460,119,119480,6,0,P|489:159|497:221,1,106.25,4|0,1:2|1:0,0:0:0:0:
240,47,119804,2,0,P|280:18|342:10,1,106.25,12|0,0:2|1:0,0:0:0:0:
196,126,120128,1,2,1:0:0:0:
376,194,120291,1,2,1:0:0:0:
196,126,120453,2,0,L|182:235,1,106.25,10|0,0:2|1:0,0:0:0:0:
387,376,120777,6,0,P|417:332|424:280,1,106.25,4|0,1:2|0:0,0:0:0:0:
168,370,121101,2,0,P|124:339|72:332,1,106.25,12|0,0:2|0:0,0:0:0:0:
310,179,121426,1,2,1:0:0:0:
267,371,121588,1,2,1:0:0:0:
310,179,121750,2,0,L|426:149,1,106.25,10|0,0:0|0:0,0:0:0:0:
186,42,122074,6,0,P|133:34|90:4,1,106.25,4|0,1:2|1:0,0:0:0:0:
204,276,122399,2,0,P|196:328|166:371,1,106.25,12|0,0:2|1:0,0:0:0:0:
244,145,122723,1,2,1:0:0:0:
31,208,122885,1,2,1:0:0:0:
244,145,123047,2,0,L|269:35,1,106.25,10|0,0:0|0:0,0:0:0:0:
123,290,123372,5,8,0:0:0:0:
119,263,123453,1,8,0:0:0:0:
115,236,123534,1,8,0:0:0:0:
111,209,123615,1,8,0:0:0:0:
108,182,123696,2,0,L|124:129,1,53.125,0|0,1:0|1:0,0:0:0:0:
28,56,123858,5,8,0:0:0:0:
55,52,123939,1,8,0:0:0:0:
82,48,124020,1,8,0:0:0:0:
109,44,124101,1,8,0:0:0:0:
136,41,124182,2,0,L|189:57,1,53.125,0|0,1:0|1:0,0:0:0:0:
241,137,124345,5,8,0:0:0:0:
277,123,124426,1,8,0:0:0:0:
301,91,124507,1,8,0:0:0:0:
304,52,124588,1,8,0:0:0:0:
284,18,124669,1,0,1:0:0:0:
306,19,129858,6,0,L|214:41,1,76.4999976654053,0|0,3:0|0:0,3:0:0:0:
223,30,130183,2,0,L|213:-7,1,25.4999992218018,2|0,3:0|0:0,0:0:0:0:
175,93,130345,1,0,3:0:0:0:
175,93,130507,1,0,3:0:0:0:
238,140,130669,2,0,L|262:146,1,25.4999992218018,2|0,3:0|0:0,0:0:0:0:
192,201,130831,1,0,3:0:0:0:
243,256,130993,1,0,3:0:0:0:
247,268,131074,1,0,0:0:0:0:
251,280,131156,6,0,L|232:369,1,89.2499972763062,0|0,3:0|0:0,3:0:0:0:
228,373,131480,2,0,L|267:384,1,29.7499990921021,2|0,3:0|0:0,0:0:0:0:
331,334,131642,1,0,3:0:0:0:
331,334,131804,1,0,3:0:0:0:
327,252,131966,2,0,L|335:211,1,29.7499990921021,2|0,3:0|0:0,0:0:0:0:
258,180,132128,1,0,3:0:0:0:
185,144,132291,1,0,3:0:0:0:
182,129,132372,1,0,0:0:0:0:
179,114,132453,6,0,L|206:14,1,102,0|0,3:0|0:0,3:0:0:0:
223,10,132777,2,0,L|271:22,1,34,2|0,3:0|0:0,0:0:0:0:
320,90,132939,1,0,3:0:0:0:
320,90,133101,1,0,3:0:0:0:
260,163,133264,2,0,L|300:174,1,34,2|0,3:0|0:0,0:0:0:0:
193,235,133426,1,0,3:0:0:0:
247,316,133588,1,0,3:0:0:0:
247,316,135047,5,0,1:0:0:0:
219,327,135128,1,0,1:0:0:0:
209,355,135210,1,0,1:0:0:0:
68,329,135372,1,0,1:0:0:0:
62,358,135453,1,0,1:0:0:0:
84,384,135535,1,0,1:0:0:0:
84,384,135696,6,0,L|132:371,1,42.5,8|0,0:0|0:0,0:0:0:0:
180,223,135858,5,0,1:0:0:0:
156,204,135939,1,0,1:0:0:0:
127,212,136021,1,0,1:0:0:0:
278,334,136345,6,0,L|270:379,2,42.5,0|0|0,1:0|1:0|1:0,0:0:0:0:
478,223,136831,1,0,1:0:0:0:
478,223,136912,1,0,1:0:0:0:
478,223,136993,2,0,L|495:131,1,85,2|2,0:0|0:0,0:0:0:0:
417,283,137318,2,0,L|409:328,2,42.5,0|0|0,1:0|1:0|1:0,0:0:0:0:
247,139,137642,5,0,1:0:0:0:
256,110,137723,1,0,1:0:0:0:
283,100,137804,1,0,1:0:0:0:
390,203,137966,1,0,1:0:0:0:
369,181,138047,1,0,1:0:0:0:
374,153,138128,1,0,1:0:0:0:
377,156,138291,6,0,L|430:144,1,42.5,8|0,0:0|0:0,0:0:0:0:
441,7,138453,5,0,1:0:0:0:
470,0,138534,1,0,1:0:0:0:
492,18,138615,1,0,1:0:0:0:
495,21,138777,6,0,L|502:70,1,42.5,2|0,0:0|0:0,0:0:0:0:
501,165,138939,6,0,L|489:212,3,42.5,0|0|0|0,1:0|1:0|1:0|1:0,0:0:0:0:
394,137,139264,2,0,L|382:184,3,42.5,0|0|0|0,1:0|1:0|1:0|1:0,0:0:0:0:
292,85,139588,5,8,0:2:0:0:
285,105,139669,1,0,1:0:0:0:
278,125,139750,1,0,1:0:0:0:
271,145,139831,1,0,1:0:0:0:
264,165,139912,2,0,P|250:115|212:71,1,85,2|0,0:1|0:0,0:0:0:0:
119,0,140237,6,0,B|101:85|101:85|5:147|5:147|55:240|55:240|36:306,1,356.999989105225,0|0,1:0|0:0,0:0:0:0:
0,353,140885,5,8,0:0:0:0:
23,371,140966,1,0,1:0:0:0:
52,368,141047,1,0,1:0:0:0:
137,222,141210,1,0,1:0:0:0:
132,250,141291,1,0,1:0:0:0:
150,274,141372,1,0,1:0:0:0:
343,374,141696,6,0,L|402:384,2,42.5,0|0|0,1:0|1:0|1:0,0:0:0:0:
253,256,142020,1,0,1:0:0:0:
253,256,142101,1,0,1:0:0:0:
253,256,142183,6,0,L|242:306,1,42.5,8|0,0:0|0:0,0:0:0:0:
183,343,142345,2,0,L|172:393,1,42.5,0|0,1:0|0:0,0:0:0:0:
156,270,142507,6,0,L|146:228,1,42.5,0|0,1:0|0:0,0:0:0:0:
220,144,142669,1,0,1:0:0:0:
220,144,142750,1,0,1:0:0:0:
220,144,142831,6,0,L|210:98,1,42.5,8|0,0:0|0:0,0:0:0:0:
301,189,142993,1,0,1:0:0:0:
301,189,143156,1,0,1:0:0:0:
140,78,143318,6,0,L|130:32,1,42.5,8|0,0:0|0:0,0:0:0:0:
58,214,143480,1,0,1:0:0:0:
58,214,143642,1,0,1:0:0:0:
221,86,143804,6,0,L|211:40,1,42.5,8|0,0:0|0:0,0:0:0:0:
182,255,143966,1,0,1:0:0:0:
57,101,144128,6,0,P|38:94|-22:37,2,67.9999979248048,8|8|8,0:0|0:0|0:0,0:0:0:0:
130,190,144453,6,0,P|161:176|187:155,2,67.9999979248048,0|8|4,0:0|3:0|3:0,0:0:0:0:
41,244,144777,5,0,1:0:0:0:
20,301,144885,5,0,1:0:0:0:
57,349,144993,5,0,1:0:0:0:
110,342,145101,6,0,P|136:320|175:304,1,68,8|0,0:0|0:0,0:0:0:0:
326,380,145426,5,0,1:0:0:0:
289,373,145507,1,0,1:0:0:0:
268,341,145588,1,0,1:0:0:0:
367,198,145750,1,0,1:0:0:0:
342,227,145831,1,0,1:0:0:0:
304,229,145912,1,0,1:0:0:0:
307,232,146074,6,0,L|293:179,1,46.7500014266968,8|0,0:0|0:0,0:0:0:0:
167,119,146237,5,0,1:0:0:0:
154,83,146318,1,0,1:0:0:0:
171,49,146399,2,0,L|269:27,1,93.5000028533936,0|0,1:0|0:0,0:0:0:0:
403,119,146723,1,0,1:0:0:0:
403,119,146804,1,0,1:0:0:0:
403,119,146885,2,0,B|435:83|435:83|409:32,1,93.5000028533936,0|0,1:0|0:0,0:0:0:0:
273,117,147210,1,0,1:0:0:0:
270,135,147291,1,0,1:0:0:0:
267,153,147372,1,8,0:0:0:0:
264,171,147453,1,0,1:0:0:0:
261,189,147534,1,0,1:0:0:0:
369,261,147696,2,0,L|377:209,2,46.7500014266968,0|0|0,1:0|1:0|1:0,0:0:0:0:
428,360,148020,5,0,1:0:0:0:
462,344,148101,1,0,1:0:0:0:
478,309,148183,1,0,1:0:0:0:
298,331,148345,1,0,1:0:0:0:
301,294,148426,1,0,1:0:0:0:
279,262,148508,1,0,1:0:0:0:
282,265,148669,6,0,L|214:254,1,46.7500014266968,8|0,0:0|0:0,0:0:0:0:
165,148,148831,5,0,1:0:0:0:
193,172,148912,1,0,1:0:0:0:
229,163,148994,1,0,1:0:0:0:
232,166,149156,6,0,L|240:119,1,46.7500014266968,2|0,0:0|0:0,0:0:0:0:
291,12,149318,6,0,L|300:62,3,46.7500014266968,0|0|0|0,1:0|1:0|1:0|1:0,0:0:0:0:
167,7,149642,2,0,L|176:57,3,46.7500014266968,0|0|0|0,1:0|1:0|1:0|1:0,0:0:0:0:
43,6,149966,5,8,0:0:0:0:
47,28,150047,1,0,1:0:0:0:
51,50,150128,1,0,1:0:0:0:
55,73,150210,1,0,1:0:0:0:
59,95,150291,2,0,P|38:126|22:161,1,68,2|0,0:1|0:0,0:0:0:0:
1,283,150615,6,0,B|36:226|36:226|134:242|134:242|170:364|170:364|281:386,1,386.749982295991,0|0,1:0|0:0,0:0:0:0:
317,322,151264,5,8,0:0:0:0:
343,347,151345,1,0,1:0:0:0:
344,384,151426,1,0,1:0:0:0:
264,217,151588,1,0,1:0:0:0:
255,252,151669,1,0,1:0:0:0:
223,271,151750,2,0,L|131:249,1,93.5000028533936,0|0,1:0|0:0,0:0:0:0:
68,368,152074,5,0,1:0:0:0:
33,377,152155,1,0,1:0:0:0:
1,359,152237,2,0,L|19:262,1,93.5000028533936,0|0,1:0|0:0,0:0:0:0:
151,147,152561,1,8,0:0:0:0:
158,110,152642,1,0,1:0:0:0:
165,73,152723,1,0,1:0:0:0:
84,19,152885,1,0,1:0:0:0:
22,93,153047,1,0,1:0:0:0:
22,93,153128,1,0,1:0:0:0:
22,93,153210,5,8,0:0:0:0:
116,243,153372,1,0,1:0:0:0:
116,243,153534,1,0,1:0:0:0:
116,243,153696,1,0,1:0:0:0:
201,61,153858,5,8,0:0:0:0:
51,176,154020,1,0,1:0:0:0:
51,176,154183,1,0,1:0:0:0:
51,176,154345,1,0,1:0:0:0:
208,284,154507,5,8,0:0:0:0:
235,276,154588,1,8,0:0:0:0:
262,269,154669,1,0,1:0:0:0:
182,192,154831,1,0,1:0:0:0:
298,80,154993,5,8,0:0:0:0:
334,89,155074,1,8,0:0:0:0:
370,98,155156,1,0,1:0:0:0:
261,156,155318,1,0,1:0:0:0:
361,319,155480,6,0,P|371:262|417:176,1,152.999995330811,8|0,0:0|0:0,0:0:0:0:
485,148,155804,5,4,1:0:0:0:
512,237,163588,6,0,P|457:255|400:323,1,140.25000428009,4|0,1:0|0:0,0:0:0:0:
363,377,163912,2,0,P|353:325|331:288,1,93.5000028533936,4|0,1:2|0:0,0:0:0:0:
205,225,164237,1,8,0:0:0:0:
270,111,164399,1,0,1:0:0:0:
389,182,164561,1,0,1:0:0:0:
300,203,164723,1,8,0:0:0:0:
373,91,164885,6,0,L|388:25,1,62.3333352355958,0|0,1:0|0:0,0:0:0:0:
270,111,165101,5,8,0:0:0:0:
237,64,165210,6,0,L|252:-2,1,62.3333352355958,0|0,1:0|0:0,0:0:0:0:
165,128,165425,5,8,0:0:0:0:
120,162,165534,6,0,L|39:134,2,62.3333352355958,8|8|8,0:0|0:0|0:0,0:0:0:0:
216,210,165858,5,8,0:0:0:0:
229,264,165966,5,8,3:0:0:0:
243,318,166074,5,4,3:0:0:0:
257,371,166183,6,0,P|284:332|384:281,1,140.25000428009,4|0,1:0|0:0,0:0:0:0:
411,345,166507,2,0,L|505:367,1,93.5000028533936,0|0,1:0|0:0,0:0:0:0:
369,208,166831,1,8,0:0:0:0:
257,371,166993,2,0,L|232:276,1,93.5000028533936,8|0,0:0|0:0,0:0:0:0:
172,81,167318,6,0,P|155:132|119:180,1,93.5000028533936,0|2,1:0|3:0,0:0:0:0:
1,254,167642,1,0,1:0:0:0:
1,254,167804,2,0,P|52:271|100:307,1,93.5000028533936,0|0,1:0|0:0,0:0:0:0:
300,85,168128,2,0,P|218:136|126:165,1,187.000005706787,8|0,0:0|0:0,0:0:0:0:
17,77,168615,1,0,1:0:0:0:
173,236,168777,6,0,L|156:355,1,93.5000028533936,4|0,1:2|0:0,0:0:0:0:
304,94,169101,2,0,L|287:213,1,93.5000028533936,0|0,1:0|0:0,0:0:0:0:
110,12,169426,1,8,0:0:0:0:
206,141,169588,2,0,P|156:151|115:181,1,93.5000028533936,0|0,1:0|0:0,0:0:0:0:
33,362,169912,6,0,P|23:312|-7:271,1,93.5000028533936,0|2,1:0|3:0,0:0:0:0:
212,322,170237,1,0,1:0:0:0:
212,322,170399,2,0,P|169:293|119:285,1,93.5000028533936,0|0,1:0|0:0,0:0:0:0:
0,171,170723,2,0,P|56:86|71:-12,1,187.000005706787,8|0,0:0|0:0,0:0:0:0:
129,134,171210,1,0,1:0:0:0:
298,27,171372,6,0,L|201:9,1,93.5000028533936,4|0,1:2|0:0,0:0:0:0:
394,172,171696,2,0,L|302:189,1,93.5000028533936,0|0,1:0|0:0,0:0:0:0:
509,3,172020,2,0,P|459:9|352:102,1,187.000005706787,8|0,0:0|0:0,0:0:0:0:
469,221,172507,6,0,P|482:171|520:131,1,93.5000028533936,0|0,1:0|0:0,0:0:0:0:
332,274,172831,1,0,1:0:0:0:
332,274,172993,2,0,P|305:229|304:174,1,93.5000028533936,0|0,1:0|0:0,0:0:0:0:
473,379,173318,2,0,L|271:341,1,187.000005706787,8|0,0:0|0:0,0:0:0:0:
383,208,173804,1,0,1:0:0:0:
216,378,173966,6,0,P|205:324|186:266,1,101.999996887207,4|0,1:2|0:0,0:0:0:0:
37,116,174291,2,0,P|90:105|149:86,1,101.999996887207,0|0,1:0|1:0,0:0:0:0:
39,277,174615,1,8,0:0:0:0:
202,164,174777,1,8,0:0:0:0:
30,108,174939,1,0,1:0:0:0:
110,189,175101,1,0,1:0:0:0:
110,189,175264,6,0,P|121:135|140:77,1,101.999996887207,0|8,1:0|0:0,0:0:0:0:
309,317,175588,2,0,P|320:263|339:205,1,101.999996887207,0|0,1:0|1:0,0:0:0:0:
425,57,175912,1,8,0:0:0:0:
241,124,176074,1,0,1:0:0:0:
425,57,176237,1,8,0:0:0:0:
349,19,176399,1,0,1:0:0:0:
478,194,176561,6,0,P|422:206|330:275,1,152.999995330811,4|0,1:0|0:0,0:0:0:0:
298,318,176885,2,0,L|277:209,1,101.999996887207,8|0,0:0|0:0,0:0:0:0:
189,66,177210,1,0,1:0:0:0:
316,139,177372,1,0,1:0:0:0:
118,198,177534,2,0,P|69:185|31:151,1,101.999996887207,8|0,0:0|0:0,0:0:0:0:
26,133,177777,5,0,3:0:0:0:
26,133,177858,2,0,L|45:22,1,101.999996887207,0|0,1:0|1:0,0:0:0:0:
195,246,178183,2,0,L|214:135,1,101.999996887207,8|0,0:0|0:0,0:0:0:0:
82,378,178507,1,0,1:0:0:0:
10,239,178669,1,0,1:0:0:0:
168,334,178831,1,8,0:0:0:0:
168,334,178993,1,0,3:0:0:0:
287,180,179156,6,0,P|302:125|356:30,1,152.999995330811,4|0,1:0|0:0,0:0:0:0:
414,4,179480,2,0,L|528:31,1,101.999996887207,8|0,0:0|0:0,0:0:0:0:
279,97,179804,1,0,1:0:0:0:
406,144,179966,1,0,1:0:0:0:
229,35,180128,2,0,P|200:74|209:139,1,101.999996887207,8|0,0:0|0:0,0:0:0:0:
217,151,180372,5,0,3:0:0:0:
217,151,180453,2,0,L|335:179,1,101.999996887207,0|0,1:0|1:0,0:0:0:0:
485,348,180777,2,0,L|385:371,1,101.999996887207,8|0,0:0|0:0,0:0:0:0:
412,172,181101,1,0,1:0:0:0:
258,239,181264,1,0,1:0:0:0:
436,280,181426,1,8,0:0:0:0:
436,280,181588,1,0,3:0:0:0:
217,378,181750,6,0,P|201:314|149:216,1,152.999995330811,4|0,1:0|0:0,0:0:0:0:
102,200,182074,2,0,L|221:173,1,101.999996887207,8|0,0:0|0:0,0:0:0:0:
100,356,182399,1,0,1:0:0:0:
100,356,182561,1,0,1:0:0:0:
7,178,182723,2,0,L|34:287,1,101.999996887207,8|0,0:0|3:0,0:0:0:0:
141,105,183047,5,0,1:0:0:0:
5,56,183210,1,0,1:0:0:0:
201,177,183372,2,0,P|230:130|230:68,1,101.999996887207,8|0,0:0|0:0,0:0:0:0:
13,183,183696,1,0,1:0:0:0:
13,183,183858,1,2,1:2:0:0:
142,52,184020,6,0,L|129:135,1,50.9999984436036,8|0,0:0|0:0,0:0:0:0:
193,182,184183,2,0,L|180:265,1,50.9999984436036,10|0,0:0|0:0,0:0:0:0:
113,311,184345,6,0,P|60:326|8:370,1,110.499994941712,4|0,1:2|1:0,0:0:0:0:
316,302,184669,2,0,P|301:249|257:197,1,110.499994941712,12|0,0:0|1:0,0:0:0:0:
194,366,184993,1,2,1:0:0:0:
23,255,185156,1,2,1:0:0:0:
194,366,185318,2,0,L|307:385,1,110.499994941712,10|0,0:0|1:0,0:0:0:0:
395,204,185642,6,0,P|410:160|456:103,1,110.499994941712,4|0,1:2|1:0,0:0:0:0:
237,22,185966,1,12,0:0:0:0:
314,156,186128,1,0,1:0:0:0:
405,20,186291,1,2,1:0:0:0:
208,108,186453,1,2,1:0:0:0:
405,20,186615,2,0,L|538:49,1,110.499994941712,10|0,0:0|0:0,0:0:0:0:
369,280,186939,6,0,P|354:221|308:132,1,152.999995330811,4|0,1:0|0:0,0:0:0:0:
250,94,187264,2,0,L|131:121,1,101.999996887207,8|0,0:0|0:0,0:0:0:0:
278,13,187588,1,0,1:0:0:0:
151,0,187750,1,0,1:0:0:0:
321,144,187912,2,0,P|364:98|373:41,1,101.999996887207,8|0,0:0|0:0,0:0:0:0:
372,44,188156,5,0,3:0:0:0:
372,44,188237,2,0,L|268:20,1,101.999996887207,0|0,1:0|1:0,0:0:0:0:
192,209,188561,2,0,L|88:185,1,101.999996887207,8|0,0:0|0:0,0:0:0:0:
243,347,188885,1,0,1:0:0:0:
324,217,189047,1,0,1:0:0:0:
172,296,189210,1,8,0:0:0:0:
172,296,189372,1,0,3:0:0:0:
62,116,189534,6,0,P|72:64|106:25,1,101.999996887207,4|0,1:0|0:0,0:0:0:0:
316,56,189858,2,0,P|264:46|225:12,1,101.999996887207,8|0,0:0|0:0,0:0:0:0:
107,200,190183,1,0,1:0:0:0:
214,114,190345,1,0,1:0:0:0:
7,58,190507,2,0,L|105:32,1,101.999996887207,8|0,0:0|0:0,0:0:0:0:
221,227,190831,6,0,L|72:265,1,152.999995330811,0|0,1:0|0:0,0:0:0:0:
28,202,191156,2,0,P|-2:252|6:304,1,101.999996887207,8|0,0:0|0:0,0:0:0:0:
191,382,191480,1,0,1:0:0:0:
228,235,191642,1,0,1:0:0:0:
108,384,191804,6,0,L|93:331,1,50.9999984436036,8|0,0:0|0:0,0:0:0:0:
128,184,191966,2,0,L|141:233,1,50.9999984436036,8|0,0:0|0:0,0:0:0:0:
268,311,192128,6,0,P|317:320|411:380,1,152.999995330811,4|0,1:0|0:0,0:0:0:0:
463,325,192453,2,0,L|484:215,1,101.999996887207,8|0,0:0|0:0,0:0:0:0:
349,130,192777,1,0,1:0:0:0:
349,130,192939,1,0,1:0:0:0:
512,24,193101,2,0,L|405:4,1,101.999996887207,8|0,0:0|3:0,0:0:0:0:
365,215,193426,5,0,1:0:0:0:
468,134,193588,1,0,1:0:0:0:
289,20,193750,2,0,P|256:62|253:112,1,101.999996887207,8|0,0:0|0:0,0:0:0:0:
443,218,194074,1,0,1:0:0:0:
332,93,194237,1,2,1:2:0:0:
281,269,194399,1,8,0:0:0:0:
356,211,194561,1,2,3:0:0:0:
169,117,194723,6,0,P|116:107|57:74,1,110.499994941712,4|0,1:2|1:0,0:0:0:0:
237,370,195047,2,0,P|247:317|280:258,1,110.499994941712,12|0,0:2|1:0,0:0:0:0:
415,82,195372,1,2,1:0:0:0:
231,161,195534,1,2,1:0:0:0:
415,82,195696,2,0,L|442:199,1,110.499994941712,10|0,0:2|1:0,0:0:0:0:
164,103,196020,6,0,P|154:50|121:-9,1,110.499994941712,4|0,1:2|1:0,0:0:0:0:
277,279,196345,2,0,P|330:269|389:236,1,110.499994941712,12|0,0:0|1:0,0:0:0:0:
130,375,196669,1,2,1:0:0:0:
222,218,196831,5,8,0:0:0:0:
227,185,196912,1,8,0:0:0:0:
232,152,196993,1,8,0:0:0:0:
43,288,197156,1,8,0:0:0:0:
48,255,197237,1,8,0:0:0:0:
53,222,197318,6,0,P|106:232|165:265,1,110.499994941712,4|0,1:2|1:0,0:0:0:0:
344,27,197642,2,0,P|334:80|301:139,1,110.499994941712,12|0,0:0|1:0,0:0:0:0:
133,18,197966,1,2,1:0:0:0:
215,201,198128,1,2,1:0:0:0:
133,18,198291,2,0,L|15:-2,1,110.499994941712,10|0,0:0|1:0,0:0:0:0:
302,138,198615,6,0,L|420:118,1,110.499994941712,0|0,1:0|1:0,0:0:0:0:
194,286,198939,5,12,0:0:0:0:
194,286,199101,1,0,1:0:0:0:
126,162,199264,5,12,0:0:0:0:
291,256,199426,1,0,1:0:0:0:
125,361,199588,5,12,0:0:0:0:
230,179,199750,1,0,1:0:0:0:
0,233,199912,6,0,P|62:244|91:276,1,102,4|0,1:0|0:0,0:0:0:0:
93,282,200237,1,8,0:0:0:0:
114,372,200399,1,0,1:0:0:0:
247,259,200723,1,0,0:0:0:0:
173,212,200885,2,0,L|159:143,1,68,8|0,0:0|1:0,0:0:0:0:
203,65,201210,2,0,P|239:90|306:109,1,102,0|0,1:0|0:0,0:0:0:0:
300,94,201534,2,0,P|336:69|403:50,1,102,8|0,0:0|0:0,0:0:0:0:
402,58,201858,1,0,1:0:0:0:
468,123,202020,1,10,0:0:0:0:
397,176,202183,2,0,L|383:248,1,68,0|10,1:0|0:0,0:0:0:0:
493,327,202507,6,0,P|446:338|385:381,1,102,0|0,1:0|0:0,0:0:0:0:
394,379,202831,1,8,0:0:0:0:
321,320,202993,1,0,1:0:0:0:
234,173,203318,1,0,0:0:0:0:
193,256,203480,2,0,L|125:271,1,68,8|0,0:0|1:0,0:0:0:0:
40,236,203804,1,0,1:0:0:0:
40,236,204128,6,0,P|22:274|12:340,2,101.999996887207,8|2|2,0:0|0:2|0:1,0:0:0:0:
