osu file format v14

[General]
AudioFilename: audio.mp3
AudioLeadIn: 0
PreviewTime:44237
Countdown: 0
SampleSet: Soft
StackLeniency: 0.8
Mode: 0
LetterboxInBreaks: 0
WidescreenStoryboard: 1

[Editor]
Bookmarks: 129,5318,15696,26074,36453,46831,57210,67588,70183,80561,90939,101318,111696,124669,135047,145426,155804,163588,166183,176561,186939,199912,204777
DistanceSpacing: 0.6
BeatDivisor: 4
GridSize: 16
TimelineZoom: 1

[Metadata]
Title:LosT
TitleUnicode:LosT
Artist:Bring Me The Horizon
ArtistUnicode:Bring Me The Horizon
Creator:Embo
Version:HarD
Source:
Tags:english alternative alt emo rock hyperpop bmth Oliver Oli Sykes Matt Nicholls Lee Malia Kean Jordan Fish post human: nex gen
BeatmapID:4258133
BeatmapSetID:2041071

[Difficulty]
HPDrainRate:5
CircleSize:3.6
OverallDifficulty:6.2
ApproachRate:7.3
SliderMultiplier:1.5
SliderTickRate:1

[Events]
//Background and Video events
0,0,"lostbg.jpg",0,0
//Break Periods
2,124869,129004
2,156004,162734
//Storyboard Layer 0 (Background)
//Storyboard Layer 1 (Fail)
//Storyboard Layer 2 (Pass)
//Storyboard Layer 3 (Foreground)
//Storyboard Layer 4 (Overlay)
//Storyboard Sound Samples

[TimingPoints]
129,324.324324324324,4,2,1,55,1,0
129,-142.857142857143,4,2,1,55,0,0
5318,-100,4,2,1,70,0,0
6291,-100,4,2,1,70,0,0
7912,-100,4,2,1,70,0,0
8237,-100,4,2,1,70,0,0
10507,-100,4,2,1,70,0,0
10831,-100,4,2,1,70,0,0
13426,-100,4,2,1,70,0,0
14074,-100,4,2,1,70,0,0
14399,-100,4,2,1,70,0,0
15047,-100,4,2,1,70,0,0
15696,-125,4,2,1,60,0,0
36453,-111.111111111111,4,2,1,65,0,0
44237,-100,4,2,1,30,0,0
45534,-100,4,2,1,30,0,0
46183,-100,4,2,1,30,0,0
46831,-90.9090909090909,4,2,1,80,0,1
48453,-90.9090909090909,4,2,1,80,0,1
49101,-90.9090909090909,4,2,1,80,0,1
49426,-90.9090909090909,4,2,1,80,0,1
51047,-90.9090909090909,4,2,1,80,0,1
51696,-90.9090909090909,4,2,1,80,0,1
52345,-90.9090909090909,4,2,1,80,0,1
54615,-83.3333333333333,4,2,1,80,0,1
57210,-90.9090909090909,4,2,1,80,0,1
58831,-90.9090909090909,4,2,1,80,0,1
59480,-90.9090909090909,4,2,1,80,0,1
59804,-90.9090909090909,4,2,1,80,0,1
60128,-90.9090909090909,4,2,1,80,0,1
61426,-90.9090909090909,4,2,1,80,0,1
62074,-90.9090909090909,4,2,1,80,0,1
62723,-90.9090909090909,4,2,1,80,0,1
64993,-83.3333333333333,4,2,1,80,0,1
67588,-125,4,2,1,60,0,0
70183,-125,4,2,1,60,0,0
88507,-125,4,2,1,60,0,0
88993,-125,4,2,1,60,0,0
90939,-111.111111111111,4,2,1,65,0,0
96128,-111.111111111111,4,2,1,65,0,0
98723,-125,4,2,1,65,0,0
99047,-125,4,2,1,65,0,0
99372,-111.111111111111,4,2,1,65,0,0
99696,-111.111111111111,4,2,1,65,0,0
100020,-100,4,2,1,65,0,0
101318,-90.9090909090909,4,2,1,80,0,1
102938,-90.9090909090909,4,2,1,80,0,1
103586,-90.9090909090909,4,2,1,80,0,1
103911,-90.9090909090909,4,2,1,80,0,1
105532,-90.9090909090909,4,2,1,80,0,1
106181,-90.9090909090909,4,2,1,80,0,1
106830,-90.9090909090909,4,2,1,80,0,1
109100,-83.3333333333333,4,2,1,80,0,1
111695,-90.9090909090909,4,2,1,80,0,1
113316,-90.9090909090909,4,2,1,80,0,1
113965,-90.9090909090909,4,2,1,80,0,1
114289,-90.9090909090909,4,2,1,80,0,1
114613,-90.9090909090909,4,2,1,80,0,1
115911,-90.9090909090909,4,2,1,80,0,1
116559,-90.9090909090909,4,2,1,80,0,1
117208,-90.9090909090909,4,2,1,80,0,1
119478,-83.3333333333333,4,2,1,80,0,1
124669,-100,4,2,1,80,0,0
124750,-100,4,2,1,5,0,0
129858,-100,4,2,1,50,0,0
135047,-100,4,2,1,70,0,0
135696,-100,4,2,1,70,0,0
135858,-100,4,2,1,70,0,0
136993,-100,4,2,1,70,0,0
137318,-100,4,2,1,70,0,0
138291,-100,4,2,1,70,0,0
138453,-100,4,2,1,70,0,0
138777,-100,4,2,1,70,0,0
138939,-100,4,2,1,70,0,0
139912,-100,4,2,1,70,0,0
140237,-100,4,2,1,70,0,0
140885,-100,4,2,1,70,0,0
142507,-100,4,2,1,70,0,0
143318,-100,4,2,1,70,0,0
143804,-100,4,2,1,70,0,0
144128,-100,4,2,1,70,0,0
145101,-100,4,2,1,70,0,0
145426,-100,4,2,1,75,0,0
146074,-100,4,2,1,75,0,0
146399,-100,4,2,1,75,0,0
146885,-100,4,2,1,75,0,0
148020,-100,4,2,1,75,0,0
148669,-100,4,2,1,75,0,0
148831,-100,4,2,1,75,0,0
150291,-100,4,2,1,75,0,0
150615,-100,4,2,1,75,0,0
151264,-100,4,2,1,75,0,0
151750,-100,4,2,1,75,0,0
152074,-100,4,2,1,75,0,0
153210,-100,4,2,1,75,0,0
153858,-100,4,2,1,75,0,0
154507,-100,4,2,1,75,0,0
155480,-100,4,2,1,75,0,0
163588,-100,4,2,1,70,0,0
163912,-100,4,2,1,70,0,0
164885,-100,4,2,1,70,0,0
166183,-100,4,2,1,80,0,1
172507,-100,4,2,1,80,0,1
173318,-100,4,2,1,80,0,1
173966,-90.9090909090909,4,2,1,80,0,1
176559,-90.9090909090909,4,2,1,80,0,1
178181,-90.9090909090909,4,2,1,80,0,1
178829,-90.9090909090909,4,2,1,80,0,1
179154,-90.9090909090909,4,2,1,80,0,1
180775,-90.9090909090909,4,2,1,80,0,1
181424,-90.9090909090909,4,2,1,80,0,1
181750,-90.9090909090909,4,2,1,80,0,1
182073,-90.9090909090909,4,2,1,80,0,1
184343,-83.3333333333333,4,2,1,80,0,1
186938,-90.9090909090909,4,2,1,80,0,1
188559,-90.9090909090909,4,2,1,80,0,1
189208,-90.9090909090909,4,2,1,80,0,1
189532,-90.9090909090909,4,2,1,80,0,1
189856,-90.9090909090909,4,2,1,80,0,1
191154,-90.9090909090909,4,2,1,80,0,1
191802,-90.9090909090909,4,2,1,80,0,1
192451,-90.9090909090909,4,2,1,80,0,1
194721,-83.3333333333333,4,2,1,80,0,1
198939,-83.3333333333333,4,2,1,85,0,1
199264,-83.3333333333333,4,2,1,90,0,1
199588,-83.3333333333333,4,2,1,95,0,1
199912,-125,4,2,1,60,0,0
204128,-166.666666666667,4,2,1,60,0,0

[Colours]
Combo1 : 187,34,187
Combo2 : 98,174,157
Combo3 : 186,44,118
Combo4 : 63,166,177

[HitObjects]
69,371,129,6,0,B|94:348|94:348|72:261,1,104.999996795654,0|8,1:0|0:0,0:0:0:0:
25,268,615,1,0,1:0:0:0:
0,166,939,1,0,0:0:0:0:
44,137,1101,2,0,L|100:149,1,52.4999983978272,8|0,0:0|1:0,0:0:0:0:
146,127,1426,2,0,P|170:162|177:214,1,78.7499975967408,0|0,1:0|0:0,0:0:0:0:
177,197,1750,1,8,0:0:0:0:
281,210,2074,1,0,1:0:0:0:
256,256,2237,1,10,0:0:0:0:
280,302,2399,2,0,L|291:360,1,52.4999983978272,0|10,1:0|0:0,0:0:0:0:
336,376,2723,6,0,B|351:348|351:348|427:335,1,104.999996795654,0|8,1:0|0:0,0:0:0:0:
469,361,3210,1,0,1:0:0:0:
506,262,3534,1,0,0:0:0:0:
457,241,3696,2,0,L|445:179,1,52.4999983978272,8|0,0:0|1:0,0:0:0:0:
403,160,4020,2,0,P|426:123|477:118,1,78.7499975967408,0|0,1:0|0:0,0:0:0:0:
458,113,4345,2,0,P|491:77|475:24,1,104.999996795654,8|0,0:0|0:0,0:0:0:0:
400,10,4831,6,0,L|395:-20,2,26.2499991989136,8|8|8,0:0|0:0|0:0,0:0:0:0:
349,71,5156,1,8,0:0:0:0:
257,15,5318,6,0,P|240:50|236:96,1,75,4|0,1:0|0:0,0:0:0:0:
170,142,5642,2,0,P|187:177|191:223,1,75,8|0,0:0|3:0,0:0:0:0:
265,266,5966,1,0,1:0:0:0:
265,266,6128,1,0,1:0:0:0:
317,197,6291,2,0,L|398:182,1,75,8|0,0:0|3:0,0:0:0:0:
460,233,6615,5,2,1:2:0:0:
368,379,6939,1,10,0:2:0:0:
207,330,7264,1,0,1:0:0:0:
207,330,7426,1,2,1:2:0:0:
229,246,7588,1,8,0:0:0:0:
229,246,7750,1,2,3:0:0:0:
153,181,7912,6,0,P|114:188|89:213,1,75,4|0,1:0|0:0,0:0:0:0:
15,257,8237,2,0,P|1:294|10:328,1,75,8|0,0:0|3:0,0:0:0:0:
81,384,8561,1,0,1:0:0:0:
81,384,8723,1,0,1:0:0:0:
140,321,8885,2,0,L|217:303,1,75,8|0,0:0|3:0,0:0:0:0:
266,235,9210,5,2,1:2:0:0:
127,132,9534,1,10,0:2:0:0:
282,57,9858,1,0,1:0:0:0:
282,57,10020,1,0,1:0:0:0:
216,0,10183,1,10,0:0:0:0:
144,42,10345,1,8,0:0:0:0:
121,37,10426,1,8,0:0:0:0:
104,21,10507,6,0,P|69:31|29:68,1,75,4|0,1:0|1:0,0:0:0:0:
16,137,10831,2,0,P|26:172|63:212,1,75,8|0,0:0|3:0,0:0:0:0:
135,211,11156,1,0,1:0:0:0:
135,211,11318,1,0,1:0:0:0:
208,256,11480,2,0,L|297:234,1,75,8|0,0:0|3:0,0:0:0:0:
314,158,11804,5,2,1:2:0:0:
195,33,12128,1,10,0:0:0:0:
364,0,12453,1,0,1:0:0:0:
364,0,12615,1,2,1:2:0:0:
444,30,12777,1,8,0:0:0:0:
444,30,12939,1,2,3:0:0:0:
459,128,13101,6,0,P|435:169|430:203,1,75,4|0,1:0|1:0,0:0:0:0:
363,250,13426,1,8,0:0:0:0:
363,250,13588,1,0,1:0:0:0:
313,179,13750,2,0,P|276:170|245:150,1,75,0|0,1:0|1:0,0:0:0:0:
173,197,14074,1,8,0:0:0:0:
173,197,14237,1,0,1:0:0:0:
225,265,14399,6,0,L|242:348,1,75,0|0,1:2|1:0,0:0:0:0:
319,372,14723,1,8,0:2:0:0:
375,306,14885,1,0,1:0:0:0:
375,306,15696,6,0,P|397:262|390:177,1,120,2|10,1:2|0:2,0:2:0:0:
307,99,16345,2,0,L|244:114,1,60,2|0,1:2|0:2,0:2:0:0:
216,182,16669,2,0,L|231:245,1,60,10|0,0:2|1:2,0:0:0:0:
188,320,16993,2,0,P|164:343|78:358,1,120,2|10,1:2|0:2,0:2:0:0:
25,305,17480,2,0,L|9:242,2,60,2|0|8,0:2|1:2|0:2,0:0:0:0:
100,260,17966,1,2,1:2:0:0:
100,260,18128,1,10,0:2:0:0:
43,174,18291,6,0,P|49:119|118:74,1,120,2|10,1:2|0:2,0:2:0:0:
229,45,18939,2,0,P|240:75|241:116,1,60,2|0,1:2|0:2,0:2:0:0:
290,169,19264,2,0,P|260:180|219:181,1,60,10|0,0:2|1:2,0:0:0:0:
150,165,19588,2,0,P|124:218|134:277,1,120,2|10,1:2|0:2,0:2:0:0:
184,337,20074,1,2,0:2:0:0:
306,349,20399,2,0,L|316:387,2,30,8|8|8,0:2|0:2|0:2,0:0:0:0:
344,280,20723,1,10,0:2:0:0:
423,316,20885,6,0,P|453:279|453:185,1,120,2|10,1:2|0:2,0:2:0:0:
338,176,21534,2,0,P|323:148|321:103,1,60,2|0,1:2|0:2,0:2:0:0:
265,56,21858,2,0,L|322:38,1,60,10|0,0:2|1:2,0:0:0:0:
391,0,22183,1,2,1:2:0:0:
483,90,22507,1,10,0:2:0:0:
386,169,22831,2,0,L|374:239,1,60,2|8,1:2|0:2,0:0:0:0:
422,299,23156,1,2,1:2:0:0:
422,299,23318,1,10,0:2:0:0:
500,279,23480,5,0,1:2:0:0:
374,376,23804,2,0,L|292:353,2,60,8|0|0,0:2|1:2|1:2,0:0:0:0:
275,243,24453,2,0,L|217:259,2,60,8|0|0,0:2|1:2|1:2,0:0:0:0:
162,366,25101,1,8,0:2:0:0:
52,291,25426,1,0,1:2:0:0:
88,220,25588,2,0,L|125:211,2,30,8|8|8,0:2|0:2|0:2,0:0:0:0:
22,175,25912,1,10,0:2:0:0:
83,98,26074,6,0,P|106:115|151:128,1,60,2|0,1:2|0:0,0:2:0:0:
199,78,26399,2,0,P|223:60|251:50,1,60,10|0,0:2|1:2,0:0:0:0:
316,95,26723,1,2,1:2:0:0:
236,210,27047,2,0,L|256:276,1,60,10|0,0:2|1:2,0:0:0:0:
316,317,27372,2,0,L|410:290,1,90,2|0,1:2|0:2,0:2:0:0:
410,276,27696,1,10,0:2:0:0:
455,146,28020,2,0,L|524:165,2,60,2|8|0,1:2|0:2|1:2,0:0:0:0:
430,70,28507,1,10,0:2:0:0:
359,101,28669,5,2,1:2:0:0:
359,101,28831,2,0,P|320:112|290:131,1,60,2|8,0:2|0:2,0:2:0:0:
261,56,29156,2,0,P|222:45|192:26,1,60,2|0,1:2|1:2,0:0:0:0:
136,75,29480,1,2,0:2:0:0:
186,191,29804,2,0,L|175:257,1,60,2|0,1:2|1:2,0:0:0:0:
101,232,30128,2,0,P|67:238|18:291,1,90,2|0,0:2|0:0,0:2:0:0:
23,291,30453,1,2,0:2:0:0:
143,355,30777,2,0,L|137:385,2,30,8|8|8,0:2|0:2|0:2,0:0:0:0:
217,328,31101,1,10,0:2:0:0:
210,244,31264,6,0,P|241:232|278:205,1,60,2|0,1:2|0:0,0:2:0:0:
333,170,31588,2,0,L|346:233,1,60,10|0,0:2|1:2,0:0:0:0:
361,304,31912,1,2,1:2:0:0:
471,379,32237,2,0,L|483:320,1,60,10|0,0:2|1:2,0:0:0:0:
448,247,32561,2,0,L|429:156,1,90,2|0,1:2|0:2,0:2:0:0:
426,138,32885,1,10,0:2:0:0:
487,14,33210,1,2,1:2:0:0:
487,14,33372,2,0,P|460:27|430:32,1,60,10|0,0:2|1:2,0:0:0:0:
358,0,33696,1,10,0:2:0:0:
331,74,33858,5,0,1:2:0:0:
301,209,34183,2,0,L|316:268,1,60,8|0,0:2|1:2,0:0:0:0:
335,342,34507,1,0,1:2:0:0:
219,301,34831,2,0,L|160:316,1,60,8|0,0:2|1:2,0:0:0:0:
86,335,35155,1,0,1:2:0:0:
144,215,35480,1,8,0:2:0:0:
28,167,35804,1,0,1:2:0:0:
65,96,35966,2,0,L|52:60,2,30,8|8|8,0:2|0:2|0:2,0:0:0:0:
140,120,36291,1,8,0:2:0:0:
179,31,36453,5,0,1:2:0:0:
179,31,36615,2,0,P|228:23|290:89,1,134.999995880127,2|2,0:2|1:2,0:2:0:0:
250,153,37101,2,0,L|320:168,1,67.4999979400635,2|0,1:2|0:0,0:2:0:0:
382,108,37426,1,10,0:2:0:0:
382,108,37588,1,2,1:2:0:0:
494,199,37912,1,2,0:2:0:0:
476,280,38074,2,0,P|458:312|452:347,1,67.4999979400635,10|0,0:2|0:2,0:0:0:0:
378,372,38399,1,2,1:1:0:0:
378,372,38561,1,8,0:2:0:0:
325,305,38723,2,0,L|245:326,1,67.4999979400635,2|8,1:1|0:2,0:0:0:0:
187,382,39047,5,2,1:2:0:0:
187,382,39210,2,0,P|148:374|91:283,1,134.999995880127,2|2,0:2|1:2,0:2:0:0:
151,245,39696,2,0,P|159:212|166:166,1,67.4999979400635,2|0,1:2|0:0,0:2:0:0:
97,129,40020,1,10,0:2:0:0:
97,129,40183,1,2,1:2:0:0:
158,7,40507,1,2,0:2:0:0:
229,42,40669,2,0,P|237:81|251:110,1,67.4999979400635,10|0,0:2|0:2,0:2:0:0:
195,168,40993,1,2,1:1:0:0:
120,130,41156,1,8,0:2:0:0:
120,130,41237,1,8,0:2:0:0:
120,130,41318,2,0,L|41:152,1,67.4999979400635,10|8,0:2|0:2,0:0:0:0:
8,235,41642,5,2,1:2:0:0:
8,235,41804,2,0,P|46:269|65:358,1,134.999995880127,2|2,0:2|1:2,0:2:0:0:
140,384,42291,2,0,L|213:368,1,67.4999979400635,2|0,1:2|0:0,0:2:0:0:
252,300,42615,1,10,0:2:0:0:
252,300,42777,1,2,1:2:0:0:
332,172,43101,2,0,B|362:152|362:152|431:170,1,101.249996910095,2|0,0:2|0:0,0:2:0:0:
445,173,43426,1,2,0:2:0:0:
480,248,43588,2,0,L|494:314,1,67.4999979400635,2|8,1:1|0:2,0:0:0:0:
436,372,43912,1,2,1:1:0:0:
379,314,44074,1,8,0:2:0:0:
12,11,46831,6,0,P|31:57|44:158,1,123.75000377655,4|0,1:0|0:0,0:0:0:0:
36,144,47156,2,0,P|97:202|175:172,1,165.000005035401,8|0,0:0|1:0,0:0:0:0:
182,95,47642,1,0,1:0:0:0:
257,151,47804,2,0,P|261:110|278:72,1,82.5000025177003,8|0,0:0|0:0,0:0:0:0:
355,8,48128,5,0,1:0:0:0:
355,8,48291,1,0,1:0:0:0:
441,36,48453,2,0,P|457:73|422:195,1,165.000005035401,8|0,0:0|1:0,0:0:0:0:
357,131,48939,1,0,1:0:0:0:
331,216,49101,1,8,0:0:0:0:
461,342,49426,6,0,B|430:368|430:368|332:338,1,123.75000377655,4|0,1:0|0:0,0:0:0:0:
343,328,49750,2,0,L|180:372,1,165.000005035401,8|0,0:0|1:0,0:0:0:0:
100,346,50237,1,0,1:0:0:0:
48,278,50399,2,0,P|53:237|70:199,1,82.5000025177003,8|0,0:0|0:0,0:0:0:0:
155,152,50723,5,0,1:0:0:0:
155,152,50885,1,0,1:0:0:0:
194,227,51047,2,0,B|233:253|233:253|355:217,1,165.000005035401,8|0,0:0|1:0,0:0:0:0:
396,144,51534,1,0,1:0:0:0:
307,126,51696,1,8,0:0:0:0:
326,40,51858,1,8,0:0:0:0:
333,25,51939,1,8,0:0:0:0:
327,9,52020,6,0,P|261:-1|202:41,1,123.75000377655,4|0,1:0|0:0,0:0:0:0:
202,39,52345,2,0,L|186:130,1,82.5000025177003,8|0,0:0|0:0,0:0:0:0:
127,183,52669,1,0,1:0:0:0:
127,183,52831,1,0,1:0:0:0:
89,100,52993,1,8,0:0:0:0:
29,256,53318,5,0,1:0:0:0:
29,256,53480,1,0,1:0:0:0:
2,342,53642,1,8,0:0:0:0:
169,291,53966,1,0,1:0:0:0:
169,291,54128,1,2,1:2:0:0:
258,326,54291,1,8,0:0:0:0:
258,326,54453,1,2,3:0:0:0:
309,241,54615,6,0,P|322:199|352:153,1,89.9999972534181,4|0,1:2|1:0,0:0:0:0:
312,71,54939,2,0,P|270:58|224:28,1,89.9999972534181,12|0,0:0|1:0,0:0:0:0:
138,54,55264,1,2,1:0:0:0:
153,147,55426,1,2,1:0:0:0:
245,130,55588,1,10,0:0:0:0:
403,3,55912,6,0,P|421:55|441:93,1,89.9999972534181,4|0,1:2|1:0,0:0:0:0:
510,153,56237,1,12,0:0:0:0:
510,153,56399,1,0,1:0:0:0:
455,229,56561,1,2,1:0:0:0:
377,173,56723,2,0,P|368:146|357:128,2,44.999998626709,8|8|8,0:0|0:0|0:0,0:0:0:0:
287,215,57047,1,8,0:0:0:0:
269,210,57128,1,8,0:0:0:0:
252,205,57210,6,0,P|279:264|291:334,1,123.75000377655,4|0,1:0|0:0,0:0:0:0:
279,342,57534,2,0,L|444:370,1,165.000005035401,8|0,0:0|1:0,0:0:0:0:
486,292,58020,1,0,1:0:0:0:
399,273,58183,2,0,P|395:232|378:194,1,82.5000025177003,8|0,0:0|0:0,0:0:0:0:
439,128,58507,5,0,1:0:0:0:
439,128,58669,1,0,1:0:0:0:
488,53,58831,2,0,B|456:30|456:30|324:65,1,165.000005035401,8|0,0:0|1:0,0:0:0:0:
267,121,59318,1,0,1:0:0:0:
300,203,59480,1,8,0:0:0:0:
208,21,59804,6,0,P|168:40|112:44,1,82.5000025177003,4|0,1:0|0:0,0:0:0:0:
40,56,60128,2,0,P|59:96|63:152,1,82.5000025177003,8|0,0:0|0:0,0:0:0:0:
150,161,60453,1,0,1:0:0:0:
150,161,60615,1,0,1:0:0:0:
102,237,60777,2,0,L|14:223,1,82.5000025177003,8|0,0:0|0:0,0:0:0:0:
0,307,61101,6,0,P|28:351|108:359,1,123.75000377655,0|0,1:0|0:0,0:0:0:0:
110,358,61426,1,8,0:0:0:0:
173,293,61588,1,8,0:0:0:0:
246,346,61750,2,0,L|263:261,1,82.5000025177003,0|0,1:0|1:0,0:0:0:0:
230,180,62074,1,8,0:0:0:0:
140,197,62237,1,8,0:0:0:0:
123,193,62318,1,8,0:0:0:0:
106,189,62399,6,0,P|96:133|71:72,1,123.75000377655,4|0,1:0|0:0,0:0:0:0:
57,61,62723,2,0,P|99:47|139:21,1,82.5000025177003,8|0,0:0|0:0,0:0:0:0:
218,52,63047,1,0,1:0:0:0:
218,52,63210,1,0,1:0:0:0:
193,139,63372,1,8,0:0:0:0:
370,91,63696,5,0,1:0:0:0:
370,91,63859,1,0,1:0:0:0:
345,4,64021,1,8,0:0:0:0:
487,124,64345,1,0,1:0:0:0:
487,124,64508,1,2,1:2:0:0:
462,211,64669,2,0,P|420:220|377:241,1,82.5000025177003,8|10,0:0|0:0,0:0:0:0:
374,250,64912,1,10,0:0:0:0:
368,267,64993,6,0,P|377:315|394:361,1,89.9999972534181,4|0,1:2|1:0,0:0:0:0:
292,368,65318,2,0,P|283:320|266:274,1,89.9999972534181,12|0,0:2|1:0,0:0:0:0:
179,252,65642,1,2,1:0:0:0:
202,160,65804,1,2,1:0:0:0:
293,184,65966,1,10,0:2:0:0:
461,78,66291,6,0,P|413:69|367:52,1,89.9999972534181,4|0,1:2|1:0,0:0:0:0:
295,2,66615,2,0,P|286:50|269:96,1,89.9999972534181,12|0,0:2|1:0,0:0:0:0:
198,147,66939,1,2,1:0:0:0:
132,94,67101,1,8,0:0:0:0:
132,94,67183,1,8,0:0:0:0:
132,94,67264,2,0,L|119:44,3,44.999998626709,8|8|8|8,0:0|0:0|0:0|0:0,0:0:0:0:
86,26,67588,5,0,1:0:0:0:
73,15,70020,1,2,0:2:0:0:
148,43,70183,6,0,P|176:76|177:171,1,120,2|10,1:2|0:2,0:2:0:0:
65,189,70831,2,0,P|47:221|43:254,1,60,2|0,1:2|0:2,0:2:0:0:
0,314,71155,2,0,L|70:329,1,60,10|0,0:2|1:2,0:0:0:0:
132,384,71480,2,0,L|258:359,1,120,2|10,1:2|0:2,0:2:0:0:
291,292,71966,2,0,L|278:229,2,60,2|0|8,0:2|1:2|0:2,0:0:0:0:
359,335,72453,1,0,1:2:0:0:
482,273,72777,5,2,1:2:0:0:
482,273,72939,2,0,P|496:237|497:192,1,60,2|8,0:2|0:2,0:2:0:0:
430,173,73264,2,0,P|416:137|415:92,1,60,2|0,1:2|1:2,0:0:0:0:
459,52,73588,1,2,0:2:0:0:
327,5,73912,2,0,P|305:36|294:94,1,90,2|0,1:2|0:0,0:0:0:0:
278,98,74237,2,0,P|295:130|303:163,1,60,2|8,0:2|0:2,0:2:0:0:
283,231,74561,1,2,0:2:0:0:
186,329,74885,2,0,L|179:365,2,30,8|8|8,0:2|0:2|0:2,0:0:0:0:
151,259,75210,1,8,0:2:0:0:
72,303,75372,6,0,P|45:272|48:177,1,120,2|10,1:2|0:2,0:2:0:0:
164,153,76020,2,0,L|176:89,1,60,2|0,1:2|0:2,0:2:0:0:
134,30,76345,2,0,P|108:14|70:11,1,60,10|0,0:2|1:2,0:0:0:0:
22,64,76669,1,2,1:2:0:0:
49,188,76993,1,10,0:2:0:0:
175,162,77318,1,2,1:2:0:0:
175,162,77480,2,0,L|250:145,1,60,10|0,0:2|1:2,0:0:0:0:
298,194,77804,1,10,0:2:0:0:
248,259,77966,5,0,1:2:0:0:
356,347,78291,2,0,L|369:288,2,60,8|0|0,0:2|1:2|1:2,0:0:0:0:
474,259,78939,2,0,L|461:200,2,60,8|0|0,0:2|1:2|1:2,0:0:0:0:
350,158,79588,1,8,0:2:0:0:
454,75,79912,1,0,1:2:0:0:
389,29,80074,2,0,L|394:0,2,30,8|8|8,0:2|0:2|0:2,0:0:0:0:
328,79,80399,1,10,0:2:0:0:
251,10,80561,6,0,P|219:13|189:31,1,60,2|0,1:2|0:0,0:2:0:0:
118,33,80885,2,0,L|133:99,1,60,10|0,0:2|1:2,0:0:0:0:
184,152,81210,1,2,1:2:0:0:
157,274,81534,1,10,0:2:0:0:
38,216,81858,2,0,P|9:187|16:107,1,120,2|10,1:2|0:2,0:2:0:0:
59,43,82345,2,0,L|-7:26,2,60,2|0|8,0:2|1:2|0:2,0:0:0:0:
122,104,82831,1,2,1:2:0:0:
122,104,82993,1,10,0:2:0:0:
195,36,83156,6,0,P|211:64|225:116,1,60,2|0,1:2|0:2,0:2:0:0:
233,102,83399,2,0,P|217:138|212:168,1,60,2|0,0:2|0:0,0:0:0:0:
217,175,83642,1,2,1:2:0:0:
143,281,83966,2,0,P|112:274|85:262,1,60,2|8,0:2|0:2,0:2:0:0:
32,208,84291,2,0,P|6:235|6:303,1,90,2|0,1:2|0:0,0:0:0:0:
11,299,84615,2,0,L|28:366,1,60,2|8,0:2|0:2,0:2:0:0:
101,375,84939,1,2,0:2:0:0:
217,309,85264,2,0,L|226:277,2,30,8|8|8,0:2|0:2|0:2,0:0:0:0:
269,371,85588,1,10,0:2:0:0:
330,303,85750,6,0,P|361:319|388:325,1,60,2|0,1:2|0:0,0:0:0:0:
405,354,85993,2,0,P|436:338|463:332,1,60,2|0,0:0|0:0,0:0:0:0:
478,335,86237,1,2,1:2:0:0:
510,201,86561,2,0,P|499:170|495:141,1,60,2|8,0:2|0:2,0:2:0:0:
441,84,86885,2,0,P|402:92|366:143,1,90,2|0,1:2|0:0,0:2:0:0:
360,144,87210,2,0,L|299:156,1,60,2|8,0:2|0:2,0:2:0:0:
237,108,87534,2,0,L|224:45,1,60,2|0,0:2|1:2,0:0:0:0:
287,1,87858,1,10,0:2:0:0:
287,1,88020,1,0,1:2:0:0:
353,45,88183,2,0,L|475:18,1,120,10|0,0:2|3:0,0:0:0:0:
256,192,88993,12,2,90615,3:0:0:0:
215,236,90939,5,2,1:2:0:0:
280,182,91101,2,0,B|300:158|300:158|272:47,1,134.999995880127,2|2,0:2|1:2,0:2:0:0:
199,95,91588,2,0,L|127:81,1,67.4999979400635,2|0,1:2|0:0,0:2:0:0:
64,23,91912,1,10,0:2:0:0:
64,23,92074,2,0,L|95:164,1,134.999995880127,2|2,1:2|0:2,0:2:0:0:
159,208,92561,1,10,0:2:0:0:
30,301,92885,1,2,1:1:0:0:
30,301,93047,1,8,0:2:0:0:
87,364,93210,2,0,L|157:381,1,67.4999979400635,2|8,1:1|0:2,0:0:0:0:
217,311,93534,5,2,1:2:0:0:
277,371,93696,2,0,P|325:354|380:289,1,134.999995880127,2|2,0:2|1:2,0:2:0:0:
458,318,94183,2,0,L|473:239,1,67.4999979400635,2|0,1:2|0:0,0:2:0:0:
486,168,94507,1,10,0:2:0:0:
400,153,94669,2,0,L|358:164,2,33.7499989700318,8|4|0,3:3|3:3|1:2,0:0:0:0:
426,73,94993,1,0,1:2:0:0:
362,22,95156,1,8,0:2:0:0:
209,13,95480,1,2,1:1:0:0:
209,13,95642,1,8,0:2:0:0:
186,91,95804,2,0,P|207:116|218:148,1,67.4999979400635,2|8,1:1|0:2,0:0:0:0:
184,231,96128,5,2,1:2:0:0:
109,277,96291,2,0,B|88:244|88:244|118:150,1,134.999995880127,2|2,0:2|1:2,0:2:0:0:
38,117,96777,2,0,L|61:45,1,67.4999979400635,2|0,1:2|0:0,0:2:0:0:
132,6,97101,1,10,0:2:0:0:
169,83,97264,2,0,P|218:74|270:30,1,101.249996910095,2|0,1:2|0:2,0:2:0:0:
266,27,97588,1,2,0:2:0:0:
348,53,97750,1,10,0:2:0:0:
416,198,98074,1,2,1:1:0:0:
416,198,98237,1,8,0:2:0:0:
336,162,98399,2,0,L|261:179,1,67.4999979400635,2|8,1:1|0:2,0:0:0:0:
244,256,98723,6,0,P|230:293|227:337,1,60,0|0,1:2|1:2,0:0:0:0:
157,364,99047,2,0,P|120:350|76:347,1,60,8|0,0:2|1:2,0:2:0:0:
41,274,99372,2,0,L|25:202,1,67.4999979400635,0|0,1:2|1:2,0:0:0:0:
110,170,99696,2,0,L|95:104,1,67.4999979400635,8|0,0:2|1:2,0:2:0:0:
155,33,100020,5,8,0:2:0:0:
155,33,100183,1,0,1:2:0:0:
67,0,100345,1,8,0:2:0:0:
8,72,100507,1,8,0:0:0:0:
8,72,100588,1,8,0:0:0:0:
8,72,100669,2,0,L|17:120,3,37.5,8|8|8|8,3:0|3:0|3:0|3:0,0:0:0:0:
4,128,100993,2,0,L|13:176,3,37.5,4|4|4|4,3:0|3:0|3:0|3:0,0:0:0:0:
0,202,101318,6,0,P|31:253|50:323,1,123.75000377655,4|0,1:0|0:0,0:0:0:0:
41,328,101642,2,0,L|202:288,1,165.000005035401,8|0,0:0|1:0,0:0:0:0:
237,203,102128,1,0,1:0:0:0:
311,260,102291,2,0,P|332:298|340:348,1,82.5000025177003,8|0,0:0|0:0,0:0:0:0:
427,379,102615,5,0,1:0:0:0:
427,379,102777,1,0,1:0:0:0:
490,316,102939,2,0,B|515:279|515:279|473:162,1,165.000005035401,8|0,0:0|1:0,0:0:0:0:
388,129,103426,1,0,1:0:0:0:
318,187,103588,1,8,0:0:0:0:
464,23,103912,6,0,B|430:45|430:45|342:23,1,123.75000377655,4|0,1:0|0:0,0:0:0:0:
340,6,104237,2,0,L|174:43,1,165.000005035401,8|0,0:0|1:0,0:0:0:0:
145,122,104723,1,0,1:0:0:0:
81,58,104885,2,0,P|60:96|58:141,1,82.5000025177003,8|0,0:0|0:0,0:0:0:0:
112,213,105210,5,0,1:0:0:0:
112,213,105372,1,0,1:0:0:0:
197,192,105534,2,0,P|225:228|247:356,1,165.000005035401,8|0,0:0|1:0,0:0:0:0:
172,384,106020,1,0,1:0:0:0:
134,306,106183,1,8,0:0:0:0:
68,363,106345,1,8,0:0:0:0:
55,373,106426,1,8,0:0:0:0:
38,373,106507,6,0,P|31:297|1:241,1,123.75000377655,4|0,1:0|0:0,0:0:0:0:
0,240,106831,2,0,L|99:210,1,82.5000025177003,8|0,0:0|0:0,0:0:0:0:
129,140,107156,1,0,1:0:0:0:
129,140,107318,1,0,1:0:0:0:
40,118,107480,1,8,0:0:0:0:
181,25,107804,5,0,1:0:0:0:
181,25,107966,1,0,1:0:0:0:
270,3,108128,1,8,0:0:0:0:
321,162,108453,1,0,1:0:0:0:
321,162,108615,1,2,1:2:0:0:
236,146,108777,1,8,0:0:0:0:
236,146,108939,1,2,3:0:0:0:
197,237,109101,6,0,P|221:284|229:327,1,89.9999972534181,4|0,1:2|1:0,0:0:0:0:
304,377,109426,2,0,P|351:353|394:345,1,89.9999972534181,12|0,0:0|1:0,0:0:0:0:
458,283,109750,1,2,1:0:0:0:
424,194,109912,1,2,1:0:0:0:
359,263,110074,1,10,0:0:0:0:
228,102,110399,6,0,P|271:91|311:70,1,89.9999972534181,4|0,1:2|1:0,0:0:0:0:
379,4,110723,1,12,0:0:0:0:
379,4,110885,1,0,1:0:0:0:
467,37,111047,1,2,1:0:0:0:
441,131,111210,2,0,P|465:137|488:152,2,44.999998626709,8|8|8,0:0|0:0|0:0,0:0:0:0:
368,203,111534,1,8,0:0:0:0:
355,191,111615,1,8,0:0:0:0:
339,184,111696,6,0,L|205:209,1,123.75000377655,4|0,1:0|0:0,0:0:0:0:
207,223,112020,2,0,P|157:183|175:76,1,165.000005035401,8|0,0:0|1:0,0:0:0:0:
234,34,112507,1,0,1:0:0:0:
146,5,112669,2,0,L|49:24,1,82.5000025177003,8|0,0:0|0:0,0:0:0:0:
8,96,112993,5,0,1:0:0:0:
8,96,113156,1,0,1:0:0:0:
55,173,113318,2,0,P|29:226|17:335,1,165.000005035401,8|0,0:0|1:0,0:0:0:0:
91,380,113804,1,0,1:0:0:0:
130,302,113966,1,8,0:0:0:0:
310,379,114291,6,0,P|291:337|287:292,1,82.5000025177003,4|0,1:0|0:0,0:0:0:0:
229,233,114615,2,0,P|271:214|316:210,1,82.5000025177003,8|0,0:0|0:0,0:0:0:0:
362,139,114939,1,0,1:0:0:0:
362,139,115101,1,0,1:0:0:0:
436,188,115264,2,0,L|419:272,1,82.5000025177003,8|0,0:0|0:0,0:0:0:0:
493,336,115588,6,0,P|442:346|354:385,1,123.75000377655,0|0,1:0|0:0,0:0:0:0:
363,384,115912,1,8,0:0:0:0:
284,334,116074,1,8,0:0:0:0:
308,251,116237,2,0,L|286:165,1,82.5000025177003,0|0,1:0|1:0,0:0:0:0:
334,96,116561,1,8,0:0:0:0:
415,134,116723,1,8,0:0:0:0:
427,145,116804,1,8,0:0:0:0:
442,149,116885,6,0,P|475:117|459:29,1,123.75000377655,4|0,1:0|0:0,0:0:0:0:
459,31,117210,2,0,P|413:28|371:14,1,82.5000025177003,8|0,0:0|0:0,0:0:0:0:
327,90,117534,1,0,1:0:0:0:
327,90,117696,1,0,1:0:0:0:
293,7,117858,1,8,0:0:0:0:
200,134,118183,5,0,1:0:0:0:
200,134,118345,1,0,1:0:0:0:
166,217,118507,1,8,0:0:0:0:
113,47,118831,1,0,1:0:0:0:
113,47,118993,1,2,1:2:0:0:
30,13,119156,2,0,L|-4:115,1,82.5000025177003,8|10,0:0|0:0,0:0:0:0:
7,107,119399,1,10,0:0:0:0:
10,123,119480,6,0,P|51:140|107:141,1,89.9999972534181,4|0,1:2|1:0,0:0:0:0:
153,217,119804,2,0,P|136:258|135:314,1,89.9999972534181,12|0,0:2|1:0,0:0:0:0:
71,374,120128,1,2,1:0:0:0:
1,308,120291,1,2,1:0:0:0:
59,234,120453,1,10,0:2:0:0:
198,368,120777,6,0,P|239:351|295:350,1,89.9999972534181,4|0,1:2|0:0,0:0:0:0:
347,278,121101,2,0,P|330:237|329:181,1,89.9999972534181,12|0,0:2|0:0,0:0:0:0:
237,159,121426,1,2,1:0:0:0:
285,78,121588,1,2,1:0:0:0:
220,9,121750,1,10,0:0:0:0:
408,5,122074,6,0,P|449:22|505:23,1,89.9999972534181,4|0,1:2|1:0,0:0:0:0:
501,119,122399,2,0,P|484:160|483:216,1,89.9999972534181,12|0,0:2|1:0,0:0:0:0:
415,273,122723,1,2,1:0:0:0:
335,222,122885,1,2,1:0:0:0:
293,306,123047,1,10,0:0:0:0:
256,192,123372,12,0,124669,1:0:0:0:
256,192,129858,12,0,133750,3:0:0:0:
499,76,135047,6,0,P|473:68|454:56,2,37.5,0|0|0,1:0|1:0|1:0,0:0:0:0:
384,98,135372,1,0,1:0:0:0:
380,113,135453,1,0,1:0:0:0:
369,125,135535,1,0,1:0:0:0:
419,202,135696,1,8,0:0:0:0:
346,261,135858,6,0,L|339:305,2,37.5,0|0|0,1:0|1:0|1:0,0:0:0:0:
236,158,136345,2,0,L|241:120,2,37.5,0|0|0,1:0|1:0|1:0,0:0:0:0:
147,281,136831,2,0,L|140:325,1,37.5,0|0,1:0|1:0,0:0:0:0:
132,330,136993,1,2,0:0:0:0:
53,197,137318,2,0,L|16:189,2,37.5,0|0|0,1:0|1:0|1:0,0:0:0:0:
127,150,137642,6,0,P|138:131|142:107,2,37.5,0|0|0,1:0|1:0|1:0,0:0:0:0:
133,33,137966,1,0,1:0:0:0:
122,23,138047,1,0,1:0:0:0:
108,17,138128,1,0,1:0:0:0:
23,33,138291,1,8,0:0:0:0:
38,122,138453,2,0,L|0:132,2,37.5,0|0|0,1:0|1:0|1:0,0:0:0:0:
256,192,138939,12,2,139912,0:1:0:0:
214,351,140237,6,0,P|230:307|254:89,1,262.5,0|0,1:0|0:0,0:0:0:0:
245,81,140885,2,0,L|195:66,2,37.5,8|0|0,0:0|1:0|1:0,0:0:0:0:
322,35,141210,2,0,L|337:-15,2,37.5,0|0|0,1:0|1:0|1:0,0:0:0:0:
442,151,141696,6,0,L|457:101,2,37.5,0|0|0,1:0|1:0|1:0,0:0:0:0:
363,187,142020,1,0,1:0:0:0:
363,187,142101,1,0,1:0:0:0:
363,187,142183,2,0,P|385:230|392:265,1,75,8|0,0:0|1:0,0:0:0:0:
476,288,142507,1,0,1:0:0:0:
434,366,142669,1,0,1:0:0:0:
434,366,142750,1,0,1:0:0:0:
434,366,142831,6,0,L|357:349,1,75,8|0,0:0|1:0,0:0:0:0:
303,285,143156,1,0,1:0:0:0:
235,351,143318,2,0,L|215:278,1,75,8|0,0:0|1:0,0:0:0:0:
252,197,143642,1,0,1:0:0:0:
171,153,143804,1,8,0:0:0:0:
171,153,143966,1,0,1:0:0:0:
256,192,144128,12,8,145101,0:0:0:0:
234,73,145426,6,0,P|211:67|193:58,2,37.5,0|0|0,1:0|1:0|1:0,0:0:0:0:
143,3,145750,1,0,1:0:0:0:
128,5,145831,1,0,1:0:0:0:
114,12,145912,1,0,1:0:0:0:
60,83,146074,1,8,0:0:0:0:
133,136,146237,6,0,L|146:206,2,37.5,0|0|0,1:0|1:0|1:0,0:0:0:0:
16,253,146723,2,0,L|29:323,2,37.5,0|0|0,1:0|1:0|1:0,0:0:0:0:
170,301,147210,1,0,1:0:0:0:
183,308,147291,1,0,1:0:0:0:
196,315,147372,2,0,L|209:385,2,37.5,8|0|0,0:0|1:0|1:0,0:0:0:0:
254,249,147696,2,0,L|247:212,2,37.5,0|0|0,1:0|1:0|1:0,0:0:0:0:
326,296,148020,6,0,P|344:304|359:316,2,37.5,0|0|0,1:0|1:0|1:0,0:0:0:0:
414,379,148345,1,0,1:0:0:0:
428,374,148426,1,0,1:0:0:0:
440,366,148508,1,0,1:0:0:0:
487,291,148669,1,8,0:0:0:0:
412,243,148831,2,0,L|399:206,2,37.5,0|0|0,1:0|1:0|1:0,0:0:0:0:
256,192,149318,12,2,150291,0:1:0:0:
445,176,150615,6,0,P|406:169|192:108,1,262.5,0|0,1:0|0:0,0:0:0:0:
182,95,151264,2,0,L|170:41,2,37.5,8|0|0,0:0|1:0|1:0,0:0:0:0:
237,10,151588,2,0,L|291:-2,2,37.5,0|0|0,1:0|1:0|1:0,0:0:0:0:
414,87,152074,6,0,L|468:75,2,37.5,0|0|0,1:0|1:0|1:0,0:0:0:0:
327,230,152561,2,0,L|237:209,1,75,8|0,0:0|1:0,0:0:0:0:
198,148,152885,1,0,1:0:0:0:
149,222,153047,1,0,1:0:0:0:
149,222,153128,1,0,1:0:0:0:
149,222,153210,6,0,P|131:263|128:299,1,75,8|0,0:0|1:0,0:0:0:0:
57,347,153534,1,0,1:0:0:0:
57,347,153696,1,0,1:0:0:0:
21,262,153858,2,0,P|15:225|0:191,1,75,8|0,0:0|1:0,0:0:0:0:
51,118,154183,1,0,1:0:0:0:
51,118,154345,1,0,1:0:0:0:
146,140,154507,5,8,0:0:0:0:
146,140,154588,1,8,0:0:0:0:
146,140,154669,2,0,L|224:119,1,75,0|0,1:0|1:0,0:0:0:0:
249,39,154993,1,8,0:0:0:0:
249,39,155074,1,8,0:0:0:0:
249,39,155156,2,0,L|171:18,1,75,0|0,1:0|1:0,0:0:0:0:
91,0,155480,2,0,P|48:22|15:94,1,112.5,8|0,0:0|0:0,0:0:0:0:
19,91,155804,5,4,1:0:0:0:
294,373,163588,6,0,P|271:327|264:233,1,112.5,4|0,1:0|0:0,0:0:0:0:
269,252,163912,2,0,L|357:233,1,75,4|0,1:2|0:0,0:0:0:0:
413,278,164237,1,8,0:0:0:0:
458,209,164399,1,0,1:0:0:0:
389,163,164561,1,0,1:0:0:0:
503,32,164885,6,0,B|478:47|478:47|384:14,1,112.5,0|0,1:0|0:0,0:0:0:0:
385,13,165210,1,0,1:0:0:0:
329,73,165372,1,0,0:0:0:0:
329,73,165534,2,0,L|236:100,1,75,8|0,0:0|0:0,0:0:0:0:
185,48,165858,1,8,0:0:0:0:
103,216,166183,6,0,P|85:172|13:109,1,112.5,4|0,1:0|0:0,0:0:0:0:
29,116,166507,2,0,L|40:33,1,75,0|0,1:0|0:0,0:0:0:0:
118,7,166831,1,8,0:0:0:0:
147,92,166993,1,8,0:0:0:0:
275,183,167318,2,0,P|314:175|349:152,1,75,0|2,1:0|3:0,0:0:0:0:
390,80,167642,1,0,1:0:0:0:
390,80,167804,2,0,L|373:4,1,75,0|0,1:0|0:0,0:0:0:0:
465,0,168128,2,0,L|498:154,1,150,8|0,0:0|0:0,0:0:0:0:
461,229,168615,1,0,1:0:0:0:
375,203,168777,6,0,P|348:241|347:288,1,75,4|0,1:2|0:0,0:0:0:0:
384,349,169101,2,0,P|422:376|469:377,1,75,0|0,1:0|0:0,0:0:0:0:
512,311,169426,1,8,0:0:0:0:
512,311,169588,1,0,1:0:0:0:
410,179,169912,2,0,L|327:199,1,75,0|2,1:0|3:0,0:0:0:0:
271,137,170237,1,0,1:0:0:0:
271,137,170399,2,0,L|198:119,1,75,0|0,1:0|0:0,0:0:0:0:
123,169,170723,2,0,P|104:210|136:311,1,150,8|0,0:0|0:0,0:0:0:0:
211,359,171210,1,0,1:0:0:0:
272,295,171372,6,0,P|279:256|297:218,1,75,4|0,1:2|0:0,0:0:0:0:
229,166,171696,2,0,P|222:127|204:89,1,75,0|0,1:0|0:0,0:0:0:0:
261,27,172020,1,8,0:0:0:0:
43,11,172507,2,0,B|12:38|12:38|20:97,1,75,0|0,1:0|0:0,0:0:0:0:
87,128,172831,1,0,1:0:0:0:
87,128,172993,2,0,L|102:202,1,75,0|0,1:0|0:0,0:0:0:0:
39,264,173318,2,0,P|24:308|110:361,1,150,8|0,0:0|0:0,0:0:0:0:
157,301,173804,1,0,1:0:0:0:
228,376,173966,6,0,P|235:337|279:232,1,123.75000377655,4|0,1:2|0:0,0:0:0:0:
278,249,174291,2,0,P|231:238|196:207,1,82.5000025177003,0|0,1:0|1:0,0:0:0:0:
165,138,174615,1,8,0:0:0:0:
228,69,174777,1,8,0:0:0:0:
314,113,174939,1,0,1:0:0:0:
471,226,175264,6,0,P|426:230|376:305,1,123.75000377655,0|0,1:0|0:0,0:0:0:0:
366,295,175588,2,0,L|389:381,1,82.5000025177003,0|0,1:0|1:0,0:0:0:0:
476,378,175912,1,8,0:0:0:0:
512,298,176074,1,0,1:0:0:0:
460,224,176237,2,0,L|438:144,1,82.5000025177003,8|0,0:0|1:0,0:0:0:0:
446,129,176480,1,0,1:0:0:0:
453,114,176561,6,0,P|422:68|339:61,1,123.75000377655,4|0,1:0|0:0,0:0:0:0:
350,68,176885,2,0,L|185:104,1,165.000005035401,8|0,0:0|1:0,0:0:0:0:
163,19,177372,1,0,1:0:0:0:
77,31,177534,2,0,P|55:74|53:128,1,82.5000025177003,8|0,0:0|0:0,0:0:0:0:
118,176,177858,5,0,1:0:0:0:
118,176,178020,1,0,1:0:0:0:
48,245,178183,2,0,L|217:282,1,165.000005035401,8|0,0:0|1:0,0:0:0:0:
282,225,178669,1,0,1:0:0:0:
329,302,178831,1,8,0:0:0:0:
142,363,179156,6,0,B|112:341|112:341|131:239,1,123.75000377655,4|0,1:0|0:0,0:0:0:0:
141,247,179480,2,0,P|140:203|36:197,1,165.000005035401,8|0,0:0|1:0,0:0:0:0:
0,267,179966,1,0,1:0:0:0:
30,351,180128,2,0,L|113:333,1,82.5000025177003,8|0,0:0|0:0,0:0:0:0:
193,368,180453,5,0,1:0:0:0:
193,368,180615,1,0,1:0:0:0:
254,305,180777,2,0,P|270:266|287:132,1,165.000005035401,8|0,0:0|1:0,0:0:0:0:
220,91,181264,1,0,1:0:0:0:
146,142,181426,2,0,L|127:54,1,82.5000025177003,8|0,0:0|3:0,0:0:0:0:
197,2,181750,6,0,P|242:15|336:26,1,123.75000377655,4|0,1:0|0:0,0:0:0:0:
332,16,182074,2,0,L|351:102,1,82.5000025177003,8|0,0:0|0:0,0:0:0:0:
429,52,182399,1,0,1:0:0:0:
429,52,182561,1,0,1:0:0:0:
464,133,182723,1,8,0:0:0:0:
384,272,183047,5,0,1:0:0:0:
384,272,183209,1,0,1:0:0:0:
349,353,183371,1,8,0:0:0:0:
285,193,183696,1,0,1:0:0:0:
285,193,183858,1,2,1:2:0:0:
250,112,184020,1,8,0:0:0:0:
166,148,184183,1,10,0:0:0:0:
203,228,184345,6,0,P|184:270|178:321,1,89.9999972534181,4|0,1:2|1:0,0:0:0:0:
110,377,184669,2,0,P|68:358|17:352,1,89.9999972534181,12|0,0:0|1:0,0:0:0:0:
0,259,184993,1,2,1:0:0:0:
66,191,185156,1,2,1:0:0:0:
89,281,185318,1,10,0:0:0:0:
213,132,185642,6,0,P|257:125|298:106,1,89.9999972534181,4|0,1:2|1:0,0:0:0:0:
310,15,185966,1,12,0:0:0:0:
310,15,186128,1,0,1:0:0:0:
214,8,186291,1,2,1:0:0:0:
143,72,186453,1,2,1:0:0:0:
69,8,186615,2,0,P|43:49|37:90,1,89.9999972534181,10|0,0:0|0:0,0:0:0:0:
38,190,186939,6,0,B|68:165|68:165|161:189,1,123.75000377655,4|0,1:0|0:0,0:0:0:0:
161,173,187264,2,0,P|212:202|181:300,1,165.000005035401,8|0,0:0|1:0,0:0:0:0:
104,281,187750,1,0,1:0:0:0:
137,362,187912,2,0,L|248:387,1,82.5000025177003,8|0,0:0|0:0,0:0:0:0:
292,329,188237,5,0,1:0:0:0:
292,329,188399,1,0,1:0:0:0:
372,376,188561,2,0,P|395:330|407:198,1,165.000005035401,8|0,0:0|1:0,0:0:0:0:
351,154,189047,1,0,1:0:0:0:
275,197,189210,1,8,0:0:0:0:
197,30,189534,6,0,P|236:49|296:56,1,82.5000025177003,4|0,1:0|0:0,0:0:0:0:
358,26,189858,2,0,P|397:7|457:0,1,82.5000025177003,8|0,0:0|0:0,0:0:0:0:
506,64,190183,1,0,1:0:0:0:
506,64,190345,1,0,1:0:0:0:
450,133,190507,2,0,L|436:224,1,82.5000025177003,8|0,0:0|0:0,0:0:0:0:
511,273,190831,6,0,P|498:317|412:332,1,123.75000377655,0|0,1:0|0:0,0:0:0:0:
416,329,191156,2,0,L|328:311,1,82.5000025177003,8|0,0:0|0:0,0:0:0:0:
267,373,191480,2,0,P|255:331|226:284,1,82.5000025177003,0|0,1:0|1:0,0:0:0:0:
301,232,191804,1,8,0:0:0:0:
260,153,191966,1,8,0:0:0:0:
170,172,192128,5,4,1:0:0:0:
170,172,192291,1,0,1:0:0:0:
156,263,192453,2,0,P|114:275|67:304,1,82.5000025177003,8|0,0:0|0:0,0:0:0:0:
39,378,192777,1,0,1:0:0:0:
39,378,192939,1,0,1:0:0:0:
0,293,193101,1,8,0:0:0:0:
43,132,193426,5,0,1:0:0:0:
43,132,193588,1,0,1:0:0:0:
128,93,193750,1,8,0:0:0:0:
233,225,194074,1,0,1:0:0:0:
233,225,194236,1,2,1:2:0:0:
318,264,194398,1,8,0:0:0:0:
318,264,194561,1,2,3:0:0:0:
360,184,194723,6,0,P|370:139|394:96,1,89.9999972534181,4|0,1:2|1:0,0:0:0:0:
334,30,195047,2,0,P|289:20|246:-4,1,89.9999972534181,12|0,0:2|1:0,0:0:0:0:
158,37,195372,1,2,1:0:0:0:
183,132,195534,1,2,1:0:0:0:
277,101,195696,1,10,0:2:0:0:
191,271,196020,6,0,P|146:281|103:305,1,89.9999972534181,4|0,1:2|1:0,0:0:0:0:
30,252,196345,2,0,P|20:207|-4:164,1,89.9999972534181,12|0,0:0|1:0,0:0:0:0:
43,80,196669,1,2,1:0:0:0:
124,135,196831,2,0,P|117:156|103:177,2,44.999998626709,8|8|8,0:0|0:0|0:0,0:0:0:0:
208,98,197156,1,8,0:0:0:0:
198,82,197237,1,8,0:0:0:0:
199,64,197318,6,0,P|237:37|295:33,1,89.9999972534181,4|0,1:2|1:0,0:0:0:0:
369,62,197642,2,0,P|396:100|400:158,1,89.9999972534181,12|0,0:0|1:0,0:0:0:0:
315,178,197966,1,2,1:0:0:0:
349,266,198128,1,2,1:0:0:0:
438,234,198291,1,10,0:0:0:0:
318,373,198615,6,0,P|281:346|237:339,1,89.9999972534181,0|0,1:0|1:0,0:0:0:0:
151,376,198939,1,12,0:0:0:0:
151,376,199101,1,0,1:0:0:0:
119,286,199264,1,12,0:0:0:0:
119,286,199426,1,0,1:0:0:0:
207,253,199588,1,12,0:0:0:0:
207,253,199750,1,0,1:0:0:0:
220,165,199912,6,0,P|196:125|186:47,1,120,4|8,1:0|0:0,0:0:0:0:
229,12,200399,1,0,1:0:0:0:
343,97,200723,1,0,0:0:0:0:
386,56,200885,2,0,L|451:71,1,60,8|0,0:0|1:0,0:0:0:0:
468,124,201210,2,0,P|440:171|432:228,1,90,0|0,1:0|0:0,0:0:0:0:
432,205,201534,1,8,0:0:0:0:
504,300,201858,1,0,1:0:0:0:
467,347,202020,1,10,0:0:0:0:
411,324,202183,2,0,P|376:313|348:297,1,60,0|10,1:0|0:0,0:0:0:0:
305,237,202507,6,0,P|260:240|229:312,1,120,0|8,1:0|0:0,0:0:0:0:
253,354,202993,1,0,1:0:0:0:
135,378,203318,1,0,0:0:0:0:
144,318,203480,2,0,L|126:253,1,60,8|0,0:0|1:0,0:0:0:0:
80,233,203804,2,0,P|51:206|32:140,1,90,0|0,1:0|0:0,0:0:0:0:
32,159,204128,6,0,L|120:133,2,89.9999972534181,8|2|2,0:0|0:2|0:1,0:0:0:0:
