osu file format v14

[General]
AudioFilename: audio.mp3
AudioLeadIn: 0
PreviewTime: 44237
Countdown: 0
SampleSet: Soft
StackLeniency: 0.8
Mode: 0
LetterboxInBreaks: 0
WidescreenStoryboard: 1

[Editor]
Bookmarks: 129,5318,15696,26074,36453,46831,57210,67588,70183,80561,90939,101318,111696,124669,135047,145426,155804,163588,166183,176561,186939,199912,204777
DistanceSpacing: 1
BeatDivisor: 4
GridSize: 16
TimelineZoom: 1

[Metadata]
Title:LosT
TitleUnicode:LosT
Artist:Bring Me The Horizon
ArtistUnicode:Bring Me The Horizon
Creator:Embo
Version:AdVanCeD
Source:
Tags:english alternative alt emo rock hyperpop bmth Oliver Oli Sykes Matt Nicholls Lee Malia Kean Jordan Fish post human: nex gen
BeatmapID:4258135
BeatmapSetID:2041071

[Difficulty]
HPDrainRate:4
CircleSize:3.5
OverallDifficulty:5.2
ApproachRate:6
SliderMultiplier:1.1
SliderTickRate:1

[Events]
//Background and Video events
0,0,"lostbg.jpg",0,0
//Break Periods
2,124869,133893
2,156004,162434
//Storyboard Layer 0 (Background)
//Storyboard Layer 1 (Fail)
//Storyboard Layer 2 (Pass)
//Storyboard Layer 3 (Foreground)
//Storyboard Layer 4 (Overlay)
//Storyboard Sound Samples

[TimingPoints]
129,324.324324324324,4,2,1,55,1,0
129,-100,4,2,1,55,0,0
5318,-100,4,2,1,70,0,0
6291,-100,4,2,1,70,0,0
7912,-100,4,2,1,70,0,0
8237,-100,4,2,1,70,0,0
10507,-100,4,2,1,70,0,0
10831,-100,4,2,1,70,0,0
13426,-100,4,2,1,70,0,0
14074,-100,4,2,1,70,0,0
14399,-100,4,2,1,70,0,0
15047,-100,4,2,1,70,0,0
15696,-111.111111111111,4,2,1,60,0,0
36453,-100,4,2,1,65,0,0
44237,-100,4,2,1,30,0,0
45534,-100,4,2,1,30,0,0
46183,-100,4,2,1,30,0,0
46831,-90.9090909090909,4,2,1,80,0,1
48453,-90.9090909090909,4,2,1,80,0,1
49101,-90.9090909090909,4,2,1,80,0,1
49426,-90.9090909090909,4,2,1,80,0,1
51047,-90.9090909090909,4,2,1,80,0,1
51696,-90.9090909090909,4,2,1,80,0,1
52345,-90.9090909090909,4,2,1,80,0,1
54615,-90.9090909090909,4,2,1,80,0,1
57210,-90.9090909090909,4,2,1,80,0,1
58831,-90.9090909090909,4,2,1,80,0,1
59480,-90.9090909090909,4,2,1,80,0,1
59804,-90.9090909090909,4,2,1,80,0,1
60128,-90.9090909090909,4,2,1,80,0,1
61426,-90.9090909090909,4,2,1,80,0,1
62074,-90.9090909090909,4,2,1,80,0,1
62723,-90.9090909090909,4,2,1,80,0,1
64993,-90.9090909090909,4,2,1,80,0,1
67588,-111.111111111111,4,2,1,60,0,0
70183,-111.111111111111,4,2,1,60,0,0
88507,-111.111111111111,4,2,1,60,0,0
88993,-111.111111111111,4,2,1,60,0,0
90939,-100,4,2,1,65,0,0
96128,-100,4,2,1,65,0,0
98723,-100,4,2,1,65,0,0
99047,-100,4,2,1,65,0,0
99372,-100,4,2,1,65,0,0
99696,-100,4,2,1,65,0,0
101318,-90.9090909090909,4,2,1,80,0,1
102938,-90.9090909090909,4,2,1,80,0,1
103586,-90.9090909090909,4,2,1,80,0,1
103911,-90.9090909090909,4,2,1,80,0,1
105532,-90.9090909090909,4,2,1,80,0,1
106181,-90.9090909090909,4,2,1,80,0,1
106830,-90.9090909090909,4,2,1,80,0,1
109100,-90.9090909090909,4,2,1,80,0,1
111695,-90.9090909090909,4,2,1,80,0,1
113316,-90.9090909090909,4,2,1,80,0,1
113965,-90.9090909090909,4,2,1,80,0,1
114289,-90.9090909090909,4,2,1,80,0,1
114613,-90.9090909090909,4,2,1,80,0,1
115911,-90.9090909090909,4,2,1,80,0,1
116559,-90.9090909090909,4,2,1,80,0,1
117208,-90.9090909090909,4,2,1,80,0,1
119478,-90.9090909090909,4,2,1,80,0,1
124669,-100,4,2,1,80,0,0
124750,-100,4,2,1,5,0,0
129858,-100,4,2,1,50,0,0
135047,-100,4,2,1,70,0,0
135696,-100,4,2,1,70,0,0
135858,-100,4,2,1,70,0,0
136993,-100,4,2,1,70,0,0
137318,-100,4,2,1,70,0,0
138291,-100,4,2,1,70,0,0
138453,-100,4,2,1,70,0,0
138777,-100,4,2,1,70,0,0
138939,-100,4,2,1,70,0,0
139912,-100,4,2,1,70,0,0
140237,-100,4,2,1,70,0,0
140885,-100,4,2,1,70,0,0
142507,-100,4,2,1,70,0,0
143318,-100,4,2,1,70,0,0
143804,-100,4,2,1,70,0,0
144128,-100,4,2,1,70,0,0
145101,-100,4,2,1,70,0,0
145426,-100,4,2,1,75,0,0
146074,-100,4,2,1,75,0,0
146399,-100,4,2,1,75,0,0
146885,-100,4,2,1,75,0,0
148020,-100,4,2,1,75,0,0
148669,-100,4,2,1,75,0,0
148831,-100,4,2,1,75,0,0
150291,-100,4,2,1,75,0,0
150615,-100,4,2,1,75,0,0
151264,-100,4,2,1,75,0,0
151750,-100,4,2,1,75,0,0
152074,-100,4,2,1,75,0,0
153210,-100,4,2,1,75,0,0
153858,-100,4,2,1,75,0,0
154507,-100,4,2,1,75,0,0
155480,-100,4,2,1,75,0,0
163588,-100,4,2,1,70,0,0
163912,-100,4,2,1,70,0,0
164885,-100,4,2,1,70,0,0
166183,-90.9090909090909,4,2,1,80,0,1
172507,-90.9090909090909,4,2,1,80,0,1
173318,-90.9090909090909,4,2,1,80,0,1
176559,-90.9090909090909,4,2,1,80,0,1
178181,-90.9090909090909,4,2,1,80,0,1
178829,-90.9090909090909,4,2,1,80,0,1
179154,-90.9090909090909,4,2,1,80,0,1
180775,-90.9090909090909,4,2,1,80,0,1
181424,-90.9090909090909,4,2,1,80,0,1
181750,-90.9090909090909,4,2,1,80,0,1
182073,-90.9090909090909,4,2,1,80,0,1
184343,-90.9090909090909,4,2,1,80,0,1
186938,-90.9090909090909,4,2,1,80,0,1
188559,-90.9090909090909,4,2,1,80,0,1
189208,-90.9090909090909,4,2,1,80,0,1
189532,-90.9090909090909,4,2,1,80,0,1
189856,-90.9090909090909,4,2,1,80,0,1
191154,-90.9090909090909,4,2,1,80,0,1
191802,-90.9090909090909,4,2,1,80,0,1
192451,-90.9090909090909,4,2,1,80,0,1
194721,-90.9090909090909,4,2,1,80,0,1
198939,-90.9090909090909,4,2,1,85,0,1
199264,-90.9090909090909,4,2,1,90,0,1
199588,-90.9090909090909,4,2,1,95,0,1
199912,-100,4,2,1,60,0,0
204128,-100,4,2,1,60,0,0

[Colours]
Combo1 : 187,34,187
Combo2 : 98,174,157
Combo3 : 186,44,118
Combo4 : 63,166,177

[HitObjects]
26,122,5318,6,0,L|95:103,1,55,4|0,1:0|0:0,0:0:0:0:
120,143,5642,2,0,L|189:162,1,55,8|0,0:0|3:0,0:0:0:0:
204,112,5966,1,0,1:0:0:0:
260,206,6291,1,8,0:0:0:0:
346,137,6615,2,0,P|366:99|371:26,1,110,2|10,1:2|0:2,0:0:0:0:
264,7,7264,2,0,P|231:17|207:20,1,55,0|2,1:0|1:2,0:0:0:0:
182,66,7588,2,0,P|192:99|195:123,1,55,8|2,0:0|3:0,0:0:0:0:
242,145,7912,5,4,1:0:0:0:
150,207,8237,1,8,0:0:0:0:
226,285,8561,2,0,L|284:295,2,55,0|0|8,1:0|1:0|0:0,0:0:0:0:
123,325,9210,2,0,L|113:384,2,55,2|0|10,1:2|1:0|0:2,0:0:0:0:
45,246,9858,2,0,P|37:204|26:186,1,55,0|0,1:0|1:0,0:0:0:0:
56,144,10183,2,0,P|98:136|116:125,1,55,10|8,0:0|0:0,0:0:0:0:
144,171,10507,6,0,L|207:187,1,55,4|0,1:0|1:0,0:0:0:0:
239,149,10831,1,8,0:0:0:0:
334,94,11156,2,0,P|356:136|365:210,1,110,0|8,1:0|0:0,0:0:0:0:
286,273,11804,2,0,L|215:288,2,55,2|0|10,1:2|1:0|0:0,0:0:0:0:
362,351,12453,2,0,P|396:361|423:374,1,55,0|2,1:0|1:2,0:0:0:0:
462,342,12777,2,0,P|472:308|485:281,1,55,8|2,0:0|3:0,0:0:0:0:
447,245,13101,5,4,1:0:0:0:
478,139,13426,1,8,0:0:0:0:
372,108,13750,1,0,1:0:0:0:
341,214,14074,1,8,0:0:0:0:
236,177,14399,2,0,L|228:108,1,55,0|0,1:2|1:0,0:0:0:0:
190,83,14723,1,8,0:2:0:0:
213,33,14885,1,0,1:0:0:0:
502,13,15696,6,0,P|478:46|467:111,1,98.9999969787599,2|10,1:2|0:2,0:2:0:0:
504,193,16345,1,2,1:2:0:0:
439,267,16669,1,10,0:2:0:0:
356,213,16993,2,0,L|244:192,1,98.9999969787599,2|10,1:2|0:2,0:2:0:0:
220,226,17480,2,0,P|191:182|183:125,1,98.9999969787599,2|8,0:2|0:2,0:0:0:0:
204,92,17966,2,0,L|270:75,1,49.4999984893799,2|10,1:2|0:2,0:0:0:0:
272,34,18291,5,2,1:2:0:0:
176,8,18615,1,10,0:2:0:0:
109,81,18939,2,0,L|4:62,1,98.9999969787599,2|10,1:2|0:2,0:2:0:0:
43,157,19588,2,0,P|62:201|66:253,1,98.9999969787599,2|10,1:2|0:2,0:2:0:0:
40,293,20074,1,2,0:2:0:0:
122,347,20399,2,0,L|186:333,1,49.4999984893799,8|8,0:2|0:2,0:0:0:0:
196,294,20723,1,10,0:2:0:0:
242,310,20885,6,0,L|346:341,1,98.9999969787599,2|10,1:2|0:2,0:2:0:0:
423,290,21534,1,2,1:2:0:0:
509,242,21858,1,10,0:2:0:0:
471,150,22183,2,0,L|428:56,1,98.9999969787599,2|10,1:2|0:2,0:2:0:0:
342,14,22831,2,0,L|327:79,1,49.4999984893799,2|8,1:2|0:2,0:0:0:0:
296,97,23156,1,2,1:2:0:0:
308,144,23318,2,0,L|356:155,1,49.4999984893799,10|0,0:2|1:2,0:0:0:0:
37,27,25912,1,10,0:2:0:0:
83,9,26074,6,0,P|107:52|117:123,1,98.9999969787599,2|10,1:2|0:2,0:2:0:0:
38,160,26723,1,2,1:2:0:0:
86,246,27047,1,10,0:2:0:0:
169,191,27372,2,0,L|270:175,1,98.9999969787599,2|10,1:2|0:2,0:2:0:0:
330,99,28020,2,0,L|318:32,2,49.4999984893799,2|8|0,1:2|0:2|1:2,0:0:0:0:
374,121,28507,1,10,0:2:0:0:
414,93,28669,6,0,L|481:109,1,49.4999984893799,2|2,1:2|0:2,0:0:0:0:
496,197,29156,2,0,P|453:214|403:253,1,98.9999969787599,2|2,1:2|0:2,0:0:0:0:
375,337,29804,2,0,P|332:320|282:281,1,98.9999969787599,2|2,1:2|0:2,0:0:0:0:
246,199,30453,1,2,0:2:0:0:
285,108,30777,2,0,L|224:94,1,49.4999984893799,8|8,0:2|0:2,0:0:0:0:
203,60,31101,1,10,0:2:0:0:
159,84,31264,6,0,P|147:133|116:181,1,98.9999969787599,2|10,1:2|0:2,0:2:0:0:
29,208,31912,1,2,1:2:0:0:
56,303,32237,1,10,0:2:0:0:
150,274,32561,2,0,P|197:286|243:316,1,98.9999969787599,2|10,1:2|0:2,0:2:0:0:
319,370,33210,1,2,1:2:0:0:
360,343,33372,2,0,L|371:294,1,49.4999984893799,10|0,0:2|1:2,0:0:0:0:
350,249,33696,2,0,L|301:237,1,49.4999984893799,10|0,0:2|1:2,0:0:0:0:
27,363,36128,2,0,L|15:299,1,49.4999984893799,8|8,0:2|0:2,0:0:0:0:
47,267,36453,5,0,1:2:0:0:
47,267,36615,2,0,P|68:233|68:160,1,110,2|2,0:2|1:2,0:2:0:0:
23,134,37101,1,2,1:2:0:0:
96,51,37426,1,10,0:2:0:0:
96,51,37588,2,0,L|206:77,1,110,2|2,1:2|0:2,0:2:0:0:
238,34,38074,1,10,0:2:0:0:
317,110,38399,2,0,L|377:89,1,55,2|8,1:1|0:2,0:0:0:0:
381,38,38723,1,2,1:1:0:0:
487,3,39047,5,2,1:2:0:0:
487,3,39210,2,0,P|460:51|451:113,1,110,2|2,0:2|1:2,0:2:0:0:
483,148,39696,1,2,1:2:0:0:
413,233,40020,1,10,0:2:0:0:
413,233,40183,2,0,L|296:202,1,110,2|2,1:2|0:2,0:2:0:0:
270,163,40669,1,10,0:2:0:0:
184,231,40993,1,2,1:1:0:0:
218,335,41318,1,10,0:2:0:0:
331,340,41642,5,2,1:2:0:0:
331,340,41804,2,0,P|362:297|375:227,1,110,2|2,0:2|1:2,0:2:0:0:
345,195,42291,1,2,1:2:0:0:
281,112,42615,1,10,0:2:0:0:
281,112,42777,2,0,L|207:87,1,55,2|0,1:2|0:0,0:2:0:0:
199,47,43101,1,2,0:2:0:0:
100,95,43426,1,2,0:2:0:0:
70,141,43588,2,0,L|83:197,1,55,2|8,1:1|0:2,0:0:0:0:
130,220,43912,2,0,P|151:268|127:318,1,110,2|0,1:1|3:0,0:0:0:0:
44,11,46831,6,0,P|62:44|71:86,1,60.5000018463135,4|0,1:0|0:0,0:0:0:0:
122,92,47156,2,0,P|100:157|96:216,1,121.000003692627,8|0,0:0|1:0,0:0:0:0:
65,261,47642,1,0,1:0:0:0:
9,237,47804,1,8,0:0:0:0:
50,350,48128,2,0,L|123:365,1,60.5000018463135,0|0,1:0|1:0,0:0:0:0:
145,313,48453,2,0,L|276:279,1,121.000003692627,8|0,0:0|1:0,0:0:0:0:
319,302,48939,1,0,1:0:0:0:
310,361,49101,2,0,L|384:381,1,60.5000018463135,8|0,0:0|3:0,0:0:0:0:
415,337,49426,5,4,1:0:0:0:
488,241,49750,2,0,P|446:225|368:171,1,121.000003692627,8|0,0:0|1:0,0:0:0:0:
363,126,50237,1,0,1:0:0:0:
408,85,50399,2,0,L|396:22,1,60.5000018463135,8|0,0:0|0:0,0:0:0:0:
340,3,50723,2,0,P|298:19|220:73,1,121.000003692627,0|8,1:0|0:0,0:0:0:0:
183,170,51372,2,0,L|194:229,1,60.5000018463135,0|0,1:0|1:0,0:0:0:0:
173,286,51696,2,0,L|114:297,1,60.5000018463135,8|8,0:0|0:0,0:0:0:0:
56,276,52020,5,4,1:0:0:0:
17,163,52345,2,0,L|38:34,1,121.000003692627,8|0,0:0|1:0,0:0:0:0:
87,10,52831,1,0,1:0:0:0:
131,51,52993,2,0,L|211:65,1,60.5000018463135,8|0,0:0|3:0,0:0:0:0:
232,17,53318,1,0,1:0:0:0:
294,120,53642,1,8,0:0:0:0:
193,187,53966,2,0,P|180:223|178:245,1,60.5000018463135,0|2,1:0|1:2,0:0:0:0:
227,279,54291,2,0,P|240:315|242:337,1,60.5000018463135,8|2,0:0|3:0,0:0:0:0:
192,370,54615,5,4,1:2:0:0:
73,347,54939,1,12,0:0:0:0:
96,228,55264,1,2,1:0:0:0:
103,168,55426,1,2,1:0:0:0:
162,175,55588,1,10,0:0:0:0:
236,270,55912,5,4,1:2:0:0:
336,202,56237,2,0,L|416:188,1,60.5000018463135,12|0,0:0|1:0,0:0:0:0:
442,229,56561,1,2,1:0:0:0:
485,187,56723,1,8,0:0:0:0:
462,130,56885,1,8,0:0:0:0:
382,38,57210,5,4,1:0:0:0:
264,5,57534,2,0,P|259:49|233:127,1,121.000003692627,8|0,0:0|1:0,0:0:0:0:
177,139,58020,1,0,1:0:0:0:
193,197,58183,1,8,0:0:0:0:
288,271,58507,2,0,L|355:256,1,60.5000018463135,0|0,1:0|1:0,0:0:0:0:
362,199,58831,2,0,P|395:162|475:160,1,121.000003692627,8|0,0:0|1:0,0:0:0:0:
499,203,59318,1,0,1:0:0:0:
487,262,59480,1,8,0:0:0:0:
422,363,59804,6,0,P|389:349|361:347,1,60.5000018463135,4|0,1:0|0:0,0:0:0:0:
331,296,60128,2,0,P|298:310|270:312,1,60.5000018463135,8|0,0:0|0:0,0:0:0:0:
234,358,60453,2,0,P|201:344|173:342,1,60.5000018463135,0|0,1:0|1:0,0:0:0:0:
144,290,60777,1,8,0:0:0:0:
45,359,61101,2,0,L|15:229,1,121.000003692627,0|8,1:0|0:0,0:0:0:0:
46,187,61588,1,8,0:0:0:0:
90,145,61750,2,0,L|160:162,1,60.5000018463135,0|0,1:0|1:0,0:0:0:0:
196,122,62074,2,0,L|213:52,1,60.5000018463135,8|8,0:0|0:0,0:0:0:0:
170,17,62399,5,4,1:0:0:0:
289,1,62723,2,0,P|329:19|414:33,1,121.000003692627,8|0,0:0|1:0,0:0:0:0:
457,3,63210,1,0,1:0:0:0:
496,48,63372,1,8,0:0:0:0:
467,165,63696,2,0,L|403:177,1,60.5000018463135,0|0,1:0|1:0,0:0:0:0:
358,140,64020,2,0,P|321:172|325:252,1,121.000003692627,8|0,0:0|1:0,0:0:0:0:
353,290,64507,1,2,1:2:0:0:
318,339,64669,2,0,P|281:353|244:361,1,60.5000018463135,8|10,0:0|0:0,0:0:0:0:
217,315,64993,5,4,1:2:0:0:
100,350,65318,1,12,0:2:0:0:
53,238,65642,1,2,1:0:0:0:
67,179,65804,1,2,1:0:0:0:
125,192,65966,1,10,0:2:0:0:
203,99,66291,5,4,1:2:0:0:
293,179,66615,1,12,0:2:0:0:
383,98,66939,1,2,1:0:0:0:
441,84,67101,1,8,0:0:0:0:
432,23,67264,2,0,L|366:7,1,60.5000018463135,8|8,0:0|0:0,0:0:0:0:
324,18,67588,5,0,1:0:0:0:
491,361,70020,1,2,0:2:0:0:
467,317,70183,6,0,P|434:297|363:286,1,98.9999969787599,2|10,1:2|0:2,0:2:0:0:
320,367,70831,1,2,1:2:0:0:
238,310,71156,1,10,0:2:0:0:
291,226,71480,2,0,L|270:122,1,98.9999969787599,2|10,1:2|0:2,0:2:0:0:
238,91,71966,2,0,L|132:110,1,98.9999969787599,2|8,0:2|0:2,0:0:0:0:
111,148,72453,2,0,L|126:213,1,49.4999984893799,0|8,1:2|0:2,0:0:0:0:
164,231,72777,5,2,1:2:0:0:
164,231,72939,1,2,0:2:0:0:
234,300,73264,2,0,P|200:318|140:364,1,98.9999969787599,2|2,1:2|0:2,0:0:0:0:
57,320,73912,2,0,P|28:289|30:226,1,98.9999969787599,2|2,1:2|0:2,0:0:0:0:
115,191,74561,1,2,0:2:0:0:
61,107,74885,2,0,L|4:96,1,49.4999984893799,8|8,0:2|0:2,0:0:0:0:
1,49,75210,1,8,0:2:0:0:
41,20,75372,6,0,P|94:20|152:0,1,98.9999969787599,2|10,1:2|0:2,0:2:0:0:
223,56,76020,1,2,1:2:0:0:
182,146,76345,1,10,0:2:0:0:
250,217,76669,2,0,P|298:224|338:193,1,98.9999969787599,2|10,1:2|0:2,0:2:0:0:
347,96,77318,1,2,1:2:0:0:
358,47,77480,2,0,L|424:30,1,49.4999984893799,10|0,0:2|1:2,0:0:0:0:
447,60,77804,2,0,L|513:43,1,49.4999984893799,10|0,0:2|1:2,0:0:0:0:
170,9,80399,1,10,0:2:0:0:
203,45,80561,6,0,P|219:86|223:140,1,98.9999969787599,2|10,1:2|0:2,0:2:0:0:
152,210,81210,1,2,1:2:0:0:
67,158,81534,1,10,0:2:0:0:
8,237,81858,2,0,P|0:273|46:334,1,98.9999969787599,2|10,1:2|0:2,0:2:0:0:
76,312,82345,2,0,L|177:336,1,98.9999969787599,2|8,0:2|0:2,0:0:0:0:
206,370,82831,2,0,L|270:351,1,49.4999984893799,2|10,1:2|0:2,0:0:0:0:
282,316,83156,6,0,P|272:276|269:227,2,74.2499977340699,2|2|2,1:2|0:2|1:2,0:2:0:0:
371,358,83966,1,2,0:2:0:0:
429,278,84291,2,0,P|438:242|399:192,1,98.9999969787599,2|2,1:2|0:2,0:0:0:0:
310,162,84939,1,2,0:2:0:0:
382,94,85264,2,0,L|392:38,1,49.4999984893799,8|8,0:2|0:2,0:0:0:0:
352,14,85588,1,10,0:2:0:0:
304,26,85750,6,0,P|259:21|223:9,2,74.2499977340699,2|2|2,1:2|0:0|1:2,0:0:0:0:
250,109,86561,1,2,0:2:0:0:
160,66,86885,2,0,P|133:104|124:160,1,98.9999969787599,2|2,1:2|0:2,0:2:0:0:
170,242,87534,2,0,L|123:259,1,49.4999984893799,2|0,0:2|1:2,0:0:0:0:
114,307,87858,2,0,L|59:328,1,49.4999984893799,10|0,0:2|1:2,0:0:0:0:
35,362,88183,2,0,P|4:324|9:258,1,98.9999969787599,10|0,0:2|3:0,0:0:0:0:
256,192,88993,12,0,90291,3:0:0:0:
387,140,90939,5,2,1:2:0:0:
387,140,91101,2,0,P|373:188|367:253,1,110,2|2,0:2|1:2,0:2:0:0:
416,271,91588,2,0,P|431:314|392:372,1,110,2|10,1:2|0:2,0:2:0:0:
353,338,92074,2,0,L|243:316,1,110,2|2,1:2|0:2,0:2:0:0:
209,358,92561,1,10,0:2:0:0:
136,287,92885,2,0,P|125:246|111:223,1,55,2|8,1:1|0:2,0:0:0:0:
138,183,93210,2,0,P|179:172|202:158,1,55,2|8,1:1|0:2,0:0:0:0:
236,204,93534,5,2,1:2:0:0:
236,204,93696,2,0,P|266:163|266:88,1,110,2|2,0:2|1:2,0:2:0:0:
243,57,94183,1,2,1:2:0:0:
145,18,94507,1,10,0:2:0:0:
145,18,94669,2,0,L|130:76,1,55,8|0,3:3|1:2,0:0:0:0:
79,90,94993,1,0,1:2:0:0:
30,64,95156,1,8,0:2:0:0:
6,171,95480,2,0,P|22:207|24:227,1,55,2|8,1:1|0:2,0:0:0:0:
65,258,95804,2,0,P|49:294|47:314,1,55,2|8,1:1|0:2,0:0:0:0:
77,361,96128,5,2,1:2:0:0:
77,361,96291,1,2,0:2:0:0:
170,302,96615,1,2,1:2:0:0:
194,350,96777,2,0,B|244:373|244:373|290:327,1,110,2|10,1:2|0:2,0:2:0:0:
320,293,97264,2,0,L|384:305,1,55,2|0,1:2|0:0,0:2:0:0:
418,335,97588,1,2,0:2:0:0:
457,296,97750,1,10,0:2:0:0:
504,196,98074,2,0,L|490:140,1,55,2|8,1:1|0:2,0:0:0:0:
442,114,98399,2,0,L|428:58,1,55,2|8,1:1|0:2,0:0:0:0:
464,19,98723,5,0,1:2:0:0:
355,4,99047,1,8,0:2:0:0:
338,112,99372,1,0,1:2:0:0:
230,90,99696,1,8,0:2:0:0:
205,197,100020,2,0,L|189:263,1,55,8|0,0:2|1:2,0:0:0:0:
227,293,100345,2,0,L|293:309,1,55,8|8,0:2|0:0,0:0:0:0:
326,276,100669,2,0,B|351:170|351:170|321:114,1,165,8|4,3:0|3:0,0:0:0:0:
291,69,101318,6,0,L|223:50,1,60.5000018463135,4|0,1:0|0:0,0:0:0:0:
188,12,101642,2,0,P|151:42|61:69,1,121.000003692627,8|0,0:0|1:0,0:0:0:0:
34,31,102128,1,0,1:0:0:0:
0,85,102291,1,8,0:0:0:0:
89,166,102615,2,0,L|69:242,1,60.5000018463135,0|0,1:0|1:0,0:0:0:0:
16,245,102939,2,0,L|44:368,1,121.000003692627,8|0,0:0|1:0,0:0:0:0:
102,376,103426,1,0,1:0:0:0:
132,324,103588,2,0,L|192:305,1,60.5000018463135,8|0,0:0|3:0,0:0:0:0:
232,348,103912,5,4,1:0:0:0:
304,250,104237,2,0,P|285:217|276:131,1,121.000003692627,8|0,0:0|1:0,0:0:0:0:
330,112,104723,1,0,1:0:0:0:
373,153,104885,2,0,L|439:174,1,60.5000018463135,8|0,0:0|0:0,0:0:0:0:
485,144,105210,2,0,L|452:276,1,121.000003692627,0|8,1:0|0:0,0:0:0:0:
379,355,105858,2,0,P|350:342|314:336,1,60.5000018463135,0|0,1:0|1:0,0:0:0:0:
305,278,106183,2,0,P|276:291|240:297,1,60.5000018463135,8|8,0:0|0:0,0:0:0:0:
195,266,106507,5,4,1:0:0:0:
145,375,106831,2,0,P|88:368|28:342,1,121.000003692627,8|0,0:0|1:0,0:0:0:0:
14,284,107318,1,0,1:0:0:0:
63,249,107480,2,0,L|74:184,1,60.5000018463135,8|0,0:0|3:0,0:0:0:0:
36,141,107804,1,0,1:0:0:0:
116,51,108128,1,8,0:0:0:0:
201,136,108453,2,0,P|238:143|263:157,1,60.5000018463135,0|2,1:0|1:2,0:0:0:0:
294,105,108777,2,0,P|331:98|356:84,1,60.5000018463135,8|2,0:0|3:0,0:0:0:0:
368,29,109101,5,4,1:2:0:0:
487,50,109426,1,12,0:0:0:0:
469,174,109750,1,2,1:0:0:0:
417,205,109912,1,2,1:0:0:0:
378,158,110074,1,10,0:0:0:0:
287,238,110399,5,4,1:2:0:0:
200,153,110723,2,0,L|214:80,1,60.5000018463135,12|0,0:0|1:0,0:0:0:0:
264,64,111047,1,2,1:0:0:0:
241,7,111210,1,8,0:0:0:0:
180,11,111372,1,8,0:0:0:0:
119,115,111696,5,4,1:0:0:0:
14,55,112020,2,0,P|31:110|34:188,1,121.000003692627,8|0,0:0|1:0,0:0:0:0:
16,230,112507,1,0,1:0:0:0:
60,270,112669,1,8,0:0:0:0:
153,193,112993,2,0,L|221:178,1,60.5000018463135,0|0,1:0|1:0,0:0:0:0:
234,123,113318,2,0,L|359:154,1,121.000003692627,8|0,0:0|1:0,0:0:0:0:
384,202,113804,1,0,1:0:0:0:
344,247,113966,1,8,0:0:0:0:
222,270,114291,6,0,L|235:332,1,60.5000018463135,4|0,1:0|0:0,0:0:0:0:
188,368,114615,2,0,L|126:381,1,60.5000018463135,8|0,0:0|0:0,0:0:0:0:
75,352,114939,2,0,L|62:290,1,60.5000018463135,0|0,1:0|1:0,0:0:0:0:
98,243,115264,1,8,0:0:0:0:
2,168,115588,2,0,P|51:143|92:83,1,121.000003692627,0|8,1:0|0:0,0:0:0:0:
66,34,116074,1,8,0:0:0:0:
121,9,116237,2,0,L|195:31,1,60.5000018463135,0|0,1:0|1:0,0:0:0:0:
219,70,116561,2,0,L|197:144,1,60.5000018463135,8|8,0:0|0:0,0:0:0:0:
246,168,116885,1,4,1:0:0:0:
350,107,117210,6,0,P|384:141|387:215,1,121.000003692627,8|0,0:0|1:0,0:0:0:0:
359,263,117696,1,0,1:0:0:0:
300,247,117858,1,8,0:0:0:0:
307,368,118183,2,0,L|385:378,1,60.5000018463135,0|0,1:0|1:0,0:0:0:0:
417,342,118507,2,0,P|467:313|477:231,1,121.000003692627,8|0,0:0|1:0,0:0:0:0:
446,207,118993,1,2,1:2:0:0:
477,154,119156,2,0,P|467:119|465:87,1,60.5000018463135,8|10,0:0|0:0,0:0:0:0:
486,38,119480,5,4,1:2:0:0:
369,3,119804,1,12,0:2:0:0:
341,120,120128,1,2,1:0:0:0:
323,178,120291,1,2,1:0:0:0:
263,167,120453,1,10,0:2:0:0:
163,98,120777,5,4,1:2:0:0:
101,201,121101,1,12,0:2:0:0:
211,251,121426,1,2,1:0:0:0:
267,272,121588,1,2,1:0:0:0:
245,328,121750,1,10,0:0:0:0:
137,382,122074,6,0,P|111:366|82:355,1,60.5000018463135,4|0,1:2|1:0,0:0:0:0:
48,305,122399,2,0,P|63:279|74:250,1,60.5000018463135,12|0,0:2|1:0,0:0:0:0:
126,219,122723,1,2,1:0:0:0:
114,159,122885,1,2,1:0:0:0:
54,151,123047,1,10,0:0:0:0:
256,192,123372,12,0,124669,1:0:0:0:
88,369,135047,6,0,B|70:347|70:347|77:305,1,55,0|0,1:0|1:0,0:0:0:0:
93,268,135372,2,0,B|115:250|115:250|157:257,1,55,0|0,1:0|1:0,0:0:0:0:
185,286,135696,1,8,0:0:0:0:
231,257,135858,2,0,L|245:187,1,55,0|0,1:0|1:0,0:0:0:0:
155,135,136345,2,0,L|141:65,1,55,0|0,1:0|1:0,0:0:0:0:
222,4,136831,1,0,1:0:0:0:
345,113,137318,2,0,L|407:98,1,55,0|0,1:0|1:0,0:0:0:0:
430,55,137642,6,0,B|456:50|456:50|478:68,1,55,0|0,1:0|1:0,0:0:0:0:
498,119,137966,2,0,B|502:145|502:145|484:167,1,55,0|0,1:0|1:0,0:0:0:0:
437,196,138291,1,8,0:0:0:0:
396,232,138453,2,0,L|409:299,1,55,0|0,1:0|1:0,0:0:0:0:
256,192,138939,12,2,139912,0:1:0:0:
406,285,140885,6,0,B|379:289|379:289|357:271,1,55,8|0,0:0|1:0,0:0:0:0:
328,224,141210,2,0,B|301:219|301:219|279:237,1,55,0|0,1:0|1:0,0:0:0:0:
197,310,141696,2,0,L|208:372,1,55,0|0,1:0|1:0,0:0:0:0:
103,325,142183,2,0,L|93:270,1,55,8|0,0:0|1:0,0:0:0:0:
120,223,142507,1,0,1:0:0:0:
211,160,142831,5,8,0:0:0:0:
211,160,142993,2,0,B|226:137|226:137|222:99,1,55,0|0,1:0|1:0,0:0:0:0:
188,66,143318,1,8,0:0:0:0:
188,66,143480,2,0,L|126:49,1,55,0|0,1:0|1:0,0:0:0:0:
74,68,143804,2,0,L|53:132,1,55,8|0,0:0|1:0,0:0:0:0:
38,172,144128,1,8,0:0:0:0:
289,362,145426,6,0,B|316:366|316:366|338:348,1,55,0|0,1:0|1:0,0:0:0:0:
368,303,145750,2,0,B|372:276|372:276|354:254,1,55,0|0,1:0|1:0,0:0:0:0:
302,236,146074,1,8,0:0:0:0:
256,205,146237,2,0,L|266:146,1,55,0|0,1:0|1:0,0:0:0:0:
344,75,146723,2,0,L|403:85,1,55,0|0,1:0|1:0,0:0:0:0:
441,191,147210,1,0,1:0:0:0:
441,191,147372,2,0,L|495:181,1,55,8|0,0:0|1:0,0:0:0:0:
512,129,147696,1,0,1:0:0:0:
478,24,148020,6,0,B|456:6|456:6|429:10,1,55,0|0,1:0|1:0,0:0:0:0:
382,37,148345,2,0,B|364:59|364:59|368:86,1,55,0|0,1:0|1:0,0:0:0:0:
391,134,148669,1,8,0:0:0:0:
360,179,148831,2,0,L|302:191,1,55,0|0,1:0|1:0,0:0:0:0:
256,192,149318,12,2,150291,0:1:0:0:
306,190,151264,6,0,B|284:172|284:172|257:176,1,55,8|0,0:0|1:0,0:0:0:0:
224,219,151588,2,0,B|202:237|202:237|175:233,1,55,0|0,1:0|1:0,0:0:0:0:
104,149,152074,2,0,L|113:80,1,55,0|0,1:0|1:0,0:0:0:0:
188,16,152561,2,0,L|257:25,1,55,8|0,0:0|1:0,0:0:0:0:
277,65,152885,1,0,1:0:0:0:
372,9,153210,6,0,B|407:56|407:56|387:126,1,110,8|0,0:0|1:0,0:0:0:0:
347,136,153696,1,0,1:0:0:0:
295,156,153858,2,0,B|260:203|260:203|280:273,1,110,8|0,0:0|1:0,0:0:0:0:
359,322,154507,2,0,L|346:375,2,55,8|0|0,0:0|1:0|1:0,0:0:0:0:
409,299,154993,2,0,L|483:322,1,55,8|0,0:0|1:0,0:0:0:0:
503,279,155318,1,0,1:0:0:0:
482,228,155480,2,0,P|466:196|463:117,1,110,8|4,0:0|1:0,0:0:0:0:
111,10,163588,6,0,L|40:22,1,55,4|0,1:0|0:0,0:0:0:0:
19,59,163912,2,0,L|31:130,1,55,4|0,1:2|0:0,0:0:0:0:
77,139,164237,2,0,L|69:200,2,55,8|0|0,0:0|1:0|1:0,0:0:0:0:
173,84,164885,1,0,1:0:0:0:
206,189,165210,2,0,P|186:216|178:239,1,55,0|0,1:0|0:0,0:0:0:0:
152,283,165534,2,0,L|163:352,2,55,8|0|8,0:0|0:0|0:0,0:0:0:0:
266,322,166183,6,0,P|290:304|327:297,1,60.5000018463135,4|0,1:0|0:0,0:0:0:0:
355,248,166507,2,0,P|337:224|330:187,1,60.5000018463135,0|0,1:0|0:0,0:0:0:0:
280,159,166831,1,8,0:0:0:0:
280,159,166993,2,0,L|306:26,1,121.000003692627,8|0,0:0|1:0,0:0:0:0:
353,6,167480,2,0,P|397:21|413:107,2,121.000003692627,2|0|8,3:0|1:0|0:0,0:0:0:0:
181,66,168615,1,0,1:0:0:0:
141,20,168777,6,0,L|76:9,1,60.5000018463135,4|0,1:2|0:0,0:0:0:0:
40,54,169101,2,0,L|29:119,1,60.5000018463135,0|0,1:0|0:0,0:0:0:0:
84,140,169426,1,8,0:0:0:0:
72,259,169750,2,0,P|115:276|140:295,1,60.5000018463135,0|0,0:0|1:0,0:0:0:0:
155,336,170074,2,0,P|209:341|243:269,1,121.000003692627,2|0,3:0|1:0,0:0:0:0:
206,176,170723,2,0,P|249:159|274:140,1,60.5000018463135,8|0,0:0|0:0,0:0:0:0:
285,96,171047,2,0,P|328:113|353:132,1,60.5000018463135,2|0,3:0|1:0,0:0:0:0:
378,167,171372,5,4,1:2:0:0:
476,237,171696,2,0,L|465:313,1,60.5000018463135,0|0,1:0|0:0,0:0:0:0:
417,331,172020,2,0,P|377:336|311:391,1,121.000003692627,8|0,0:0|0:0,0:0:0:0:
259,359,172507,1,0,1:0:0:0:
144,384,172831,1,0,1:0:0:0:
144,384,172993,2,0,L|121:256,1,121.000003692627,0|8,1:0|0:0,0:0:0:0:
157,214,173480,1,2,3:0:0:0:
214,233,173642,1,2,3:0:0:0:
315,166,173966,5,4,1:2:0:0:
292,46,174291,1,0,1:0:0:0:
171,60,174615,1,8,0:0:0:0:
115,36,174777,1,8,0:0:0:0:
94,92,174939,1,0,1:0:0:0:
125,209,175264,1,0,1:0:0:0:
11,250,175588,1,0,1:0:0:0:
35,368,175912,1,8,0:0:0:0:
94,376,176074,1,0,1:0:0:0:
100,315,176237,1,8,0:0:0:0:
197,243,176561,6,0,L|273:219,1,60.5000018463135,4|0,1:0|0:0,0:0:0:0:
289,175,176885,2,0,P|333:218|319:292,1,121.000003692627,8|0,0:0|1:0,0:0:0:0:
293,321,177372,1,0,1:0:0:0:
327,370,177534,1,8,0:0:0:0:
432,318,177858,2,0,L|444:248,1,60.5000018463135,0|0,1:0|1:0,0:0:0:0:
493,225,178183,2,0,L|470:104,1,121.000003692627,8|0,0:0|1:0,0:0:0:0:
420,71,178669,1,0,1:0:0:0:
380,117,178831,2,0,L|304:134,1,60.5000018463135,8|0,0:0|3:0,0:0:0:0:
276,88,179156,5,4,1:0:0:0:
183,10,179480,2,0,P|173:53|141:132,1,121.000003692627,8|0,0:0|1:0,0:0:0:0:
109,173,179966,1,0,1:0:0:0:
51,153,180128,2,0,P|35:123|26:91,1,60.5000018463135,8|0,0:0|0:0,0:0:0:0:
54,43,180453,2,0,L|182:9,1,121.000003692627,0|8,1:0|0:0,0:0:0:0:
254,99,181101,2,0,L|273:162,1,60.5000018463135,0|0,1:0|1:0,0:0:0:0:
232,203,181426,1,8,0:0:0:0:
132,272,181750,6,0,P|104:258|70:252,1,60.5000018463135,4|0,1:0|1:0,0:0:0:0:
45,200,182074,2,0,P|12:235|10:319,1,121.000003692627,8|0,0:0|1:0,0:0:0:0:
36,356,182561,1,0,1:0:0:0:
89,383,182723,2,0,P|118:376|145:363,1,60.5000018463135,8|0,0:0|3:0,0:0:0:0:
192,324,183047,1,0,1:0:0:0:
304,370,183372,1,8,0:0:0:0:
383,278,183696,2,0,P|374:240|360:204,1,60.5000018463135,0|2,1:0|1:2,0:0:0:0:
418,188,184020,2,0,P|427:150|441:114,1,60.5000018463135,8|10,0:0|0:0,0:0:0:0:
396,81,184345,5,4,1:2:0:0:
301,5,184669,1,12,0:0:0:0:
224,98,184993,1,2,1:0:0:0:
244,155,185156,1,2,1:0:0:0:
301,136,185318,1,10,0:0:0:0:
273,253,185642,1,4,1:2:0:0:
155,223,185966,2,0,L|78:199,1,60.5000018463135,12|0,0:0|1:0,0:0:0:0:
40,183,186291,1,2,1:0:0:0:
21,125,186453,1,2,1:0:0:0:
65,84,186615,1,10,0:0:0:0:
187,67,186939,5,4,1:0:0:0:
236,177,187264,2,0,P|273:163|346:102,1,121.000003692627,8|0,0:0|1:0,0:0:0:0:
353,55,187750,1,0,1:0:0:0:
308,14,187912,1,8,0:0:0:0:
429,6,188237,2,0,L|446:75,1,60.5000018463135,0|0,1:0|1:0,0:0:0:0:
489,103,188561,2,0,L|458:227,1,121.000003692627,8|0,0:0|1:0,0:0:0:0:
418,264,189047,1,0,1:0:0:0:
359,249,189210,1,8,0:0:0:0:
270,331,189534,6,0,P|267:301|252:275,1,60.5000018463135,4|0,1:0|0:0,0:0:0:0:
203,238,189858,2,0,P|173:241|147:256,1,60.5000018463135,8|0,0:0|0:0,0:0:0:0:
116,308,190183,2,0,P|86:305|60:290,1,60.5000018463135,0|0,1:0|1:0,0:0:0:0:
27,239,190507,1,8,0:0:0:0:
124,167,190831,2,0,P|143:134|165:46,1,121.000003692627,0|8,1:0|0:0,0:0:0:0:
57,0,191480,2,0,L|41:74,1,60.5000018463135,0|0,1:0|1:0,0:0:0:0:
2,103,191804,2,0,L|18:177,1,60.5000018463135,8|8,0:0|0:0,0:0:0:0:
25,221,192128,5,4,1:0:0:0:
138,264,192453,2,0,P|197:252|254:198,1,121.000003692627,8|0,0:0|1:0,0:0:0:0:
234,154,192939,1,0,1:0:0:0:
179,128,193101,1,8,0:0:0:0:
236,21,193426,2,0,L|305:37,1,60.5000018463135,0|0,1:0|1:0,0:0:0:0:
315,91,193750,2,0,L|438:55,1,121.000003692627,8|0,0:0|1:0,0:0:0:0:
489,40,194237,1,2,1:2:0:0:
508,97,194399,2,0,P|491:132|489:157,1,60.5000018463135,8|2,0:0|3:0,0:0:0:0:
433,177,194723,5,4,1:2:0:0:
481,287,195047,1,12,0:2:0:0:
371,332,195372,1,2,1:0:0:0:
314,353,195534,1,2,1:0:0:0:
290,297,195696,1,10,0:2:0:0:
321,180,196020,5,4,1:2:0:0:
206,141,196345,1,12,0:0:0:0:
178,258,196669,1,2,1:0:0:0:
119,242,196831,1,8,0:0:0:0:
103,300,196993,1,8,0:0:0:0:
13,218,197318,6,0,P|0:181|0:149,1,60.5000018463135,4|0,1:2|1:0,0:0:0:0:
19,103,197642,2,0,P|56:90|88:90,1,60.5000018463135,12|0,0:0|1:0,0:0:0:0:
121,129,197966,1,2,1:0:0:0:
180,117,198128,1,2,1:0:0:0:
168,57,198291,1,10,0:0:0:0:
256,192,198615,12,4,199912,1:0:0:0:
