osu file format v14

[General]
AudioFilename: audio.mp3
AudioLeadIn: 0
PreviewTime: 78163
Countdown: 0
SampleSet: Normal
StackLeniency: 0.7
Mode: 1
LetterboxInBreaks: 0
WidescreenStoryboard: 1

[Editor]
Bookmarks: 9011,25282,41553,57824,65960,74096,82231,98502,114774,131045,147316,163587
DistanceSpacing: 0.5
BeatDivisor: 4
GridSize: 32
TimelineZoom: 0.4999988

[Metadata]
Title:Dear Diary,
TitleUnicode:Dear Diary,
Artist:Bring Me The Horizon
ArtistUnicode:Bring Me The Horizon
Creator:krytwal
Version:Shokyuu
Source:
Tags:english alternative metal metalcore post human survival horror bmth spencer1404
BeatmapID:4148390
BeatmapSetID:1996062

[Difficulty]
HPDrainRate:9
CircleSize:5
OverallDifficulty:2
ApproachRate:5
SliderMultiplier:0.9
SliderTickRate:1

[Events]
//Background and Video events
0,0,"bg.jpg",0,145
//Break Periods
2,66191,67842
2,70259,71910
2,98734,113604
//Storyboard Layer 0 (Background)
//Storyboard Layer 1 (Fail)
//Storyboard Layer 2 (Pass)
//Storyboard Layer 3 (Foreground)
//Storyboard Layer 4 (Overlay)
//Storyboard Sound Samples

[TimingPoints]
907,254.237288135593,4,1,0,80,1,0
9042,-100,4,1,0,80,0,0
9164,-100,4,1,0,30,0,0
12088,-100,4,1,0,80,0,0
13232,-100,4,1,0,30,0,0
16156,-100,4,1,0,80,0,0
23147,-100,4,1,0,80,0,0
25308,-100,4,1,0,90,0,0
41584,-100,4,1,0,100,0,1
48697,-100,4,1,0,100,0,1
48698,-100,4,1,0,100,0,1
48824,-100,4,1,0,99,0,1
48951,-100,4,1,0,98,0,1
49205,-100,4,1,0,96,0,1
49460,-100,4,1,0,93,0,1
49587,-100,4,1,0,92,0,1
49714,-100,4,1,0,91,0,1
49842,-100,4,1,0,90,0,1
53782,-100,4,1,0,91,0,1
54036,-100,4,1,0,93,0,1
54290,-100,4,1,0,96,0,1
54417,-100,4,1,0,97,0,1
54544,-100,4,1,0,98,0,1
54671,-100,4,1,0,99,0,1
54799,-100,4,1,0,100,0,1
55817,-100,4,1,0,100,0,1
56902,-100,4,1,0,30,0,0
57850,-100,4,1,0,90,0,0
66113,-100,4,1,0,75,0,0
67003,-100,4,1,0,75,0,0
69037,-100,4,1,0,75,0,0
73104,-100,4,1,0,76,0,0
73231,-100,4,1,0,78,0,0
73358,-100,4,1,0,79,0,0
73485,-100,4,1,0,80,0,0
73612,-100,4,1,0,82,0,0
73739,-100,4,1,0,83,0,0
73866,-100,4,1,0,85,0,0
74121,-100,4,1,0,87,0,0
74376,-100,4,1,0,80,0,0
77934,-100,4,1,0,90,0,0
78061,-100,4,1,0,90,0,0
78188,-100,4,1,0,90,0,0
78189,-100,4,1,0,90,0,0
78316,-100,4,1,0,90,0,0
78570,-100,4,1,0,90,0,0
78824,-100,4,1,0,90,0,0
78951,-100,4,1,0,90,0,0
79205,-100,4,1,0,90,0,0
79460,-100,4,1,0,90,0,0
79587,-100,4,1,0,90,0,0
79841,-100,4,1,0,90,0,0
79968,-100,4,1,0,90,0,0
80222,-100,4,1,0,90,0,0
80349,-100,4,1,0,90,0,0
80477,-100,4,1,0,90,0,0
80604,-100,4,1,0,90,0,0
80731,-100,4,1,0,90,0,0
80858,-100,4,1,0,90,0,0
80985,-100,4,1,0,90,0,0
81240,-100,4,1,0,90,0,0
82262,-100,4,1,0,100,0,1
89376,-100,4,1,0,100,0,1
89502,-100,4,1,0,99,0,1
89629,-100,4,1,0,98,0,1
89883,-100,4,1,0,96,0,1
90138,-100,4,1,0,93,0,1
90265,-100,4,1,0,92,0,1
90392,-100,4,1,0,91,0,1
90520,-100,4,1,0,90,0,1
94460,-100,4,1,0,91,0,1
94587,-100,4,1,0,92,0,1
94714,-100,4,1,0,93,0,1
94968,-100,4,1,0,96,0,1
95095,-100,4,1,0,97,0,1
95222,-100,4,1,0,98,0,1
95349,-100,4,1,0,99,0,1
95477,-100,4,1,0,100,0,1
96494,-100,4,1,0,100,0,1
98534,508.474576271186,4,1,0,100,1,0
98534,-50,4,1,0,100,0,0
98782,-100,4,1,0,30,0,0
114799,-80,4,1,0,60,0,0
131076,-80,4,1,0,80,0,1
155477,-80,4,1,0,80,0,1
163110,-80,4,1,0,80,0,0

[HitObjects]
256,192,9042,5,4,0:0:0:0:
256,192,12093,1,4,0:0:0:0:
256,192,13110,1,4,0:0:0:0:
256,192,16160,1,12,0:0:0:0:
256,192,17177,1,12,0:0:0:0:
256,192,20228,1,4,0:0:0:0:
256,192,21245,1,12,0:0:0:0:
256,192,22262,1,12,0:0:0:0:
256,192,23279,1,0,0:0:0:0:
256,192,24296,1,0,0:0:0:0:
256,192,25313,1,4,0:0:0:0:
256,192,26330,1,8,0:0:0:0:
256,192,27347,1,8,0:0:0:0:
256,192,27855,1,8,0:0:0:0:
256,192,28364,1,0,0:0:0:0:
256,192,29381,1,0,0:0:0:0:
256,192,30398,1,8,0:0:0:0:
256,192,31415,1,0,0:0:0:0:
256,192,31923,1,8,0:0:0:0:
256,192,32432,1,0,0:0:0:0:
256,192,33449,1,4,0:0:0:0:
256,192,34466,1,8,0:0:0:0:
256,192,35356,1,8,0:0:0:0:
256,192,36499,1,0,0:0:0:0:
256,192,37008,1,8,0:0:0:0:
256,192,38025,1,8,0:0:0:0:
224,192,39042,1,8,0:0:0:0:
256,192,40059,1,0,0:0:0:0:
256,192,40567,1,8,0:0:0:0:
256,192,41584,1,8,0:0:0:0:
256,192,42093,1,0,0:0:0:0:
256,192,42601,1,8,0:0:0:0:
256,192,43110,1,0,0:0:0:0:
256,192,44127,1,8,0:0:0:0:
255,199,44635,1,0,0:0:0:0:
264,197,45144,1,8,0:0:0:0:
264,197,46160,1,8,0:0:0:0:
256,192,46669,1,8,0:0:0:0:
256,192,47177,1,0,0:0:0:0:
256,192,47686,1,8,0:0:0:0:
256,224,48703,1,0,0:0:0:0:
256,192,49211,1,8,0:0:0:0:
256,192,49720,1,0,0:0:0:0:
261,197,50228,1,8,0:0:0:0:
249,205,51245,1,8,0:0:0:0:
244,204,52262,1,8,0:0:0:0:
256,192,53279,1,8,0:0:0:0:
256,192,53788,1,8,0:0:0:0:
256,192,54296,1,0,0:0:0:0:
256,192,54805,1,8,0:0:0:0:
288,224,55313,1,0,0:0:0:0:
256,192,55822,1,8,0:0:0:0:
256,224,56838,1,8,0:0:0:0:
256,224,57855,1,4,0:0:0:0:
262,224,58872,1,0,0:0:0:0:
258,222,59889,1,0,0:0:0:0:
258,222,60398,1,8,0:0:0:0:
256,192,60906,1,0,0:0:0:0:
256,192,61415,1,8,0:0:0:0:
258,216,61923,1,0,0:0:0:0:
255,197,62940,1,8,0:0:0:0:
255,197,63957,1,0,0:0:0:0:
256,192,64466,1,8,0:0:0:0:
256,192,64974,1,4,0:0:0:0:
256,192,65991,1,4,0:0:0:0:
256,192,69042,5,4,0:0:0:0:
261,198,69550,1,12,0:0:0:0:
256,192,70059,1,4,0:0:0:0:
256,192,73110,5,12,0:0:0:0:
260,195,73618,1,12,0:0:0:0:
256,192,74127,1,4,0:0:0:0:
256,192,75144,1,0,0:0:0:0:
256,192,76160,1,0,0:0:0:0:
256,192,77177,1,0,0:0:0:0:
256,224,78194,1,8,0:0:0:0:
256,192,79211,1,8,0:0:0:0:
256,192,80228,1,8,0:0:0:0:
256,192,80737,1,8,0:0:0:0:
256,192,81245,1,0,0:0:0:0:
256,192,82262,1,12,0:0:0:0:
256,192,82771,1,0,0:0:0:0:
256,192,83279,1,8,0:0:0:0:
256,192,83788,1,0,0:0:0:0:
256,192,84805,1,8,0:0:0:0:
255,199,85313,1,0,0:0:0:0:
264,197,85822,1,8,0:0:0:0:
264,197,86838,1,8,0:0:0:0:
256,192,87347,1,8,0:0:0:0:
256,192,87855,1,0,0:0:0:0:
256,192,88364,1,8,0:0:0:0:
256,224,89381,1,0,0:0:0:0:
256,192,89889,1,8,0:0:0:0:
256,192,90398,1,0,0:0:0:0:
261,197,90906,1,8,0:0:0:0:
249,205,91923,1,8,0:0:0:0:
244,204,92940,1,8,0:0:0:0:
256,192,93957,1,8,0:0:0:0:
256,192,94466,1,8,0:0:0:0:
256,192,94974,1,0,0:0:0:0:
256,192,95483,1,8,0:0:0:0:
288,224,95991,1,0,0:0:0:0:
256,192,96500,1,8,0:0:0:0:
256,224,97516,1,4,0:0:0:0:
261,203,98025,1,4,0:0:0:0:
256,224,98534,1,12,0:0:0:0:
256,192,114804,5,0,0:0:0:0:
251,195,115822,1,8,0:0:0:0:
256,192,116838,1,0,0:0:0:0:
256,192,118872,1,8,0:0:0:0:
260,195,119889,1,8,0:0:0:0:
256,192,120905,1,0,0:0:0:0:
256,224,122939,1,8,0:0:0:0:
256,224,123956,1,8,0:0:0:0:
256,224,124974,1,0,0:0:0:0:
224,224,125991,1,8,0:0:0:0:
224,224,127007,1,0,0:0:0:0:
224,224,127516,1,0,0:0:0:0:
224,224,128024,1,8,0:0:0:0:
224,213,128533,1,8,0:0:0:0:
256,192,129042,1,0,0:0:0:0:
256,192,130058,1,8,0:0:0:0:
256,192,131075,1,4,0:0:0:0:
256,192,132092,1,0,0:0:0:0:
256,192,133109,1,8,0:0:0:0:
256,192,134126,1,0,0:0:0:0:
262,202,134635,1,8,0:0:0:0:
256,192,135143,1,0,0:0:0:0:
256,192,136160,1,0,0:0:0:0:
256,192,137177,1,8,0:0:0:0:
256,192,137686,1,0,0:0:0:0:
256,224,138194,1,8,0:0:0:0:
256,192,138703,1,8,0:0:0:0:
256,224,139210,1,0,0:0:0:0:
256,224,140227,1,0,0:0:0:0:
256,224,141244,1,8,0:0:0:0:
256,224,142261,1,0,0:0:0:0:
254,193,142771,1,0,0:0:0:0:
256,224,143278,1,8,0:0:0:0:
256,224,144295,1,0,0:0:0:0:
256,224,145312,1,8,0:0:0:0:
253,206,145822,1,0,0:0:0:0:
256,224,146329,1,8,0:0:0:0:
271,217,146839,1,8,0:0:0:0:
256,224,147346,1,4,0:0:0:0:
256,192,148363,1,8,0:0:0:0:
256,224,150397,1,8,0:0:0:0:
64,64,151414,1,0,0:0:0:0:
256,224,152431,1,8,0:0:0:0:
256,224,154466,1,8,0:0:0:0:
256,192,155482,1,8,0:0:0:0:
256,192,156499,1,8,0:0:0:0:
256,192,157516,1,8,0:0:0:0:
256,192,158532,1,8,0:0:0:0:
256,192,159549,1,8,0:0:0:0:
256,160,160058,1,8,0:0:0:0:
256,160,160566,1,8,0:0:0:0:
256,160,161075,1,8,0:0:0:0:
64,64,161583,1,0,0:0:0:0:
448,64,163109,1,8,0:0:0:0:
