osu file format v14

[General]
AudioFilename: audio.mp3
AudioLeadIn: 0
PreviewTime: 15664
Countdown: 0
SampleSet: Normal
StackLeniency: 0.7
Mode: 1
LetterboxInBreaks: 0
WidescreenStoryboard: 1

[Editor]
DistanceSpacing: 1.9
BeatDivisor: 4
GridSize: 8
TimelineZoom: 1.2

[Metadata]
Title:Can You Feel My Heart (Cut Ver.)
TitleUnicode:Can You Feel My Heart (Cut Ver.)
Artist:Bring Me The Horizon
ArtistUnicode:Bring Me The Horizon
Creator:Yui Funami
Version:Jo's Muzukashii
Source:
Tags:alternative metal rock metalcore english enjoyer fan meme bmth e_s_i_a [-e_s_i_a-] esia [-esia-] arcpotato joltzzz Sempiternal sony music rca records gigachad
BeatmapID:3867321
BeatmapSetID:1857899

[Difficulty]
HPDrainRate:7
CircleSize:2
OverallDifficulty:4
ApproachRate:10
SliderMultiplier:1.4
SliderTickRate:1

[Events]
//Background and Video events
0,0,"bg.jpg",0,0
//Break Periods
//Storyboard Layer 0 (Background)
//Storyboard Layer 1 (Fail)
//Storyboard Layer 2 (Pass)
//Storyboard Layer 3 (Foreground)
//Storyboard Layer 4 (Overlay)
//Storyboard Sound Samples

[TimingPoints]
664,468.75,4,1,0,60,1,0
13789,-100,4,1,0,65,0,0
15664,-100,4,1,0,70,0,1
23046,-100,4,1,0,70,0,0
23164,-100,4,1,0,70,0,1
30664,-100,4,1,0,60,0,0
43789,-100,4,1,0,65,0,0
45664,-100,4,1,0,70,0,1
53046,-100,4,1,0,70,0,0
53164,-100,4,1,0,70,0,1
60664,-100,4,1,0,60,0,0
64414,-100,4,1,0,40,0,0
66289,-100,4,1,0,30,0,0
68164,-100,4,1,0,20,0,0
70039,-100,4,1,0,10,0,0
71914,-100,4,1,0,5,0,0

[HitObjects]
256,192,664,5,0,0:0:0:0:
256,192,1015,1,0,0:0:0:0:
256,192,1367,1,8,0:0:0:0:
256,192,2539,1,8,0:0:0:0:
256,192,2890,1,0,0:0:0:0:
256,192,3242,1,8,0:0:0:0:
256,192,4414,1,0,0:0:0:0:
256,192,4765,1,0,0:0:0:0:
256,192,5117,1,8,0:0:0:0:
256,192,6289,1,0,0:0:0:0:
256,192,6640,1,0,0:0:0:0:
256,192,6992,1,8,0:0:0:0:
256,192,7460,1,8,0:0:0:0:
256,192,7812,1,8,0:0:0:0:
256,192,7929,1,8,0:0:0:0:
256,192,8164,1,0,0:0:0:0:
256,192,8515,1,0,0:0:0:0:
256,192,8867,1,8,0:0:0:0:
256,192,10039,1,8,0:0:0:0:
256,192,10390,1,0,0:0:0:0:
256,192,10742,1,8,0:0:0:0:
256,192,11914,1,0,0:0:0:0:
256,192,12265,1,0,0:0:0:0:
256,192,12617,1,8,0:0:0:0:
256,192,13789,12,0,15195,0:0:0:0:
256,192,15664,5,12,0:0:0:0:
256,192,16601,1,8,0:0:0:0:
256,192,16953,1,0,0:0:0:0:
256,192,17304,1,0,0:0:0:0:
256,192,17539,1,0,0:0:0:0:
256,192,18007,1,8,0:0:0:0:
256,192,18242,1,0,0:0:0:0:
256,192,18476,1,8,0:0:0:0:
256,192,18828,1,0,0:0:0:0:
256,192,19179,1,0,0:0:0:0:
256,192,19414,1,0,0:0:0:0:
256,192,19882,1,0,0:0:0:0:
256,192,20351,1,8,0:0:0:0:
256,192,20703,1,0,0:0:0:0:
256,192,21054,1,0,0:0:0:0:
256,192,21289,1,8,0:0:0:0:
256,192,21523,1,8,0:0:0:0:
256,192,21757,1,0,0:0:0:0:
256,192,21874,1,0,0:0:0:0:
256,192,21992,1,0,0:0:0:0:
256,192,22226,1,8,0:0:0:0:
256,192,22460,1,0,0:0:0:0:
256,192,22695,1,8,0:0:0:0:
256,192,22812,1,8,0:0:0:0:
256,192,22929,1,8,0:0:0:0:
256,192,23164,1,12,0:0:0:0:
256,192,24101,1,8,0:0:0:0:
256,192,24453,1,0,0:0:0:0:
256,192,24804,1,8,0:0:0:0:
256,192,25039,1,0,0:0:0:0:
256,192,25507,1,0,0:0:0:0:
256,192,25742,1,0,0:0:0:0:
256,192,25976,1,8,0:0:0:0:
256,192,26328,1,8,0:0:0:0:
256,192,26679,1,0,0:0:0:0:
256,192,26914,1,0,0:0:0:0:
256,192,27382,1,8,0:0:0:0:
256,192,27851,1,8,0:0:0:0:
256,192,28203,1,0,0:0:0:0:
256,192,28554,1,0,0:0:0:0:
256,192,28789,1,8,0:0:0:0:
256,192,29023,1,8,0:0:0:0:
256,192,29140,1,8,0:0:0:0:
256,192,29257,1,8,0:0:0:0:
256,192,29492,1,0,0:0:0:0:
256,192,29726,1,8,0:0:0:0:
256,192,29960,1,8,0:0:0:0:
256,192,30195,1,0,0:0:0:0:
256,192,30312,1,0,0:0:0:0:
256,192,30429,1,0,0:0:0:0:
256,192,30664,1,12,0:0:0:0:
256,192,31015,1,0,0:0:0:0:
256,192,31367,1,8,0:0:0:0:
256,192,32539,1,0,0:0:0:0:
256,192,32890,1,0,0:0:0:0:
256,192,33242,1,8,0:0:0:0:
256,192,34414,1,8,0:0:0:0:
256,192,34765,1,0,0:0:0:0:
256,192,35117,1,8,0:0:0:0:
256,192,36289,1,0,0:0:0:0:
256,192,36640,1,0,0:0:0:0:
256,192,36992,1,8,0:0:0:0:
256,192,37460,1,8,0:0:0:0:
256,192,37812,1,8,0:0:0:0:
256,192,37929,1,8,0:0:0:0:
256,192,38164,1,0,0:0:0:0:
256,192,38515,1,0,0:0:0:0:
256,192,38867,1,8,0:0:0:0:
256,192,40039,1,0,0:0:0:0:
256,192,40390,1,0,0:0:0:0:
256,192,40742,1,8,0:0:0:0:
256,192,41914,1,8,0:0:0:0:
256,192,42265,1,0,0:0:0:0:
256,192,42617,1,8,0:0:0:0:
256,192,43789,1,0,0:0:0:0:
256,192,44140,1,0,0:0:0:0:
256,192,44492,1,8,0:0:0:0:
256,192,44960,1,8,0:0:0:0:
256,192,45312,1,8,0:0:0:0:
256,192,45429,1,8,0:0:0:0:
256,192,45664,1,4,0:0:0:0:
256,192,46601,1,8,0:0:0:0:
256,192,46953,1,0,0:0:0:0:
256,192,47304,1,0,0:0:0:0:
256,192,47539,1,0,0:0:0:0:
256,192,48007,1,8,0:0:0:0:
388,210,48242,1,0,0:0:0:0:
256,192,48476,1,8,0:0:0:0:
256,192,48828,1,0,0:0:0:0:
256,192,49179,1,0,0:0:0:0:
256,192,49414,1,0,0:0:0:0:
256,192,49882,1,8,0:0:0:0:
256,192,50351,1,8,0:0:0:0:
256,192,50703,1,0,0:0:0:0:
256,192,51054,1,0,0:0:0:0:
256,192,51289,1,8,0:0:0:0:
256,192,51523,1,8,0:0:0:0:
256,192,51757,1,0,0:0:0:0:
256,192,51874,1,0,0:0:0:0:
256,192,51992,1,0,0:0:0:0:
256,192,52226,1,8,0:0:0:0:
256,192,52460,1,0,0:0:0:0:
256,192,52695,1,8,0:0:0:0:
256,192,52812,1,8,0:0:0:0:
256,192,52929,1,8,0:0:0:0:
256,192,53164,1,12,0:0:0:0:
256,192,54101,1,8,0:0:0:0:
256,192,54453,1,0,0:0:0:0:
256,192,54804,1,0,0:0:0:0:
256,192,55039,1,0,0:0:0:0:
256,192,55507,1,8,0:0:0:0:
256,192,55742,1,0,0:0:0:0:
256,192,55976,1,8,0:0:0:0:
256,192,56328,1,0,0:0:0:0:
256,192,56679,1,0,0:0:0:0:
256,192,56914,1,0,0:0:0:0:
256,192,57382,1,0,0:0:0:0:
256,192,57851,1,8,0:0:0:0:
256,192,58203,1,0,0:0:0:0:
256,192,58554,1,0,0:0:0:0:
256,192,58789,1,8,0:0:0:0:
256,192,59023,1,8,0:0:0:0:
256,192,59140,1,8,0:0:0:0:
256,192,59257,1,8,0:0:0:0:
256,192,59492,1,0,0:0:0:0:
256,192,59726,1,8,0:0:0:0:
256,192,59960,1,0,0:0:0:0:
256,192,60195,1,8,0:0:0:0:
256,192,60312,1,8,0:0:0:0:
256,192,60429,1,8,0:0:0:0:
256,192,60664,1,12,0:0:0:0:
256,192,61015,1,0,0:0:0:0:
256,192,61367,1,8,0:0:0:0:
256,192,62539,1,0,0:0:0:0:
256,192,62890,1,0,0:0:0:0:
256,192,63242,1,8,0:0:0:0:
256,192,63710,1,8,0:0:0:0:
256,192,64062,1,8,0:0:0:0:
256,192,64179,1,8,0:0:0:0:
256,192,64414,1,4,0:0:0:0:
256,192,64648,12,0,71914,0:0:0:0:
