osu file format v14

[General]
AudioFilename: audio.mp3
AudioLeadIn: 0
PreviewTime: 15664
Countdown: 0
SampleSet: Normal
StackLeniency: 0.7
Mode: 1
LetterboxInBreaks: 0
WidescreenStoryboard: 0

[Editor]
DistanceSpacing: 1.9
BeatDivisor: 4
GridSize: 8
TimelineZoom: 2.1

[Metadata]
Title:Can You Feel My Heart (Cut Ver.)
TitleUnicode:Can You Feel My Heart (Cut Ver.)
Artist:Bring Me The Horizon
ArtistUnicode:Bring Me The Horizon
Creator:Yui Funami
Version:Chad
Source:
Tags:alternative metal rock metalcore english enjoyer fan meme bmth e_s_i_a [-e_s_i_a-] esia [-esia-] arcpotato joltzzz Sempiternal sony music rca records gigachad
BeatmapID:3818671
BeatmapSetID:1857899

[Difficulty]
HPDrainRate:6
CircleSize:2
OverallDifficulty:5
ApproachRate:10
SliderMultiplier:1.4
SliderTickRate:1

[Events]
//Background and Video events
0,0,"bg.jpg",0,0
//Break Periods
//Storyboard Layer 0 (Background)
//Storyboard Layer 1 (Fail)
//Storyboard Layer 2 (Pass)
//Storyboard Layer 3 (Foreground)
//Storyboard Layer 4 (Overlay)
//Storyboard Sound Samples

[TimingPoints]
664,468.75,4,1,0,60,1,0
13789,-100,4,1,0,65,0,0
15664,-100,4,1,0,70,0,1
23046,-100,4,1,0,70,0,0
23164,-100,4,1,0,70,0,1
30664,-100,4,1,0,60,0,0
43789,-100,4,1,0,65,0,0
45664,-100,4,1,0,70,0,1
53046,-100,4,1,0,70,0,0
53164,-100,4,1,0,70,0,1
60664,-100,4,1,0,60,0,0
64414,-100,4,1,0,40,0,0
66289,-100,4,1,0,30,0,0
68164,-100,4,1,0,20,0,0
70039,-100,4,1,0,10,0,0
71914,-100,4,1,0,5,0,0

[HitObjects]
251,187,664,5,0,0:0:0:0:
250,188,1015,1,0,0:0:0:0:
248,190,1367,1,8,0:0:0:0:
248,190,2539,1,8,0:0:0:0:
248,190,2890,1,0,0:0:0:0:
248,190,3242,1,8,0:0:0:0:
248,190,4414,1,0,0:0:0:0:
248,190,4765,1,0,0:0:0:0:
248,190,5117,1,8,0:0:0:0:
248,190,6289,1,8,0:0:0:0:
375,227,6523,1,0,0:0:0:0:
248,190,6640,1,8,0:0:0:0:
248,190,6757,1,0,0:0:0:0:
248,190,6992,1,8,0:0:0:0:
128,132,7226,1,0,0:0:0:0:
139,265,7460,1,8,0:0:0:0:
191,223,7578,1,0,0:0:0:0:
248,190,7695,1,0,0:0:0:0:
68,290,7812,1,8,0:0:0:0:
182,178,7929,1,8,0:0:0:0:
248,190,8046,1,8,0:0:0:0:
248,190,8164,1,0,0:0:0:0:
248,190,8515,1,0,0:0:0:0:
361,256,8867,1,8,0:0:0:0:
248,190,10039,1,8,0:0:0:0:
248,190,10390,1,0,0:0:0:0:
248,190,10742,1,8,0:0:0:0:
248,190,11914,1,0,0:0:0:0:
248,190,12265,1,0,0:0:0:0:
248,190,12617,1,8,0:0:0:0:
248,190,13789,1,8,0:0:0:0:
181,183,14023,1,8,0:0:0:0:
248,190,14257,1,0,0:0:0:0:
280,247,14374,1,0,0:0:0:0:
373,233,14492,1,8,0:0:0:0:
307,222,14609,1,8,0:0:0:0:
248,190,14726,1,0,0:0:0:0:
307,222,14960,1,0,0:0:0:0:
248,190,15195,1,8,0:0:0:0:
248,190,15664,1,12,0:0:0:0:
248,190,16132,1,0,0:0:0:0:
119,153,16367,1,0,0:0:0:0:
248,190,16601,1,8,0:0:0:0:
248,190,16953,1,0,0:0:0:0:
248,190,17304,1,0,0:0:0:0:
248,190,17421,1,0,0:0:0:0:
248,190,17539,1,8,0:0:0:0:
248,190,18007,1,0,0:0:0:0:
114,185,18242,1,0,0:0:0:0:
248,190,18476,1,8,0:0:0:0:
248,190,18828,1,0,0:0:0:0:
248,190,19179,1,0,0:0:0:0:
248,190,19296,1,0,0:0:0:0:
248,190,19414,1,8,0:0:0:0:
248,190,19882,1,8,0:0:0:0:
248,190,20117,1,0,0:0:0:0:
248,190,20352,1,8,0:0:0:0:
49,173,20703,1,0,0:0:0:0:
248,190,21054,1,0,0:0:0:0:
248,190,21289,1,8,0:0:0:0:
221,183,21406,1,0,0:0:0:0:
221,183,21523,1,8,0:0:0:0:
221,183,21640,1,8,0:0:0:0:
221,183,21757,1,0,0:0:0:0:
221,183,21992,1,0,0:0:0:0:
162,86,22109,1,0,0:0:0:0:
248,190,22226,1,8,0:0:0:0:
248,190,22460,1,0,0:0:0:0:
248,190,22578,1,8,0:0:0:0:
248,190,22695,1,8,0:0:0:0:
248,190,22929,1,0,0:0:0:0:
248,190,23164,1,12,0:0:0:0:
248,190,23632,1,0,0:0:0:0:
119,153,23867,1,0,0:0:0:0:
248,190,24101,1,8,0:0:0:0:
248,190,24453,1,0,0:0:0:0:
248,190,24804,1,0,0:0:0:0:
248,190,24921,1,0,0:0:0:0:
248,190,25039,1,8,0:0:0:0:
248,190,25507,1,0,0:0:0:0:
114,185,25742,1,0,0:0:0:0:
248,190,25976,1,8,0:0:0:0:
248,190,26328,1,0,0:0:0:0:
248,190,26679,1,0,0:0:0:0:
248,190,26796,1,0,0:0:0:0:
248,190,26914,1,8,0:0:0:0:
248,190,27382,1,8,0:0:0:0:
248,190,27617,1,0,0:0:0:0:
248,190,27852,1,8,0:0:0:0:
49,173,28203,1,0,0:0:0:0:
238,235,28554,1,0,0:0:0:0:
248,190,28789,1,0,0:0:0:0:
221,183,28906,1,8,0:0:0:0:
221,183,29023,1,8,0:0:0:0:
221,183,29140,1,8,0:0:0:0:
221,183,29257,1,0,0:0:0:0:
88,198,29492,1,0,0:0:0:0:
154,199,29609,1,0,0:0:0:0:
248,190,29726,1,8,0:0:0:0:
248,190,29960,1,0,0:0:0:0:
248,190,30078,1,0,0:0:0:0:
248,190,30195,1,8,0:0:0:0:
248,190,30312,1,0,0:0:0:0:
248,190,30429,1,0,0:0:0:0:
222,251,30546,1,0,0:0:0:0:
501,272,30664,1,12,0:0:0:0:
256,167,31015,1,0,0:0:0:0:
256,167,31366,1,8,0:0:0:0:
149,170,32539,1,0,0:0:0:0:
149,170,32890,1,0,0:0:0:0:
149,170,33242,1,8,0:0:0:0:
149,170,34414,1,8,0:0:0:0:
149,170,34765,1,0,0:0:0:0:
149,170,35117,1,8,0:0:0:0:
149,170,36289,1,0,0:0:0:0:
149,170,36640,1,0,0:0:0:0:
149,170,36992,1,8,0:0:0:0:
188,189,37226,1,0,0:0:0:0:
188,189,37460,1,8,0:0:0:0:
188,189,37695,1,0,0:0:0:0:
188,189,37812,1,8,0:0:0:0:
188,189,37929,1,8,0:0:0:0:
188,189,38046,1,8,0:0:0:0:
188,189,38164,1,0,0:0:0:0:
258,206,38515,1,0,0:0:0:0:
258,206,38867,1,8,0:0:0:0:
149,170,40039,1,0,0:0:0:0:
149,170,40390,1,0,0:0:0:0:
149,170,40742,1,8,0:0:0:0:
149,170,41914,1,8,0:0:0:0:
149,170,42265,1,0,0:0:0:0:
149,170,42617,1,8,0:0:0:0:
280,182,43789,1,8,0:0:0:0:
280,182,44023,1,0,0:0:0:0:
280,182,44140,1,0,0:0:0:0:
280,182,44257,1,8,0:0:0:0:
280,182,44492,1,8,0:0:0:0:
280,182,44726,1,0,0:0:0:0:
213,175,44960,1,8,0:0:0:0:
280,182,45195,1,8,0:0:0:0:
213,175,45312,1,0,0:0:0:0:
213,175,45429,1,8,0:0:0:0:
213,175,45546,1,8,0:0:0:0:
280,182,45664,1,4,0:0:0:0:
248,190,46132,1,0,0:0:0:0:
119,153,46367,1,0,0:0:0:0:
248,190,46601,1,8,0:0:0:0:
248,190,46953,1,0,0:0:0:0:
248,190,47304,1,0,0:0:0:0:
248,190,47421,1,0,0:0:0:0:
248,190,47539,1,8,0:0:0:0:
248,190,48007,1,0,0:0:0:0:
114,185,48242,1,0,0:0:0:0:
248,190,48476,1,8,0:0:0:0:
248,190,48828,1,0,0:0:0:0:
248,190,49179,1,0,0:0:0:0:
248,190,49296,1,0,0:0:0:0:
248,190,49414,1,8,0:0:0:0:
248,190,49882,1,8,0:0:0:0:
248,190,50117,1,0,0:0:0:0:
248,190,50352,1,8,0:0:0:0:
49,173,50703,1,0,0:0:0:0:
162,86,51054,1,0,0:0:0:0:
248,190,51289,1,8,0:0:0:0:
221,183,51406,1,0,0:0:0:0:
221,183,51523,1,8,0:0:0:0:
221,183,51640,1,8,0:0:0:0:
221,183,51757,1,0,0:0:0:0:
221,183,51992,1,0,0:0:0:0:
248,190,52109,1,0,0:0:0:0:
248,190,52226,1,8,0:0:0:0:
248,190,52460,1,0,0:0:0:0:
248,190,52578,1,8,0:0:0:0:
248,190,52695,1,8,0:0:0:0:
248,190,52929,1,0,0:0:0:0:
248,190,53164,1,12,0:0:0:0:
248,190,53632,1,0,0:0:0:0:
119,153,53867,1,0,0:0:0:0:
248,190,54101,1,8,0:0:0:0:
248,190,54453,1,0,0:0:0:0:
248,190,54804,1,0,0:0:0:0:
248,190,54921,1,0,0:0:0:0:
248,190,55039,1,8,0:0:0:0:
248,190,55507,1,0,0:0:0:0:
114,185,55742,1,0,0:0:0:0:
248,190,55976,1,8,0:0:0:0:
248,190,56328,1,0,0:0:0:0:
248,190,56679,1,0,0:0:0:0:
248,190,56796,1,0,0:0:0:0:
248,190,56914,1,8,0:0:0:0:
248,190,57382,1,8,0:0:0:0:
248,190,57617,1,0,0:0:0:0:
248,190,57852,1,8,0:0:0:0:
49,173,58203,1,0,0:0:0:0:
238,235,58554,1,0,0:0:0:0:
248,190,58789,1,8,0:0:0:0:
221,183,58906,1,8,0:0:0:0:
221,183,59023,1,8,0:0:0:0:
221,183,59140,1,8,0:0:0:0:
221,183,59257,1,0,0:0:0:0:
88,198,59492,1,0,0:0:0:0:
154,199,59609,1,0,0:0:0:0:
248,190,59726,1,8,0:0:0:0:
248,190,59960,1,0,0:0:0:0:
248,190,60078,1,0,0:0:0:0:
248,190,60195,1,8,0:0:0:0:
248,190,60312,1,0,0:0:0:0:
248,190,60429,1,0,0:0:0:0:
222,251,60546,1,0,0:0:0:0:
501,272,60664,1,12,0:0:0:0:
250,188,61015,5,0,0:0:0:0:
248,190,61367,1,8,0:0:0:0:
251,187,62539,5,0,0:0:0:0:
250,188,62890,1,0,0:0:0:0:
248,190,63242,1,8,0:0:0:0:
121,182,63710,1,8,0:0:0:0:
121,182,63945,1,0,0:0:0:0:
248,190,64062,1,0,0:0:0:0:
248,190,64179,1,8,0:0:0:0:
182,180,64296,1,8,0:0:0:0:
116,170,64414,1,0,0:0:0:0:
256,192,64648,12,0,71914,0:0:0:0:
