osu file format v14

[General]
AudioFilename: audio.mp3
AudioLeadIn: 0
PreviewTime: 15664
Countdown: 0
SampleSet: Soft
StackLeniency: 0.7
Mode: 2
LetterboxInBreaks: 0
WidescreenStoryboard: 0

[Editor]
DistanceSpacing: 1.9
BeatDivisor: 4
GridSize: 32
TimelineZoom: 1.5

[Metadata]
Title:Can You Feel My Heart (Cut Ver.)
TitleUnicode:Can You Feel My Heart (Cut Ver.)
Artist:Bring Me The Horizon
ArtistUnicode:Bring Me The Horizon
Creator:GIGACHAD
Version:Zuid-Afrikaan's Cup
Source:
Tags:dako zuid-afrikaan metalcore alternative metal rock english enjoyer fan meme bmth
BeatmapID:3816814
BeatmapSetID:1857120

[Difficulty]
HPDrainRate:2
CircleSize:2.5
OverallDifficulty:5.5
ApproachRate:5.5
SliderMultiplier:1.7
SliderTickRate:1

[Events]
//Background and Video events
0,0,"bg.jpg",0,0
//Break Periods
//Storyboard Layer 0 (Background)
//Storyboard Layer 1 (Fail)
//Storyboard Layer 2 (Pass)
//Storyboard Layer 3 (Foreground)
//Storyboard Layer 4 (Overlay)
//Storyboard Sound Samples

[TimingPoints]
664,468.75,4,2,1,60,1,0
13789,-100,4,2,1,75,0,0
15664,-100,4,2,1,100,0,1
23046,-100,4,2,1,100,0,0
23164,-100,4,2,1,100,0,1
30664,-100,4,2,1,50,0,0
43789,-100,4,2,1,75,0,0
45664,-100,4,2,1,100,0,1
53046,-100,4,2,1,100,0,0
53164,-100,4,2,1,100,0,1
60664,-100,4,2,1,50,0,0
64414,-100,4,2,1,40,0,0
66289,-100,4,2,1,30,0,0
68164,-100,4,2,1,20,0,0
70039,-100,4,2,1,10,0,0
71914,-100,4,2,1,5,0,0

[Colours]
Combo1 : 85,85,85
Combo2 : 191,191,191

[HitObjects]
238,252,664,6,0,L|425:257,2,170,2|2|2,3:2|0:0|0:0,0:0:0:0:
115,216,1953,1,2,0:0:0:0:
239,175,2304,1,2,0:0:0:0:
324,169,2539,6,0,L|514:166,1,170,2|2,3:2|0:0,0:0:0:0:
505,63,3476,2,0,L|360:54,2,127.5,2|2|2,0:0|0:0|0:0,0:0:0:0:
418,182,4414,5,2,3:2:0:0:
254,170,4882,1,2,0:0:0:0:
85,187,5351,1,2,0:0:0:0:
214,355,5703,2,0,P|249:310|195:260,1,127.5,2|2,0:0|0:0,0:0:0:0:
127,169,6289,6,0,L|309:165,1,170,2|2,3:2|0:0,0:0:0:0:
381,186,6992,1,10,1:2:0:0:
396,60,7226,1,2,0:0:0:0:
224,90,7695,1,4,3:0:0:0:
389,341,8164,6,0,P|392:289|289:217,1,170,2|2,3:2|0:0,0:0:0:0:
140,195,9101,1,2,0:0:0:0:
267,161,9453,2,0,L|273:22,1,127.5,2|2,0:0|0:0,0:0:0:0:
185,314,10039,6,0,P|118:305|65:210,1,170,2|2,3:2|0:0,0:0:0:0:
237,204,10976,2,0,L|384:196,2,127.5,2|2|2,0:0|0:0|0:0,0:0:0:0:
152,208,11914,5,2,3:2:0:0:
132,40,12382,1,2,0:0:0:0:
296,36,12851,1,2,0:0:0:0:
422,86,13202,1,2,0:0:0:0:
436,2,13554,1,2,0:0:0:0:
335,270,13789,6,0,L|132:264,1,170,2|2,0:0|0:0,0:0:0:0:
247,202,14492,2,0,L|252:102,1,85,2|2,3:2|0:0,0:0:0:0:
385,109,15195,2,0,L|488:103,1,85,2|0,3:2|0:0,0:0:0:0:
366,48,15664,5,6,0:0:0:0:
198,168,16132,2,0,L|372:162,1,170,2|10,0:0|0:0,0:0:0:0:
382,34,16953,1,2,3:2:0:0:
263,30,17304,1,2,0:0:0:0:
177,228,17539,6,0,P|180:157|279:122,1,170,6|2,0:0|0:0,0:0:0:0:
431,74,18476,2,0,L|277:72,1,127.5,10|2,0:0|3:2,0:0:0:0:
178,84,19179,1,2,0:0:0:0:
263,274,19414,6,0,P|324:226|269:185,1,170,6|2,0:0|0:0,0:0:0:0:
98,123,20351,1,10,0:0:0:0:
223,265,20703,2,0,L|358:260,1,127.5,2|2,3:2|0:0,0:0:0:0:
436,160,21289,6,0,L|239:152,1,170,2|2,3:2|0:0,0:0:0:0:
180,150,21992,1,2,3:2:0:0:
269,87,22226,1,10,0:0:0:0:
440,104,22695,2,0,L|446:7,1,85,2|0,3:2|0:0,0:0:0:0:
342,30,23164,6,0,L|160:23,1,170,6|2,0:0|0:0,0:0:0:0:
19,26,24101,1,10,0:0:0:0:
6,209,24453,2,0,L|151:204,1,127.5,2|2,3:2|0:0,0:0:0:0:
228,201,25039,6,0,P|300:189|335:93,1,170,6|2,0:0|0:0,0:0:0:0:
169,141,25976,2,0,L|33:138,2,127.5,10|2|2,0:0|3:2|0:0,0:0:0:0:
254,275,26914,6,0,P|316:238|260:183,1,170,6|2,0:0|0:0,0:0:0:0:
100,112,27851,2,0,L|246:108,1,127.5,10|2,0:0|3:2,0:0:0:0:
361,115,28554,1,2,0:0:0:0:
461,118,28789,5,2,3:2:0:0:
468,32,29023,1,10,0:0:0:0:
379,32,29257,1,10,0:0:0:0:
201,188,29726,1,10,0:0:0:0:
366,187,30195,2,0,L|370:100,1,85,10|2,0:0|3:2,0:0:0:0:
271,92,30664,5,6,3:2:0:0:
271,92,31015,1,2,3:2:0:0:
388,33,31367,1,10,1:2:0:0:
396,224,32070,6,0,L|213:220,1,170,2|2,0:0|3:2,0:0:0:0:
224,119,32890,1,2,3:2:0:0:
354,121,33242,1,10,1:2:0:0:
162,75,34414,6,0,L|14:71,2,127.5,2|2|10,3:2|3:2|1:2,0:0:0:0:
350,225,35820,6,0,P|202:94|357:10,1,425,2|10,0:0|1:2,0:0:0:0:
464,25,37460,1,8,0:0:0:0:
336,48,37812,1,8,0:0:0:0:
209,95,38164,6,0,L|62:90,2,127.5,2|2|10,3:2|3:2|1:2,0:0:0:0:
414,258,39570,6,0,L|423:78,1,170,2|2,0:0|3:2,0:0:0:0:
303,84,40390,1,2,3:2:0:0:
175,83,40742,1,10,1:2:0:0:
30,321,41914,6,0,L|20:134,1,170,2|2,3:2|0:0,0:0:0:0:
193,123,42851,2,0,L|21:117,1,170,2|0,0:0|0:0,0:0:0:0:
196,80,43789,6,0,L|381:75,3,170,2|0|2|2,3:2|0:0|0:0|0:0,0:0:0:0:
379,151,45429,1,8,0:0:0:0:
277,237,45664,6,0,P|173:170|302:48,1,340,6|10,0:0|0:0,0:0:0:0:
409,45,46953,1,2,3:2:0:0:
419,171,47304,1,2,0:0:0:0:
330,180,47539,6,0,L|137:171,1,170,6|2,0:0|0:0,0:0:0:0:
325,102,48476,2,0,L|177:95,2,127.5,10|2|2,0:0|3:2|0:0,0:0:0:0:
414,255,49414,6,0,P|417:195|315:143,1,170,6|2,0:0|0:0,0:0:0:0:
161,196,50351,2,0,L|156:48,1,127.5,10|2,0:0|3:2,0:0:0:0:
283,76,51054,1,2,0:0:0:0:
197,274,51289,6,0,P|196:203|298:170,1,170,2|2,3:2|0:0,0:0:0:0:
358,165,51992,1,2,3:2:0:0:
274,99,52226,1,10,0:0:0:0:
97,114,52695,2,0,L|93:20,1,85,2|0,3:2|0:0,0:0:0:0:
192,281,53164,6,0,L|373:277,1,170,6|2,0:0|0:0,0:0:0:0:
197,218,54101,2,0,L|50:214,2,127.5,10|2|2,0:0|3:2|0:0,0:0:0:0:
287,223,55039,6,0,P|354:209|393:115,1,170,6|2,0:0|0:0,0:0:0:0:
226,103,55976,1,10,0:0:0:0:
218,0,56328,1,2,3:2:0:0:
348,1,56679,1,2,0:0:0:0:
432,244,56914,6,0,L|440:72,1,170,6|2,0:0|0:0,0:0:0:0:
272,314,57851,2,0,L|458:308,1,170,10|0,0:0|0:0,0:0:0:0:
261,205,58789,5,2,3:2:0:0:
345,202,59023,1,10,0:0:0:0:
430,199,59257,1,10,0:0:0:0:
264,118,59726,2,0,L|93:115,1,170,10|10,0:0|0:0,0:0:0:0:
87,41,60429,1,2,3:2:0:0:
196,313,60664,6,0,P|280:237|188:157,1,255,6|10,3:2|1:2,0:0:0:0:
61,240,61953,2,0,L|50:82,1,127.5,2|2,0:0|0:0,0:0:0:0:
136,111,62539,6,0,L|325:110,1,170,2|2,3:2|0:0,0:0:0:0:
391,96,63242,1,10,1:2:0:0:
400,28,63476,1,2,0:0:0:0:
235,248,63945,2,0,L|137:245,1,85,10|8,3:0|0:0,0:0:0:0:
253,176,64414,5,6,1:2:0:0:
256,192,64882,12,0,71914,0:0:0:0:
