osu file format v14

[General]
AudioFilename: audio.mp3
AudioLeadIn: 0
PreviewTime: 15664
Countdown: 0
SampleSet: Soft
StackLeniency: 0.7
Mode: 2
LetterboxInBreaks: 0
WidescreenStoryboard: 1

[Editor]
DistanceSpacing: 1.9
BeatDivisor: 4
GridSize: 8
TimelineZoom: 2.3

[Metadata]
Title:Can You Feel My Heart (Cut Ver.)
TitleUnicode:Can You Feel My Heart (Cut Ver.)
Artist:Bring Me The Horizon
ArtistUnicode:Bring Me The Horizon
Creator:GIGACHAD
Version:Platter
Source:
Tags:dako zuid-afrikaan metalcore alternative metal rock english enjoyer fan meme bmth
BeatmapID:3816812
BeatmapSetID:1857120

[Difficulty]
HPDrainRate:4
CircleSize:3.5
OverallDifficulty:7.5
ApproachRate:7.5
SliderMultiplier:2.1
SliderTickRate:1

[Events]
//Background and Video events
0,0,"bg.jpg",0,0
//Break Periods
//Storyboard Layer 0 (Background)
//Storyboard Layer 1 (Fail)
//Storyboard Layer 2 (Pass)
//Storyboard Layer 3 (Foreground)
//Storyboard Layer 4 (Overlay)
//Storyboard Sound Samples

[TimingPoints]
664,468.75,4,2,1,60,1,0
13789,-100,4,2,1,75,0,0
15664,-100,4,2,1,100,0,1
23046,-100,4,2,1,100,0,0
23164,-100,4,2,1,100,0,1
30664,-100,4,2,1,50,0,0
43789,-100,4,2,1,75,0,0
45664,-100,4,2,1,100,0,1
53046,-100,4,2,1,100,0,0
53164,-100,4,2,1,100,0,1
60664,-100,4,2,1,50,0,0
64414,-100,4,2,1,40,0,0
66289,-100,4,2,1,30,0,0
68164,-100,4,2,1,20,0,0
70039,-100,4,2,1,10,0,0
71914,-100,4,2,1,5,0,0

[Colours]
Combo1 : 0,0,255
Combo2 : 255,0,0
Combo3 : 191,191,191

[HitObjects]
161,270,664,6,0,P|112:232|176:168,1,157.5,2|2,3:2|3:2,0:0:0:0:
208,168,1132,1,2,0:0:0:0:
416,328,1367,2,0,L|424:224,1,105,10|2,1:2|0:0,0:0:0:0:
256,168,1953,2,0,L|416:168,1,157.5,2|2,0:0|0:0,0:0:0:0:
208,112,2539,6,0,L|8:112,1,157.5,2|2,3:2|3:2,0:0:0:0:
48,48,3007,1,2,0:0:0:0:
248,48,3242,1,10,1:2:0:0:
152,248,3476,2,0,L|144:128,1,105,2|0,0:0|0:0,0:0:0:0:
200,192,3828,2,0,L|368:192,1,157.5,2|2,0:0|0:0,0:0:0:0:
160,352,4414,6,0,L|152:160,1,157.5,2|2,3:2|3:2,0:0:0:0:
208,144,4882,1,2,0:0:0:0:
416,136,5117,2,0,L|304:136,1,105,10|2,1:2|0:0,0:0:0:0:
152,168,5703,2,0,P|104:128|160:64,1,157.5,2|2,0:0|0:0,0:0:0:0:
360,176,6289,6,0,L|488:176,2,105,2|0|2,3:2|0:0|0:0,0:0:0:0:
168,184,6992,2,0,L|168:112,1,52.5,10|2,1:2|0:0,0:0:0:0:
224,120,7226,1,2,0:0:0:0:
120,128,7460,2,0,L|64:128,1,52.5,8|4,1:2|3:0,0:0:0:0:
16,48,7695,1,4,3:0:0:0:
68,48,7812,1,8,1:2:0:0:
121,48,7929,1,8,1:2:0:0:
424,224,8164,6,0,P|480:176|424:136,1,157.5,2|2,3:2|3:2,0:0:0:0:
368,136,8632,1,2,0:0:0:0:
168,224,8867,2,0,L|304:224,1,105,10|2,1:2|0:0,0:0:0:0:
112,224,9453,2,0,L|104:56,1,157.5,2|2,0:0|0:0,0:0:0:0:
296,288,10039,6,0,L|112:288,1,157.5,2|2,3:2|3:2,0:0:0:0:
128,232,10507,1,2,0:0:0:0:
336,232,10742,2,0,L|440:232,1,105,10|2,1:2|0:0,0:0:0:0:
288,296,11328,2,0,L|280:128,1,157.5,2|2,0:0|0:0,0:0:0:0:
80,184,11914,6,0,P|72:120|160:72,1,157.5,2|2,3:2|3:2,0:0:0:0:
192,72,12382,1,2,0:0:0:0:
400,88,12617,1,10,1:2:0:0:
408,16,12851,2,0,L|296:16,1,105,2|0,0:0|0:0,0:0:0:0:
240,16,13203,2,0,L|128:16,1,105,2|0,0:0|0:0,0:0:0:0:
128,80,13554,1,2,0:0:0:0:
456,256,13789,6,0,L|464:128,1,105,2|2,0:0|0:0,0:0:0:0:
352,176,14257,2,0,L|344:112,1,52.5,2|2,0:0|0:0,0:0:0:0:
472,152,14492,1,2,3:2:0:0:
488,103,14609,1,2,3:2:0:0:
475,53,14726,1,2,0:0:0:0:
435,19,14843,1,2,0:0:0:0:
384,13,14960,1,2,0:0:0:0:
176,32,15195,2,0,L|72:32,1,105,2|0,3:2|0:0,0:0:0:0:
440,320,15664,6,0,L|448:208,1,105,6|0,0:0|0:0,0:0:0:0:
336,320,16132,2,0,L|328:216,1,105,2|0,0:0|0:0,0:0:0:0:
128,320,16601,2,0,L|24:320,1,105,10|0,0:0|0:0,0:0:0:0:
80,256,16953,2,0,L|88:64,1,157.5,2|2,3:2|0:0,0:0:0:0:
384,96,17539,6,0,L|496:96,1,105,6|0,0:0|0:0,0:0:0:0:
384,200,18007,2,0,L|496:200,1,105,2|0,0:0|0:0,0:0:0:0:
496,272,18359,1,0,0:0:0:0:
376,272,18476,2,0,L|216:272,2,157.5,10|2|2,0:0|3:2|0:0,0:0:0:0:
80,264,19414,6,0,L|72:160,1,105,6|0,0:0|0:0,0:0:0:0:
184,152,19882,1,2,0:0:0:0:
236,152,19999,1,0,0:0:0:0:
289,152,20116,1,0,0:0:0:0:
88,72,20351,2,0,L|208:72,1,105,10|0,0:0|0:0,0:0:0:0:
248,272,20703,2,0,L|144:272,1,105,2|0,3:2|0:0,0:0:0:0:
136,216,21054,1,2,0:0:0:0:
448,96,21289,6,0,L|328:96,1,105,2|2,3:2|0:0,0:0:0:0:
240,112,21757,2,0,L|232:40,1,52.5,2|2,0:0|0:0,0:0:0:0:
296,64,21992,2,0,L|304:8,1,52.5,2|2,3:2|3:2,0:0:0:0:
184,32,22226,2,0,L|112:32,2,52.5,10|2|2,0:0|0:0|0:0,0:0:0:0:
392,256,22695,2,0,L|400:144,1,105,2|0,3:2|0:0,0:0:0:0:
104,240,23164,6,0,P|32:192|112:128,1,210,6|2,0:0|0:0,0:0:0:0:
208,88,23867,1,0,0:0:0:0:
400,192,24101,2,0,L|408:72,1,105,10|0,0:0|0:0,0:0:0:0:
352,88,24453,1,2,3:2:0:0:
336,0,24804,1,2,0:0:0:0:
32,208,25039,6,0,L|152:208,1,105,6|0,0:0|0:0,0:0:0:0:
264,208,25507,2,0,L|376:208,1,105,2|0,0:0|0:0,0:0:0:0:
312,152,25859,1,0,0:0:0:0:
192,152,25976,2,0,L|88:152,1,105,10|0,0:0|0:0,0:0:0:0:
32,176,26328,2,0,L|24:8,1,157.5,2|2,3:2|0:0,0:0:0:0:
352,328,26914,6,0,L|360:208,1,105,6|0,0:0|0:0,0:0:0:0:
256,232,27382,2,0,L|248:120,1,105,2|0,0:0|0:0,0:0:0:0:
448,96,27851,2,0,L|280:96,2,157.5,10|2|2,0:0|3:2|0:0,0:0:0:0:
128,96,28789,6,0,L|32:96,2,52.5,2|10|10,3:2|0:0|0:0,0:0:0:0:
232,96,29257,2,0,L|232:40,2,52.5,10|10|2,0:0|0:0|3:2,0:0:0:0:
336,96,29726,2,0,L|432:96,2,52.5,10|10|2,0:0|0:0|3:2,0:0:0:0:
136,240,30195,1,10,0:0:0:0:
84,240,30312,1,2,3:2:0:0:
31,240,30429,1,2,3:2:0:0:
336,344,30664,6,0,L|504:344,2,157.5,6|2|10,3:2|3:2|1:2,0:0:0:0:
336,264,31601,1,2,0:0:0:0:
480,264,31953,6,0,L|480:48,1,210,0|2,0:0|0:0,0:0:0:0:
480,54,32539,1,2,3:2:0:0:
480,54,32890,1,2,3:2:0:0:
232,56,33242,1,10,1:2:0:0:
168,232,34414,6,0,L|168:64,1,157.5,2|2,3:2|3:2,0:0:0:0:
325,74,35117,2,0,L|165:74,1,157.5,10|2,1:2|0:0,0:0:0:0:
408,320,35820,6,0,L|408:80,1,210,2|2,0:0|3:2,0:0:0:0:
408,110,36640,1,2,3:2:0:0:
152,112,36992,1,10,1:2:0:0:
152,112,37460,1,8,0:0:0:0:
408,256,37812,2,0,L|408:192,2,52.5,8|8|8,0:0|0:0|0:0,0:0:0:0:
352,192,38164,6,0,L|176:192,3,157.5,2|2|10|2,3:2|3:2|1:2|0:0,0:0:0:0:
40,112,39570,2,0,L|232:112,1,157.5,2|0,0:0|0:0,0:0:0:0:
248,112,40039,5,2,3:2:0:0:
248,24,40390,1,2,3:2:0:0:
16,24,40742,1,10,1:2:0:0:
32,176,41914,6,0,L|224:176,1,157.5,2|2,3:2|3:2,0:0:0:0:
240,176,42382,1,2,0:0:0:0:
136,112,42617,1,10,1:2:0:0:
328,320,42851,2,0,P|328:240|128:120,1,315,2|0,0:0|0:0,0:0:0:0:
352,120,43789,6,0,P|408:120|472:16,1,157.5,2|2,3:2|3:2,0:0:0:0:
416,40,44257,1,0,0:0:0:0:
216,216,44492,1,10,1:2:0:0:
328,160,44726,2,0,L|216:160,1,105,2|8,0:0|0:0,0:0:0:0:
416,288,45195,2,0,L|488:288,2,52.5,2|8|8,0:0|0:0|0:0,0:0:0:0:
72,320,45664,6,0,L|64:208,1,105,6|0,0:0|0:0,0:0:0:0:
176,320,46132,2,0,L|184:216,1,105,2|0,0:0|0:0,0:0:0:0:
384,320,46601,2,0,L|488:320,1,105,10|0,0:0|0:0,0:0:0:0:
432,256,46953,2,0,L|424:64,1,157.5,2|2,3:2|0:0,0:0:0:0:
128,96,47539,6,0,L|16:96,1,105,6|0,0:0|0:0,0:0:0:0:
128,200,48007,2,0,L|16:200,1,105,2|0,0:0|0:0,0:0:0:0:
16,272,48359,1,0,0:0:0:0:
136,272,48476,2,0,L|296:272,2,157.5,10|2|2,0:0|3:2|0:0,0:0:0:0:
432,264,49414,6,0,L|440:160,1,105,6|0,0:0|0:0,0:0:0:0:
328,152,49882,1,2,0:0:0:0:
276,152,49999,1,0,0:0:0:0:
223,152,50116,1,0,0:0:0:0:
424,72,50351,2,0,L|304:72,1,105,10|0,0:0|0:0,0:0:0:0:
264,272,50703,2,0,L|368:272,1,105,2|0,3:2|0:0,0:0:0:0:
376,216,51054,1,2,0:0:0:0:
64,96,51289,6,0,L|184:96,1,105,2|2,3:2|0:0,0:0:0:0:
272,112,51757,2,0,L|280:40,1,52.5,2|2,0:0|0:0,0:0:0:0:
216,64,51992,2,0,L|208:8,1,52.5,2|2,3:2|3:2,0:0:0:0:
328,32,52226,2,0,L|400:32,2,52.5,10|2|2,0:0|0:0|0:0,0:0:0:0:
120,248,52695,2,0,L|112:136,1,105,2|0,3:2|0:0,0:0:0:0:
408,240,53164,6,0,P|480:192|400:128,1,210,6|2,0:0|0:0,0:0:0:0:
304,88,53867,1,0,0:0:0:0:
112,192,54101,2,0,L|104:72,1,105,10|0,0:0|0:0,0:0:0:0:
160,88,54453,1,2,3:2:0:0:
176,0,54804,1,2,0:0:0:0:
480,208,55039,6,0,L|360:208,1,105,6|0,0:0|0:0,0:0:0:0:
248,208,55507,2,0,L|136:208,1,105,2|0,0:0|0:0,0:0:0:0:
200,152,55859,1,0,0:0:0:0:
312,152,55976,2,0,L|416:152,1,105,10|0,0:0|0:0,0:0:0:0:
472,152,56328,2,0,L|480:-16,1,157.5,2|2,3:2|0:0,0:0:0:0:
160,328,56914,6,0,L|152:208,1,105,6|0,0:0|0:0,0:0:0:0:
256,232,57382,2,0,L|264:120,1,105,2|0,0:0|0:0,0:0:0:0:
64,96,57851,2,0,L|232:96,2,157.5,10|2|2,0:0|3:2|0:0,0:0:0:0:
376,240,58789,5,2,3:2:0:0:
428,240,58906,1,10,0:0:0:0:
481,240,59023,1,10,0:0:0:0:
376,168,59257,1,10,0:0:0:0:
428,168,59374,1,10,0:0:0:0:
481,168,59491,1,2,3:2:0:0:
488,112,59609,1,10,0:0:0:0:
368,104,59726,5,10,0:0:0:0:
315,104,59843,1,10,0:0:0:0:
263,104,59960,1,2,3:2:0:0:
72,104,60195,2,0,L|64:32,2,52.5,10|2|2,0:0|3:2|3:2,0:0:0:0:
400,304,60664,6,0,L|408:128,1,157.5,6|2,3:2|3:2,0:0:0:0:
160,128,61367,1,10,1:2:0:0:
152,232,61953,2,0,L|144:64,1,157.5,2|2,0:0|0:0,0:0:0:0:
352,240,62539,6,0,L|192:240,1,157.5,2|2,3:2|3:2,0:0:0:0:
184,152,63124,1,2,0:0:0:0:
304,152,63241,1,10,1:2:0:0:
357,152,63358,1,2,0:0:0:0:
409,152,63475,1,2,0:0:0:0:
88,160,63710,6,0,L|80:40,1,105,10|10,1:2|3:0,0:0:0:0:
136,56,64062,1,8,0:0:0:0:
192,56,64179,1,8,0:0:0:0:
80,288,64414,5,6,1:2:0:0:
256,192,64648,12,0,71914,0:0:0:0:
