osu file format v14

[General]
AudioFilename: audio.mp3
AudioLeadIn: 0
PreviewTime: 15664
Countdown: 0
SampleSet: Soft
StackLeniency: 0.7
Mode: 2
LetterboxInBreaks: 0
WidescreenStoryboard: 1

[Editor]
DistanceSpacing: 1.9
BeatDivisor: 4
GridSize: 8
TimelineZoom: 2.6

[Metadata]
Title:Can You Feel My Heart (Cut Ver.)
TitleUnicode:Can You Feel My Heart (Cut Ver.)
Artist:Bring Me The Horizon
ArtistUnicode:Bring Me The Horizon
Creator:GIGACHAD
Version:GIGACHAD
Source:
Tags:dako zuid-afrikaan metalcore alternative metal rock english enjoyer fan meme bmth
BeatmapID:3816811
BeatmapSetID:1857120

[Difficulty]
HPDrainRate:5
CircleSize:4
OverallDifficulty:8.5
ApproachRate:8.5
SliderMultiplier:2.3
SliderTickRate:1

[Events]
//Background and Video events
0,0,"bg.jpg",0,0
//Break Periods
//Storyboard Layer 0 (Background)
//Storyboard Layer 1 (Fail)
//Storyboard Layer 2 (Pass)
//Storyboard Layer 3 (Foreground)
//Storyboard Layer 4 (Overlay)
//Storyboard Sound Samples

[TimingPoints]
664,468.75,4,2,1,60,1,0
13789,-100,4,2,1,75,0,0
15664,-100,4,2,1,100,0,1
23046,-100,4,2,1,100,0,0
23164,-100,4,2,1,100,0,1
30664,-100,4,2,1,50,0,0
43789,-100,4,2,1,75,0,0
45664,-100,4,2,1,100,0,1
53046,-100,4,2,1,100,0,0
53164,-100,4,2,1,100,0,1
60664,-100,4,2,1,50,0,0
64414,-100,4,2,1,40,0,0
66289,-100,4,2,1,30,0,0
68164,-100,4,2,1,20,0,0
70039,-100,4,2,1,10,0,0
71914,-100,4,2,1,5,0,0

[Colours]
Combo1 : 0,0,255
Combo2 : 255,0,0
Combo3 : 191,191,191

[HitObjects]
248,160,664,6,0,L|432:160,1,172.5,2|2,3:2|3:2,0:0:0:0:
480,160,1132,1,2,0:0:0:0:
128,160,1367,2,0,L|8:160,2,115,10|2|0,1:2|0:0|0:0,0:0:0:0:
184,160,1953,2,0,L|192:40,1,115,2|0,0:0|0:0,0:0:0:0:
136,72,2304,2,0,L|128:0,1,57.5,2|0,0:0|0:0,0:0:0:0:
264,32,2539,6,0,L|448:32,1,172.5,2|2,3:2|3:2,0:0:0:0:
440,112,3007,1,2,0:0:0:0:
72,200,3242,1,10,1:2:0:0:
232,200,3476,2,0,L|240:56,1,115,2|0,0:0|0:0,0:0:0:0:
296,112,3828,2,0,L|304:-8,1,115,2|0,0:0|0:0,0:0:0:0:
360,56,4179,2,0,L|368:-16,1,57.5,2|0,0:0|0:0,0:0:0:0:
240,312,4414,6,0,L|48:312,1,172.5,2|2,3:2|3:2,0:0:0:0:
128,240,4882,1,2,0:0:0:0:
496,152,5117,1,10,1:2:0:0:
344,144,5351,2,0,L|216:144,1,115,2|0,0:0|0:0,0:0:0:0:
288,80,5703,2,0,L|416:80,1,115,2|0,0:0|0:0,0:0:0:0:
336,24,6054,2,0,L|272:24,1,57.5,2|0,0:0|0:0,0:0:0:0:
56,176,6289,6,0,L|192:176,1,115,2|0,3:2|0:0,0:0:0:0:
272,184,6640,2,0,L|336:184,2,57.5,2|2|0,3:2|0:0|0:0,0:0:0:0:
144,320,6992,5,10,1:2:0:0:
90,320,7109,1,2,0:0:0:0:
47,287,7226,1,2,0:0:0:0:
35,234,7343,1,0,0:0:0:0:
144,208,7460,1,8,1:2:0:0:
96,187,7577,1,4,3:0:0:0:
93,135,7694,1,4,3:0:0:0:
139,109,7811,1,8,1:2:0:0:
344,112,7929,2,0,L|424:112,1,57.5,8|8,1:2|1:2,0:0:0:0:
192,304,8164,6,0,P|192:248|288:192,1,172.5,2|2,3:2|3:2,0:0:0:0:
336,192,8632,1,2,0:0:0:0:
16,192,8867,1,10,1:2:0:0:
160,192,9101,2,0,L|168:64,1,115,2|0,0:0|0:0,0:0:0:0:
112,48,9453,2,0,L|232:48,1,115,2|0,0:0|0:0,0:0:0:0:
168,168,9804,2,0,L|232:168,1,57.5,2|0,0:0|0:0,0:0:0:0:
352,232,10039,6,0,P|424:232|480:144,1,172.5,2|2,3:2|3:2,0:0:0:0:
416,152,10507,1,2,0:0:0:0:
56,176,10742,1,10,1:2:0:0:
248,200,10976,2,0,L|256:72,1,115,2|0,0:0|0:0,0:0:0:0:
144,312,11328,2,0,L|136:184,1,115,2|0,0:0|0:0,0:0:0:0:
192,200,11679,2,0,L|200:128,1,57.5,2|0,0:0|0:0,0:0:0:0:
16,184,11914,6,0,P|16:144|112:64,1,172.5,2|2,3:2|3:2,0:0:0:0:
160,56,12382,1,2,0:0:0:0:
480,56,12617,1,10,1:2:0:0:
320,112,12851,2,0,L|192:112,1,115,2|0,0:0|0:0,0:0:0:0:
104,48,13203,2,0,L|224:48,1,115,2|0,0:0|0:0,0:0:0:0:
104,184,13554,2,0,L|40:184,1,57.5,2|0,0:0|0:0,0:0:0:0:
240,320,13789,5,2,0:0:0:0:
432,312,14023,1,2,0:0:0:0:
120,136,14257,2,0,L|200:136,1,57.5,2|2,0:0|0:0,0:0:0:0:
360,80,14492,1,2,3:2:0:0:
305,76,14609,1,2,3:2:0:0:
253,93,14726,1,2,0:0:0:0:
210,127,14843,1,2,0:0:0:0:
183,174,14960,1,2,0:0:0:0:
174,228,15077,1,2,0:0:0:0:
376,296,15195,2,0,P|376:248|280:184,1,172.5,2|0,3:2|0:0,0:0:0:0:
72,176,15664,6,0,L|64:48,1,115,6|0,0:0|0:0,0:0:0:0:
264,72,16132,2,0,L|128:72,1,115,2|0,0:0|0:0,0:0:0:0:
472,72,16601,2,0,L|480:192,1,115,10|0,0:0|0:0,0:0:0:0:
368,192,16953,2,0,L|360:320,1,115,2|0,3:2|0:0,0:0:0:0:
248,240,17304,2,0,L|184:240,1,57.5,2|0,0:0|0:0,0:0:0:0:
368,128,17539,6,0,L|488:128,1,115,6|0,0:0|0:0,0:0:0:0:
288,160,18007,2,0,L|424:160,1,115,2|0,0:0|0:0,0:0:0:0:
368,120,18359,1,0,0:0:0:0:
184,152,18476,2,0,L|176:16,1,115,10|0,0:0|0:0,0:0:0:0:
288,88,18828,2,0,L|408:88,1,115,2|0,3:2|0:0,0:0:0:0:
288,32,19179,2,0,L|184:32,1,57.5,2|0,0:0|0:0,0:0:0:0:
40,168,19414,6,0,L|32:40,1,115,6|0,0:0|0:0,0:0:0:0:
224,120,19882,1,2,0:0:0:0:
169,120,19999,1,0,0:0:0:0:
160,56,20116,1,0,0:0:0:0:
216,40,20234,1,0,0:0:0:0:
400,120,20351,2,0,L|408:0,1,115,10|0,0:0|0:0,0:0:0:0:
296,192,20703,2,0,L|176:192,1,115,2|0,3:2|0:0,0:0:0:0:
296,144,21054,2,0,L|360:144,1,57.5,2|0,0:0|0:0,0:0:0:0:
168,120,21289,5,2,3:2:0:0:
16,112,21523,1,2,0:0:0:0:
320,80,21757,2,0,L|408:80,1,57.5,2|2,0:0|0:0,0:0:0:0:
312,40,21992,2,0,L|248:40,1,57.5,2|2,3:2|3:2,0:0:0:0:
464,240,22226,1,10,0:0:0:0:
470,186,22343,1,2,0:0:0:0:
440,142,22460,1,2,0:0:0:0:
387,130,22577,1,2,0:0:0:0:
176,304,22695,2,0,P|112:288|80:176,1,172.5,2|0,3:2|0:0,0:0:0:0:
344,328,23164,6,0,L|464:328,1,115,6|0,0:0|0:0,0:0:0:0:
256,264,23632,2,0,L|136:264,1,115,2|0,0:0|0:0,0:0:0:0:
440,272,24101,2,0,L|448:144,1,115,10|0,0:0|0:0,0:0:0:0:
336,160,24453,2,0,L|200:160,1,115,2|0,3:2|0:0,0:0:0:0:
112,168,24804,2,0,L|104:96,1,57.5,2|0,0:0|0:0,0:0:0:0:
304,104,25039,6,0,L|424:104,1,115,6|0,0:0|0:0,0:0:0:0:
240,272,25507,2,0,L|104:272,1,115,2|0,0:0|0:0,0:0:0:0:
120,216,25859,1,0,0:0:0:0:
304,208,25976,2,0,L|312:88,1,115,10|0,0:0|0:0,0:0:0:0:
200,152,26328,2,0,L|192:32,1,115,2|0,3:2|0:0,0:0:0:0:
304,328,26679,2,0,L|368:328,1,57.5,2|0,0:0|0:0,0:0:0:0:
160,328,26914,6,0,L|152:208,1,115,6|0,0:0|0:0,0:0:0:0:
352,216,27382,1,2,0:0:0:0:
408,207,27499,1,0,0:0:0:0:
450,170,27616,1,0,0:0:0:0:
464,115,27733,1,0,0:0:0:0:
256,112,27851,2,0,L|120:112,1,115,10|0,0:0|0:0,0:0:0:0:
24,40,28203,2,0,L|144:40,1,115,2|0,3:2|0:0,0:0:0:0:
256,40,28554,2,0,L|336:40,1,57.5,2|0,0:0|0:0,0:0:0:0:
104,200,28789,6,0,L|32:200,1,57.5,2|10,3:2|0:0,0:0:0:0:
240,272,29023,1,10,0:0:0:0:
297,275,29140,1,10,0:0:0:0:
352,261,29257,1,10,0:0:0:0:
400,229,29374,1,10,0:0:0:0:
435,184,29491,1,2,3:2:0:0:
455,131,29608,1,10,0:0:0:0:
256,120,29726,5,10,0:0:0:0:
198,120,29843,1,10,0:0:0:0:
141,120,29960,1,2,3:2:0:0:
83,120,30077,1,2,3:2:0:0:
200,312,30195,1,10,0:0:0:0:
256,306,30312,1,2,3:2:0:0:
303,274,30429,1,2,3:2:0:0:
327,222,30546,1,2,3:2:0:0:
136,224,30664,6,0,P|88:216|24:112,2,172.5,6|2|10,3:2|3:2|1:2,0:0:0:0:
240,224,31601,1,2,0:0:0:0:
488,232,31953,6,0,P|488:160|352:48,1,230,0|2,0:0|0:0,0:0:0:0:
328,136,32539,1,2,3:2:0:0:
328,136,32890,1,2,3:2:0:0:
56,128,33242,1,10,1:2:0:0:
288,192,34414,6,0,L|496:192,3,172.5,2|2|10|2,3:2|3:2|1:2|0:0,0:0:0:0:
176,128,35820,2,0,L|416:128,1,230,2|2,0:0|3:2,0:0:0:0:
416,32,36640,1,2,3:2:0:0:
144,32,36992,1,10,1:2:0:0:
496,32,37460,1,8,0:0:0:0:
200,168,37812,6,0,L|264:168,3,57.5,8|8|8|2,0:0|0:0|0:0|3:2,0:0:0:0:
264,64,38515,1,2,3:2:0:0:
16,64,38867,2,0,L|200:64,1,172.5,10|2,1:2|0:0,0:0:0:0:
448,104,39570,2,0,L|192:104,1,230,2|2,0:0|3:2,0:0:0:0:
104,176,40156,6,0,L|96:56,1,115,2|2,0:0|3:2,0:0:0:0:
368,184,40742,1,10,1:2:0:0:
168,264,41914,6,0,L|24:264,1,115,2|0,3:2|0:0,0:0:0:0:
112,192,42265,1,2,3:2:0:0:
168,192,42382,1,2,0:0:0:0:
352,152,42617,1,10,1:2:0:0:
160,56,42851,2,0,L|400:56,1,230,2|0,0:0|0:0,0:0:0:0:
488,56,43554,1,0,0:0:0:0:
144,344,43789,6,0,L|328:344,1,172.5,2|2,3:2|3:2,0:0:0:0:
336,232,44257,1,0,0:0:0:0:
152,152,44492,1,10,1:2:0:0:
344,112,44726,1,2,0:0:0:0:
16,64,44960,1,8,0:0:0:0:
200,336,45195,1,2,0:0:0:0:
136,328,45312,1,8,0:0:0:0:
139,271,45429,1,8,0:0:0:0:
200,272,45546,1,8,0:0:0:0:
440,176,45664,6,0,L|448:48,1,115,6|0,0:0|0:0,0:0:0:0:
248,72,46132,2,0,L|384:72,1,115,2|0,0:0|0:0,0:0:0:0:
40,72,46601,2,0,L|32:192,1,115,10|0,0:0|0:0,0:0:0:0:
144,192,46953,2,0,L|152:320,1,115,2|0,3:2|0:0,0:0:0:0:
264,240,47304,2,0,L|328:240,1,57.5,2|0,0:0|0:0,0:0:0:0:
144,128,47539,6,0,L|24:128,1,115,6|0,0:0|0:0,0:0:0:0:
224,160,48007,2,0,L|88:160,1,115,2|0,0:0|0:0,0:0:0:0:
144,120,48359,1,0,0:0:0:0:
328,152,48476,2,0,L|336:16,1,115,10|0,0:0|0:0,0:0:0:0:
224,88,48828,2,0,L|104:88,1,115,2|0,3:2|0:0,0:0:0:0:
224,32,49179,2,0,L|328:32,1,57.5,2|0,0:0|0:0,0:0:0:0:
472,168,49414,6,0,L|480:40,1,115,6|0,0:0|0:0,0:0:0:0:
288,120,49882,1,2,0:0:0:0:
343,120,49999,1,0,0:0:0:0:
352,56,50116,1,0,0:0:0:0:
296,40,50234,1,0,0:0:0:0:
112,120,50351,2,0,L|104:0,1,115,10|0,0:0|0:0,0:0:0:0:
216,192,50703,2,0,L|336:192,1,115,2|0,3:2|0:0,0:0:0:0:
216,144,51054,2,0,L|152:144,1,57.5,2|0,0:0|0:0,0:0:0:0:
344,120,51289,5,2,3:2:0:0:
496,112,51523,1,2,0:0:0:0:
192,80,51757,2,0,L|104:80,1,57.5,2|2,0:0|0:0,0:0:0:0:
200,40,51992,2,0,L|264:40,1,57.5,2|2,3:2|3:2,0:0:0:0:
48,240,52226,1,10,0:0:0:0:
42,186,52343,1,2,0:0:0:0:
72,142,52460,1,2,0:0:0:0:
125,130,52577,1,2,0:0:0:0:
336,304,52695,2,0,P|400:288|432:176,1,172.5,2|0,3:2|0:0,0:0:0:0:
168,328,53164,6,0,L|48:328,1,115,6|0,0:0|0:0,0:0:0:0:
256,264,53632,2,0,L|376:264,1,115,2|0,0:0|0:0,0:0:0:0:
72,272,54101,2,0,L|64:144,1,115,10|0,0:0|0:0,0:0:0:0:
176,160,54453,2,0,L|312:160,1,115,2|0,3:2|0:0,0:0:0:0:
400,168,54804,2,0,L|408:96,1,57.5,2|0,0:0|0:0,0:0:0:0:
208,104,55039,6,0,L|88:104,1,115,6|0,0:0|0:0,0:0:0:0:
272,272,55507,2,0,L|408:272,1,115,2|0,0:0|0:0,0:0:0:0:
392,216,55859,1,0,0:0:0:0:
208,208,55976,2,0,L|200:88,1,115,10|0,0:0|0:0,0:0:0:0:
312,152,56328,2,0,L|320:32,1,115,2|0,3:2|0:0,0:0:0:0:
208,328,56679,2,0,L|144:328,1,57.5,2|0,0:0|0:0,0:0:0:0:
352,328,56914,6,0,L|360:208,1,115,6|0,0:0|0:0,0:0:0:0:
160,216,57382,1,2,0:0:0:0:
104,207,57499,1,0,0:0:0:0:
62,170,57616,1,0,0:0:0:0:
48,115,57733,1,0,0:0:0:0:
256,112,57851,2,0,L|392:112,1,115,10|0,0:0|0:0,0:0:0:0:
488,40,58203,2,0,L|368:40,1,115,2|0,3:2|0:0,0:0:0:0:
256,40,58554,2,0,L|176:40,1,57.5,2|0,0:0|0:0,0:0:0:0:
408,200,58789,5,2,3:2:0:0:
403,143,58906,1,10,0:0:0:0:
366,100,59023,1,10,0:0:0:0:
311,87,59140,1,10,0:0:0:0:
96,224,59257,5,10,0:0:0:0:
93,166,59374,1,10,0:0:0:0:
91,109,59491,1,2,3:2:0:0:
88,51,59608,1,10,0:0:0:0:
304,296,59726,5,10,0:0:0:0:
246,296,59843,1,10,0:0:0:0:
189,296,59960,1,2,3:2:0:0:
131,296,60077,1,2,3:2:0:0:
336,216,60195,5,10,0:0:0:0:
392,216,60312,1,2,3:2:0:0:
439,190,60429,1,2,3:2:0:0:
456,137,60546,1,2,3:2:0:0:
216,128,60664,6,0,L|40:128,1,172.5,6|2,3:2|3:2,0:0:0:0:
320,80,61367,1,10,1:2:0:0:
320,252,61953,2,0,L|320:60,1,172.5,2|2,0:0|0:0,0:0:0:0:
136,88,62539,6,0,L|264:88,1,115,2|2,3:2|0:0,0:0:0:0:
312,136,62890,2,0,L|312:8,1,115,2|2,3:2|0:0,0:0:0:0:
104,240,63242,1,10,1:2:0:0:
55,216,63359,1,2,0:0:0:0:
57,162,63476,1,2,0:0:0:0:
108,143,63593,1,2,0:0:0:0:
312,256,63710,5,10,1:2:0:0:
367,248,63827,1,10,3:0:0:0:
407,207,63944,1,10,3:0:0:0:
413,151,64061,1,8,0:0:0:0:
200,104,64179,2,0,L|112:104,1,57.5,8|8,0:0|0:0,0:0:0:0:
264,64,64414,5,6,1:2:0:0:
256,192,64648,12,0,71914,0:0:0:0:
