osu file format v14

[General]
AudioFilename: bmth.mp3
AudioLeadIn: 3000
PreviewTime: 8694
Countdown: 0
SampleSet: Normal
StackLeniency: 0.8
Mode: 1
LetterboxInBreaks: 0
WidescreenStoryboard: 0

[Editor]
Bookmarks: 126922,135376
DistanceSpacing: 0.8
BeatDivisor: 4
GridSize: 32
TimelineZoom: 4.199997

[Metadata]
Title:Anthem
TitleUnicode:Anthem
Artist:Bring Me The Horizon
ArtistUnicode:Bring Me The Horizon
Creator:ikin5050
Version:Muzukashii
Source:
Tags:english IntelliTroodon Intelli DarkStoorM bmth metal metalcore deathcore british Visible Noise There is a Hell Believe me I've seen it There is a Heaven Let's keep it a Secret cut version
BeatmapID:891505
BeatmapSetID:297390

[Difficulty]
HPDrainRate:6
CircleSize:5
OverallDifficulty:4
ApproachRate:5
SliderMultiplier:1.4
SliderTickRate:1

[Events]
//Background and Video events
0,0,"tiah bg.jpg",0,0
//Break Periods
2,162877,165984
//Storyboard Layer 0 (Background)
//Storyboard Layer 1 (Fail)
//Storyboard Layer 2 (Pass)
//Storyboard Layer 3 (Foreground)
//Storyboard Layer 4 (Overlay)
//Storyboard Sound Samples

[TimingPoints]
120,272.727272727273,4,1,0,100,1,0
8710,-100,4,1,0,100,0,1
26165,-100,4,1,0,100,0,0
54529,-100,4,1,0,100,0,1
71983,-100,4,1,0,100,0,0
135392,285.714285714286,4,1,0,50,1,0
139820,-100,4,1,0,100,0,0
162820,272.727272727273,4,1,0,100,1,0
182302,-100,4,1,0,100,0,1
205365,461.538461538462,4,1,0,100,1,0
205365,-66.6666666666667,4,1,0,100,0,0
207211,400,4,1,0,100,1,0

[Colours]
Combo1 : 0,128,192
Combo2 : 255,0,0

[HitObjects]
192,256,120,5,8,0:0:0:0:
192,256,665,1,8,0:0:0:0:
192,256,1210,1,8,0:0:0:0:
192,256,1756,1,8,0:0:0:0:
192,256,2301,1,8,0:0:0:0:
192,256,2847,1,8,0:0:0:0:
192,256,3392,1,8,0:0:0:0:
192,256,3938,1,8,0:0:0:0:
192,256,4210,1,0,0:0:0:0:
192,256,4483,1,0,0:0:0:0:
192,256,4756,1,8,0:0:0:0:
192,256,5029,1,8,0:0:0:0:
192,256,5301,1,0,0:0:0:0:
192,256,5574,1,0,0:0:0:0:
192,256,5847,1,8,0:0:0:0:
192,256,6120,1,0,0:0:0:0:
192,256,6392,1,0,0:0:0:0:
192,128,6665,1,0,0:0:0:0:
192,128,6801,1,8,0:0:0:0:
192,128,6938,1,0,0:0:0:0:
192,128,7074,1,8,0:0:0:0:
192,128,7210,1,8,0:0:0:0:
192,128,7483,1,0,0:0:0:0:
192,128,7620,1,0,0:0:0:0:
192,128,7756,1,8,0:0:0:0:
192,128,7892,1,8,0:0:0:0:
192,128,8029,1,0,0:0:0:0:
192,128,8165,1,0,0:0:0:0:
192,256,8301,1,8,0:0:0:0:
192,256,8438,1,8,0:0:0:0:
320,128,8710,1,4,0:0:0:0:
192,128,8983,1,0,0:0:0:0:
192,256,9120,1,8,0:0:0:0:
192,128,9256,1,0,0:0:0:0:
192,128,9392,1,0,0:0:0:0:
192,256,9529,1,8,0:0:0:0:
192,256,9665,1,8,0:0:0:0:
192,128,9938,1,0,0:0:0:0:
192,256,10074,1,8,0:0:0:0:
192,256,10210,1,8,0:0:0:0:
192,128,10347,1,0,0:0:0:0:
192,128,10483,1,0,0:0:0:0:
192,256,10620,1,8,0:0:0:0:
192,256,10756,1,8,0:0:0:0:
192,128,10893,1,4,0:0:0:0:
192,128,11165,1,0,0:0:0:0:
192,256,11301,1,8,0:0:0:0:
192,256,11438,1,8,0:0:0:0:
192,128,11574,1,0,0:0:0:0:
192,128,11710,1,0,0:0:0:0:
192,128,11847,1,8,0:0:0:0:
192,256,12120,1,8,0:0:0:0:
192,256,12256,1,8,0:0:0:0:
192,256,12392,1,0,0:0:0:0:
192,256,12529,1,8,0:0:0:0:
192,128,12665,1,0,0:0:0:0:
192,128,12801,1,0,0:0:0:0:
192,128,12938,1,8,0:0:0:0:
320,128,13074,1,4,0:0:0:0:
192,128,13483,1,8,0:0:0:0:
188,124,13620,1,0,0:0:0:0:
192,128,13756,1,8,0:0:0:0:
192,128,13892,1,0,0:0:0:0:
192,256,14029,1,0,0:0:0:0:
192,128,14165,1,8,0:0:0:0:
192,256,14438,1,8,0:0:0:0:
206,127,14574,1,0,0:0:0:0:
192,128,14847,1,0,0:0:0:0:
192,256,14983,1,8,0:0:0:0:
192,128,15120,1,0,0:0:0:0:
320,128,15392,1,0,0:0:0:0:
192,128,15529,1,0,0:0:0:0:
192,256,15665,1,8,0:0:0:0:
192,128,15801,1,0,0:0:0:0:
192,256,15938,1,8,0:0:0:0:
192,128,16074,1,8,0:0:0:0:
192,256,16210,1,8,0:0:0:0:
192,128,16347,1,0,0:0:0:0:
192,256,16483,1,0,0:0:0:0:
192,128,16620,1,8,0:0:0:0:
192,256,16756,1,8,0:0:0:0:
192,128,17029,1,0,0:0:0:0:
192,128,17097,1,0,0:0:0:0:
192,256,17165,1,0,0:0:0:0:
192,128,17301,1,0,0:0:0:0:
320,128,17438,1,12,0:0:0:0:
192,128,17710,1,0,0:0:0:0:
192,128,17847,1,0,0:0:0:0:
192,128,17983,1,8,0:0:0:0:
192,128,18120,1,0,0:0:0:0:
192,128,18256,1,0,0:0:0:0:
192,256,18392,1,8,0:0:0:0:
203,128,18665,1,0,0:0:0:0:
192,256,18801,1,0,0:0:0:0:
192,256,18937,1,8,0:0:0:0:
192,128,19074,1,8,0:0:0:0:
192,128,19210,1,0,0:0:0:0:
192,256,19347,1,0,0:0:0:0:
192,128,19483,1,8,0:0:0:0:
320,128,19620,1,4,0:0:0:0:
192,128,19892,1,0,0:0:0:0:
192,256,20029,1,8,0:0:0:0:
192,128,20165,1,0,0:0:0:0:
192,256,20301,1,0,0:0:0:0:
192,128,20438,1,0,0:0:0:0:
192,256,20574,1,8,0:0:0:0:
192,256,20847,1,8,0:0:0:0:
192,256,20983,1,0,0:0:0:0:
192,256,21120,1,8,0:0:0:0:
192,256,21256,1,0,0:0:0:0:
192,128,21392,1,0,0:0:0:0:
192,128,21528,1,8,0:0:0:0:
192,128,21665,1,0,0:0:0:0:
320,128,21801,1,12,0:0:0:0:
192,128,22210,1,0,0:0:0:0:
192,128,22347,1,0,0:0:0:0:
192,256,22483,1,8,0:0:0:0:
192,256,22620,1,8,0:0:0:0:
192,128,22756,1,0,0:0:0:0:
192,128,22892,1,0,0:0:0:0:
192,128,23029,1,0,0:0:0:0:
192,256,23301,1,8,0:0:0:0:
192,256,23574,1,0,0:0:0:0:
192,128,23710,1,8,0:0:0:0:
192,256,23847,1,0,0:0:0:0:
192,256,24120,1,8,0:0:0:0:
192,128,24256,1,0,0:0:0:0:
192,256,24392,1,8,0:0:0:0:
192,128,24529,1,0,0:0:0:0:
192,256,24665,1,8,0:0:0:0:
192,128,24801,1,0,0:0:0:0:
192,256,24937,1,8,0:0:0:0:
192,128,25074,1,0,0:0:0:0:
192,256,25210,1,8,0:0:0:0:
192,128,25347,1,0,0:0:0:0:
192,256,25483,1,8,0:0:0:0:
192,256,25756,1,0,0:0:0:0:
192,128,25824,1,0,0:0:0:0:
192,128,25892,1,0,0:0:0:0:
192,128,26029,1,8,0:0:0:0:
320,128,26165,1,4,0:0:0:0:
192,256,26574,1,8,0:0:0:0:
192,128,26847,1,0,0:0:0:0:
192,128,26983,1,0,0:0:0:0:
192,256,27120,1,8,0:0:0:0:
320,128,27256,1,4,0:0:0:0:
192,128,27665,1,0,0:0:0:0:
192,256,27938,1,8,0:0:0:0:
192,128,28074,1,0,0:0:0:0:
192,256,28210,1,8,0:0:0:0:
320,128,28347,1,4,0:0:0:0:
192,256,28756,1,8,0:0:0:0:
192,256,29029,1,0,0:0:0:0:
192,128,29165,1,0,0:0:0:0:
192,256,29301,1,8,0:0:0:0:
320,128,29438,1,4,0:0:0:0:
192,128,29847,1,0,0:0:0:0:
192,256,30120,1,0,0:0:0:0:
192,128,30256,1,0,0:0:0:0:
192,256,30392,1,0,0:0:0:0:
320,128,30529,1,12,0:0:0:0:
192,256,30938,1,8,0:0:0:0:
192,256,31210,1,0,0:0:0:0:
192,128,31347,1,0,0:0:0:0:
192,256,31483,1,8,0:0:0:0:
192,128,31620,1,4,0:0:0:0:
192,128,32029,1,8,0:0:0:0:
192,128,32164,1,8,0:0:0:0:
192,256,32301,1,0,0:0:0:0:
192,128,32437,1,8,0:0:0:0:
192,128,32574,1,8,0:0:0:0:
320,128,32710,1,4,0:0:0:0:
192,256,33120,1,8,0:0:0:0:
192,128,33392,1,0,0:0:0:0:
192,256,33529,1,0,0:0:0:0:
192,256,33665,1,8,0:0:0:0:
320,128,33801,1,4,0:0:0:0:
192,256,34210,1,8,0:0:0:0:
192,128,34483,1,0,0:0:0:0:
192,128,34620,1,8,0:0:0:0:
192,256,34756,1,8,0:0:0:0:
320,128,34892,1,4,0:0:0:0:
320,256,35165,1,8,0:0:0:0:
320,256,35233,1,8,0:0:0:0:
192,256,35301,1,8,0:0:0:0:
192,128,35438,1,0,0:0:0:0:
192,128,35574,1,0,0:0:0:0:
192,128,35710,1,8,0:0:0:0:
192,128,35847,1,0,0:0:0:0:
320,256,35983,1,12,0:0:0:0:
192,256,36256,1,8,0:0:0:0:
320,128,36529,1,0,0:0:0:0:
192,128,36665,1,0,0:0:0:0:
192,256,36801,1,8,0:0:0:0:
192,128,36938,1,8,0:0:0:0:
320,128,37074,1,4,0:0:0:0:
192,256,37483,1,8,0:0:0:0:
192,256,37756,1,8,0:0:0:0:
192,128,37892,1,8,0:0:0:0:
160,128,38029,1,8,0:0:0:0:
160,128,38165,1,4,0:0:0:0:
192,256,38574,1,8,0:0:0:0:
192,256,38847,1,0,0:0:0:0:
192,256,38983,1,8,0:0:0:0:
192,128,39120,1,0,0:0:0:0:
320,128,39256,1,12,0:0:0:0:
192,256,39665,1,8,0:0:0:0:
192,256,39938,1,0,0:0:0:0:
224,224,40074,1,0,0:0:0:0:
192,128,40210,1,8,0:0:0:0:
320,256,40347,1,4,0:0:0:0:
192,256,40756,1,8,0:0:0:0:
192,128,41029,1,0,0:0:0:0:
192,256,41165,1,8,0:0:0:0:
192,128,41301,1,0,0:0:0:0:
320,128,41438,1,12,0:0:0:0:
192,256,41847,1,8,0:0:0:0:
192,128,42120,1,0,0:0:0:0:
192,128,42256,1,0,0:0:0:0:
192,256,42392,1,8,0:0:0:0:
320,128,42529,1,4,0:0:0:0:
192,256,42938,1,8,0:0:0:0:
192,128,43210,1,8,0:0:0:0:
192,256,43347,1,0,0:0:0:0:
192,128,43483,1,8,0:0:0:0:
320,128,43620,1,4,0:0:0:0:
192,256,44029,1,8,0:0:0:0:
192,256,44301,1,8,0:0:0:0:
192,128,44438,1,0,0:0:0:0:
192,128,44574,1,0,0:0:0:0:
192,256,44710,1,12,0:0:0:0:
192,128,44983,1,0,0:0:0:0:
192,256,45120,1,8,0:0:0:0:
192,128,45256,1,8,0:0:0:0:
192,128,45392,1,0,0:0:0:0:
192,128,45529,1,8,0:0:0:0:
192,256,45665,1,8,0:0:0:0:
320,128,45801,1,4,0:0:0:0:
192,256,46210,1,8,0:0:0:0:
192,128,46347,1,0,0:0:0:0:
192,256,46483,1,8,0:0:0:0:
192,256,46620,1,8,0:0:0:0:
192,128,46756,1,0,0:0:0:0:
192,256,46892,1,0,0:0:0:0:
320,256,47029,1,8,0:0:0:0:
320,256,47438,1,12,0:0:0:0:
320,256,47710,1,12,0:0:0:0:
320,128,47983,1,4,0:0:0:0:
192,128,48256,1,0,0:0:0:0:
320,256,48392,1,8,0:0:0:0:
192,128,48529,1,0,0:0:0:0:
320,256,48665,1,8,0:0:0:0:
192,256,48938,1,8,0:0:0:0:
192,128,49074,1,0,0:0:0:0:
192,256,49347,1,8,0:0:0:0:
192,128,49483,1,0,0:0:0:0:
192,256,49620,1,8,0:0:0:0:
192,128,49756,1,0,0:0:0:0:
192,128,49892,1,0,0:0:0:0:
192,256,50029,1,8,0:0:0:0:
192,128,50165,1,0,0:0:0:0:
192,256,50574,1,8,0:0:0:0:
192,256,50710,1,8,0:0:0:0:
192,128,50847,1,0,0:0:0:0:
192,128,50983,1,0,0:0:0:0:
192,256,51120,1,8,0:0:0:0:
192,256,51256,1,0,0:0:0:0:
320,133,51392,1,0,0:0:0:0:
320,256,51529,1,12,0:0:0:0:
320,256,51801,1,12,0:0:0:0:
320,128,52074,1,4,0:0:0:0:
320,128,52347,1,4,0:0:0:0:
192,128,52620,1,0,0:0:0:0:
320,256,52756,1,8,0:0:0:0:
192,128,53029,1,0,0:0:0:0:
192,128,53165,1,0,0:0:0:0:
192,256,53301,1,8,0:0:0:0:
192,256,53438,1,8,0:0:0:0:
256,192,53574,12,0,54392,0:0:0:0:
192,128,54529,5,4,0:0:0:0:
192,128,54801,1,0,0:0:0:0:
192,256,54938,1,8,0:0:0:0:
192,256,55210,1,8,0:0:0:0:
192,128,55347,1,0,0:0:0:0:
192,128,55483,1,0,0:0:0:0:
192,128,55756,1,8,0:0:0:0:
192,256,56029,1,8,0:0:0:0:
192,128,56165,1,0,0:0:0:0:
192,128,56301,1,8,0:0:0:0:
192,128,56438,1,8,0:0:0:0:
192,128,56574,1,0,0:0:0:0:
192,128,56710,1,8,0:0:0:0:
192,256,57120,1,8,0:0:0:0:
192,256,57392,1,0,0:0:0:0:
192,128,57529,1,0,0:0:0:0:
192,128,57801,1,0,0:0:0:0:
192,128,57938,1,0,0:0:0:0:
192,256,58074,1,8,0:0:0:0:
192,256,58210,1,8,0:0:0:0:
192,256,58347,1,0,0:0:0:0:
192,128,58483,1,8,0:0:0:0:
192,256,58756,1,0,0:0:0:0:
192,128,58892,1,8,0:0:0:0:
192,128,59301,1,8,0:0:0:0:
192,128,59438,1,0,0:0:0:0:
192,256,59574,1,8,0:0:0:0:
192,128,59847,1,0,0:0:0:0:
192,256,59983,1,8,0:0:0:0:
192,256,60120,1,8,0:0:0:0:
192,128,60392,1,8,0:0:0:0:
192,128,60665,1,0,0:0:0:0:
192,256,60801,1,8,0:0:0:0:
192,128,60938,1,0,0:0:0:0:
192,128,61210,1,0,0:0:0:0:
192,128,61279,1,0,0:0:0:0:
192,128,61347,1,0,0:0:0:0:
192,256,61483,1,8,0:0:0:0:
192,128,61620,1,0,0:0:0:0:
192,256,61756,1,8,0:0:0:0:
196,141,61824,1,8,0:0:0:0:
196,141,61892,1,8,0:0:0:0:
192,128,62029,1,0,0:0:0:0:
192,256,62301,1,8,0:0:0:0:
192,256,62574,1,8,0:0:0:0:
192,128,62710,1,8,0:0:0:0:
192,256,62847,1,8,0:0:0:0:
192,256,62983,1,0,0:0:0:0:
320,128,63256,1,4,0:0:0:0:
192,256,63666,1,8,0:0:0:0:
192,128,63802,1,0,0:0:0:0:
192,256,63938,1,8,0:0:0:0:
192,128,64211,1,0,0:0:0:0:
192,128,64483,1,0,0:0:0:0:
192,128,64620,1,8,0:0:0:0:
192,256,64757,1,0,0:0:0:0:
192,128,64893,1,0,0:0:0:0:
192,128,65166,1,0,0:0:0:0:
192,128,65301,1,0,0:0:0:0:
192,128,65438,1,8,0:0:0:0:
192,256,65848,1,8,0:0:0:0:
192,256,66120,1,0,0:0:0:0:
192,128,66257,1,0,0:0:0:0:
192,128,66529,1,0,0:0:0:0:
192,128,66666,1,0,0:0:0:0:
192,256,66802,1,8,0:0:0:0:
192,256,66938,1,8,0:0:0:0:
192,256,67075,1,8,0:0:0:0:
192,128,67211,1,0,0:0:0:0:
192,128,67620,1,0,0:0:0:0:
192,128,68029,1,8,0:0:0:0:
192,128,68165,1,0,0:0:0:0:
192,256,68301,1,0,0:0:0:0:
192,256,68437,1,8,0:0:0:0:
192,256,68710,1,8,0:0:0:0:
192,256,68847,1,8,0:0:0:0:
192,128,69120,1,0,0:0:0:0:
192,128,69392,1,0,0:0:0:0:
192,128,69528,1,0,0:0:0:0:
192,128,69665,1,0,0:0:0:0:
192,256,69938,1,8,0:0:0:0:
196,119,70074,1,0,0:0:0:0:
192,256,70210,1,8,0:0:0:0:
192,256,70483,1,0,0:0:0:0:
192,128,70620,1,0,0:0:0:0:
192,256,70756,1,8,0:0:0:0:
200,122,70824,1,8,0:0:0:0:
192,128,70892,1,8,0:0:0:0:
192,256,71029,1,8,0:0:0:0:
192,128,71165,1,0,0:0:0:0:
192,128,71438,1,8,0:0:0:0:
190,126,71506,1,8,0:0:0:0:
190,126,71574,1,8,0:0:0:0:
192,128,71710,1,0,0:0:0:0:
192,128,71847,1,8,0:0:0:0:
320,256,71983,1,4,0:0:0:0:
192,128,72256,1,0,0:0:0:0:
192,256,72392,1,8,0:0:0:0:
192,256,72665,1,0,0:0:0:0:
192,128,72801,1,8,0:0:0:0:
192,256,72938,1,8,0:0:0:0:
192,128,73074,1,4,0:0:0:0:
192,256,73483,1,8,0:0:0:0:
192,256,73756,1,8,0:0:0:0:
192,256,73892,1,0,0:0:0:0:
192,256,74029,1,8,0:0:0:0:
192,128,74165,1,4,0:0:0:0:
192,256,74574,1,8,0:0:0:0:
192,256,74847,1,8,0:0:0:0:
192,128,74983,1,0,0:0:0:0:
192,256,75120,1,8,0:0:0:0:
192,128,75256,1,4,0:0:0:0:
192,256,75665,1,8,0:0:0:0:
192,128,75938,1,0,0:0:0:0:
192,128,76074,1,0,0:0:0:0:
192,256,76210,1,8,0:0:0:0:
192,128,76347,1,4,0:0:0:0:
192,256,76756,1,8,0:0:0:0:
192,128,77029,1,0,0:0:0:0:
192,256,77165,1,8,0:0:0:0:
192,256,77301,1,8,0:0:0:0:
192,128,77438,1,4,0:0:0:0:
192,256,77847,1,8,0:0:0:0:
192,128,78120,1,8,0:0:0:0:
192,128,78256,1,8,0:0:0:0:
192,256,78392,1,8,0:0:0:0:
192,128,78529,1,4,0:0:0:0:
192,256,78938,1,8,0:0:0:0:
192,256,79210,1,0,0:0:0:0:
192,128,79347,1,8,0:0:0:0:
192,256,79483,1,0,0:0:0:0:
192,128,79620,1,8,0:0:0:0:
192,128,79756,1,8,0:0:0:0:
192,256,80029,1,0,0:0:0:0:
192,128,80301,1,0,0:0:0:0:
192,256,80438,1,8,0:0:0:0:
192,256,80574,1,8,0:0:0:0:
320,128,80710,1,4,0:0:0:0:
192,256,81120,1,8,0:0:0:0:
192,128,81392,1,0,0:0:0:0:
192,128,81529,1,0,0:0:0:0:
192,256,81665,1,8,0:0:0:0:
320,128,81801,1,4,0:0:0:0:
325,125,82074,1,0,0:0:0:0:
192,256,82210,1,12,0:0:0:0:
187,146,82620,1,0,0:0:0:0:
192,256,82756,1,8,0:0:0:0:
192,128,82892,1,0,0:0:0:0:
192,256,83165,1,8,0:0:0:0:
192,256,83301,1,8,0:0:0:0:
192,128,83438,1,0,0:0:0:0:
192,128,83710,1,8,0:0:0:0:
195,141,83847,1,0,0:0:0:0:
192,256,83983,1,8,0:0:0:0:
192,256,84120,1,8,0:0:0:0:
192,128,84256,1,0,0:0:0:0:
192,128,84324,1,0,0:0:0:0:
192,128,84392,1,0,0:0:0:0:
192,128,84529,1,0,0:0:0:0:
192,128,84801,1,0,0:0:0:0:
181,125,84870,1,0,0:0:0:0:
192,256,84938,1,0,0:0:0:0:
192,256,85074,1,12,0:0:0:0:
192,256,85483,1,8,0:0:0:0:
192,256,85756,1,8,0:0:0:0:
192,256,85892,1,0,0:0:0:0:
192,128,86029,1,8,0:0:0:0:
192,128,86165,1,4,0:0:0:0:
320,128,86438,1,0,0:0:0:0:
192,128,86574,1,0,0:0:0:0:
192,128,86983,1,0,0:0:0:0:
192,128,87120,1,8,0:0:0:0:
192,128,87256,1,0,0:0:0:0:
192,128,87529,1,0,0:0:0:0:
192,256,87665,1,8,0:0:0:0:
192,128,87801,1,0,0:0:0:0:
192,256,87938,1,8,0:0:0:0:
192,128,88074,1,0,0:0:0:0:
192,256,88210,1,0,0:0:0:0:
192,128,88347,1,0,0:0:0:0:
189,106,88483,1,8,0:0:0:0:
189,106,88551,1,8,0:0:0:0:
192,256,88620,1,8,0:0:0:0:
192,128,88892,1,0,0:0:0:0:
192,128,88960,1,0,0:0:0:0:
192,128,89029,1,0,0:0:0:0:
192,128,89165,1,0,0:0:0:0:
192,256,89301,1,8,0:0:0:0:
192,128,89438,1,0,0:0:0:0:
192,256,89574,1,8,0:0:0:0:
192,141,89847,1,0,0:0:0:0:
192,141,90120,1,0,0:0:0:0:
192,141,90392,1,0,0:0:0:0:
192,256,90665,1,8,0:0:0:0:
192,141,90938,1,0,0:0:0:0:
192,141,91210,1,0,0:0:0:0:
192,141,91483,1,0,0:0:0:0:
192,256,91756,1,8,0:0:0:0:
192,141,92029,1,0,0:0:0:0:
192,141,92301,1,0,0:0:0:0:
192,141,92574,1,0,0:0:0:0:
192,256,92847,1,8,0:0:0:0:
192,256,93120,1,8,0:0:0:0:
192,256,93392,1,8,0:0:0:0:
192,256,93529,1,8,0:0:0:0:
192,256,93665,1,8,0:0:0:0:
256,192,93938,12,0,97892,0:0:0:0:
192,128,98301,5,4,0:0:0:0:
192,256,98574,1,8,0:0:0:0:
192,256,98710,1,8,0:0:0:0:
192,256,98983,1,8,0:0:0:0:
320,256,99392,1,12,0:0:0:0:
320,128,99801,1,4,0:0:0:0:
320,256,100074,1,12,0:0:0:0:
320,128,100347,1,0,0:0:0:0:
192,128,100620,1,0,0:0:0:0:
192,256,100756,1,8,0:0:0:0:
192,128,100892,1,0,0:0:0:0:
192,128,101029,1,0,0:0:0:0:
192,256,101301,1,8,0:0:0:0:
192,128,101438,1,0,0:0:0:0:
192,256,101574,1,8,0:0:0:0:
192,128,101710,1,0,0:0:0:0:
192,128,101983,1,0,0:0:0:0:
192,256,102120,1,8,0:0:0:0:
192,256,102256,1,8,0:0:0:0:
192,256,102392,1,8,0:0:0:0:
192,128,102665,1,0,0:0:0:0:
192,256,102801,1,8,0:0:0:0:
192,256,102938,1,8,0:0:0:0:
192,128,103210,1,0,0:0:0:0:
192,128,103347,1,0,0:0:0:0:
192,128,103620,1,0,0:0:0:0:
320,256,103756,1,12,0:0:0:0:
192,128,104165,1,4,0:0:0:0:
192,256,104438,1,12,0:0:0:0:
320,128,104710,1,4,0:0:0:0:
192,128,104983,1,0,0:0:0:0:
192,128,105120,1,0,0:0:0:0:
192,128,105256,1,8,0:0:0:0:
192,128,105392,1,0,0:0:0:0:
192,128,105529,1,0,0:0:0:0:
192,256,105665,1,8,0:0:0:0:
192,128,105801,1,0,0:0:0:0:
192,128,105938,1,0,0:0:0:0:
192,128,106074,1,8,0:0:0:0:
192,256,106210,1,8,0:0:0:0:
192,256,106483,1,8,0:0:0:0:
192,128,106620,1,8,0:0:0:0:
192,256,106756,1,0,0:0:0:0:
192,128,106892,1,8,0:0:0:0:
192,256,107029,1,0,0:0:0:0:
192,256,107301,1,8,0:0:0:0:
192,128,107438,1,0,0:0:0:0:
192,256,107574,1,8,0:0:0:0:
192,128,107710,1,0,0:0:0:0:
192,256,107847,1,8,0:0:0:0:
192,256,108120,1,8,0:0:0:0:
192,256,108256,1,8,0:0:0:0:
192,256,108392,1,8,0:0:0:0:
192,256,108529,1,8,0:0:0:0:
192,256,108665,1,8,0:0:0:0:
192,256,108801,1,8,0:0:0:0:
192,256,108938,1,8,0:0:0:0:
320,128,109074,1,4,0:0:0:0:
217,201,109347,1,0,0:0:0:0:
256,192,109483,1,8,0:0:0:0:
256,192,109620,1,0,0:0:0:0:
256,192,109756,1,8,0:0:0:0:
256,192,109892,1,8,0:0:0:0:
256,192,110029,1,0,0:0:0:0:
256,192,110301,1,0,0:0:0:0:
256,192,110438,1,8,0:0:0:0:
256,192,110574,1,0,0:0:0:0:
256,192,110710,1,8,0:0:0:0:
256,192,110847,1,0,0:0:0:0:
256,192,110983,1,0,0:0:0:0:
256,192,111120,1,12,0:0:0:0:
214,192,111392,1,0,0:0:0:0:
214,192,111529,1,8,0:0:0:0:
214,192,111665,1,0,0:0:0:0:
214,192,111801,1,0,0:0:0:0:
103,187,111938,1,8,0:0:0:0:
256,192,112074,1,0,0:0:0:0:
256,192,112210,1,8,0:0:0:0:
256,192,112483,1,8,0:0:0:0:
256,192,112620,1,0,0:0:0:0:
256,192,112756,1,8,0:0:0:0:
256,192,112892,1,0,0:0:0:0:
256,192,113029,1,8,0:0:0:0:
256,192,113165,1,8,0:0:0:0:
256,192,113301,1,0,0:0:0:0:
265,191,113438,1,12,0:0:0:0:
256,192,113847,1,0,0:0:0:0:
256,192,113983,1,8,0:0:0:0:
256,192,114120,1,0,0:0:0:0:
256,192,114256,1,0,0:0:0:0:
256,192,114392,1,0,0:0:0:0:
256,192,114665,1,0,0:0:0:0:
256,192,114801,1,0,0:0:0:0:
256,192,114938,1,0,0:0:0:0:
256,192,115074,1,8,0:0:0:0:
256,192,115210,1,0,0:0:0:0:
256,192,115347,1,0,0:0:0:0:
256,192,115483,1,8,0:0:0:0:
256,192,115756,1,0,0:0:0:0:
256,192,116029,1,8,0:0:0:0:
256,192,116165,1,0,0:0:0:0:
256,192,116301,1,8,0:0:0:0:
256,192,116438,1,8,0:0:0:0:
256,192,116574,1,8,0:0:0:0:
256,192,116710,1,0,0:0:0:0:
256,192,116847,1,0,0:0:0:0:
192,128,116983,1,8,0:0:0:0:
192,128,117051,1,8,0:0:0:0:
192,128,117120,1,0,0:0:0:0:
256,192,117392,1,12,0:0:0:0:
320,128,117801,1,4,0:0:0:0:
192,128,118074,1,0,0:0:0:0:
320,128,118210,1,0,0:0:0:0:
192,256,118483,1,8,0:0:0:0:
192,128,118620,1,0,0:0:0:0:
192,128,118892,1,0,0:0:0:0:
192,128,119165,1,0,0:0:0:0:
192,128,119438,1,0,0:0:0:0:
192,256,119574,1,8,0:0:0:0:
192,128,119710,1,0,0:0:0:0:
192,256,120120,1,8,0:0:0:0:
192,256,120665,1,8,0:0:0:0:
192,256,121210,1,8,0:0:0:0:
256,192,121347,1,8,0:0:0:0:
192,128,121483,1,0,0:0:0:0:
256,192,121620,1,0,0:0:0:0:
192,256,121756,1,8,0:0:0:0:
192,128,121892,1,8,0:0:0:0:
192,256,122029,1,8,0:0:0:0:
192,128,122165,1,0,0:0:0:0:
192,128,122574,1,0,0:0:0:0:
192,128,122847,1,0,0:0:0:0:
192,256,123256,1,8,0:0:0:0:
192,128,123529,1,0,0:0:0:0:
192,128,123665,1,0,0:0:0:0:
192,256,123938,1,8,0:0:0:0:
192,128,124210,1,0,0:0:0:0:
320,256,124483,1,12,0:0:0:0:
320,128,124892,1,4,0:0:0:0:
320,256,125301,1,12,0:0:0:0:
320,128,125710,1,4,0:0:0:0:
192,256,126120,1,8,0:0:0:0:
256,192,126256,1,8,0:0:0:0:
192,128,126392,1,0,0:0:0:0:
192,256,126529,1,0,0:0:0:0:
320,128,127210,1,4,0:0:0:0:
192,128,127620,1,0,0:0:0:0:
192,128,128029,1,8,0:0:0:0:
192,128,128438,1,0,0:0:0:0:
320,256,128847,1,12,0:0:0:0:
320,128,129392,1,4,0:0:0:0:
192,256,129938,1,8,0:0:0:0:
192,128,130074,1,8,0:0:0:0:
192,128,130210,1,0,0:0:0:0:
192,128,130347,1,0,0:0:0:0:
192,256,130483,1,8,0:0:0:0:
192,256,130620,1,8,0:0:0:0:
192,256,130756,1,8,0:0:0:0:
192,128,130892,1,0,0:0:0:0:
192,128,131301,1,8,0:0:0:0:
192,256,131574,1,8,0:0:0:0:
192,128,131710,1,0,0:0:0:0:
192,256,131983,1,8,0:0:0:0:
192,128,132392,1,0,0:0:0:0:
192,256,132665,1,8,0:0:0:0:
192,128,132801,1,0,0:0:0:0:
192,128,132938,1,0,0:0:0:0:
192,256,133074,1,8,0:0:0:0:
192,256,133210,1,8,0:0:0:0:
190,122,133620,1,0,0:0:0:0:
192,128,133756,1,8,0:0:0:0:
183,127,134029,1,0,0:0:0:0:
192,256,134438,1,0,0:0:0:0:
192,256,134847,1,8,0:0:0:0:
192,128,134983,1,8,0:0:0:0:
192,128,135120,1,0,0:0:0:0:
192,128,135392,1,12,0:0:0:0:
193,123,135677,1,0,0:0:0:0:
192,128,135963,1,0,0:0:0:0:
189,138,136249,1,8,0:0:0:0:
189,138,136392,1,0,0:0:0:0:
189,138,136820,1,0,0:0:0:0:
189,138,137106,1,0,0:0:0:0:
189,138,137392,1,8,0:0:0:0:
189,138,137534,1,0,0:0:0:0:
189,138,137963,1,0,0:0:0:0:
189,138,138249,1,0,0:0:0:0:
189,138,138534,1,8,0:0:0:0:
189,138,138677,1,0,0:0:0:0:
189,138,139106,1,0,0:0:0:0:
189,138,139392,1,0,0:0:0:0:
202,118,139677,1,8,0:0:0:0:
320,128,139820,1,4,0:0:0:0:
192,256,140106,1,8,0:0:0:0:
192,128,140249,1,0,0:0:0:0:
320,128,140534,1,4,0:0:0:0:
192,256,141677,1,8,0:0:0:0:
256,192,141820,1,8,0:0:0:0:
192,256,141963,1,0,0:0:0:0:
320,128,142106,1,4,0:0:0:0:
192,128,142392,1,8,0:0:0:0:
192,128,142534,1,0,0:0:0:0:
320,256,142820,1,12,0:0:0:0:
192,128,143106,1,0,0:0:0:0:
192,128,143392,1,0,0:0:0:0:
192,128,143534,1,0,0:0:0:0:
192,256,143677,1,8,0:0:0:0:
192,256,143820,1,8,0:0:0:0:
192,128,143963,1,0,0:0:0:0:
192,256,144249,1,8,0:0:0:0:
320,128,144392,1,0,0:0:0:0:
192,128,144820,1,0,0:0:0:0:
192,256,145106,1,8,0:0:0:0:
192,128,145392,1,0,0:0:0:0:
192,128,145963,1,0,0:0:0:0:
192,128,146106,1,0,0:0:0:0:
192,256,146249,1,8,0:0:0:0:
192,128,146392,1,0,0:0:0:0:
192,128,146677,1,8,0:0:0:0:
192,128,147106,1,0,0:0:0:0:
192,128,147249,1,8,0:0:0:0:
192,256,147392,1,8,0:0:0:0:
192,128,147534,1,0,0:0:0:0:
192,128,147963,1,0,0:0:0:0:
192,256,148106,1,8,0:0:0:0:
192,128,148392,1,0,0:0:0:0:
192,256,148534,1,8,0:0:0:0:
192,128,148677,1,0,0:0:0:0:
192,256,148820,1,8,0:0:0:0:
320,128,148963,1,0,0:0:0:0:
192,128,149392,1,0,0:0:0:0:
192,256,149677,1,8,0:0:0:0:
192,256,149963,1,8,0:0:0:0:
220,150,150249,1,0,0:0:0:0:
192,128,150392,1,0,0:0:0:0:
192,128,150534,1,0,0:0:0:0:
192,256,150820,1,8,0:0:0:0:
192,128,150963,1,8,0:0:0:0:
192,256,151106,1,8,0:0:0:0:
192,128,151392,1,0,0:0:0:0:
192,128,151677,1,0,0:0:0:0:
192,256,151963,1,8,0:0:0:0:
192,128,152106,1,0,0:0:0:0:
192,128,152249,1,0,0:0:0:0:
192,256,152534,1,8,0:0:0:0:
192,128,152677,1,0,0:0:0:0:
192,256,152820,1,8,0:0:0:0:
192,128,152963,1,0,0:0:0:0:
192,128,153106,1,0,0:0:0:0:
192,128,153534,1,4,0:0:0:0:
192,128,153820,1,0,0:0:0:0:
192,128,153963,1,0,0:0:0:0:
192,256,154249,1,8,0:0:0:0:
192,128,154534,1,0,0:0:0:0:
192,128,154820,1,0,0:0:0:0:
192,128,155106,1,0,0:0:0:0:
192,256,155392,1,8,0:0:0:0:
192,256,155677,1,8,0:0:0:0:
192,128,155820,1,0,0:0:0:0:
192,128,156106,1,0,0:0:0:0:
192,128,156249,1,8,0:0:0:0:
192,128,156534,1,8,0:0:0:0:
192,128,156677,1,0,0:0:0:0:
192,128,157106,1,0,0:0:0:0:
192,128,157249,1,0,0:0:0:0:
192,256,157392,1,8,0:0:0:0:
192,256,157677,1,8,0:0:0:0:
192,128,157820,1,0,0:0:0:0:
192,256,157963,1,8,0:0:0:0:
320,128,158106,1,0,0:0:0:0:
192,128,158534,1,0,0:0:0:0:
320,128,158820,1,8,0:0:0:0:
192,128,159106,1,0,0:0:0:0:
192,128,159392,1,0,0:0:0:0:
192,128,159677,1,0,0:0:0:0:
192,128,159820,1,0,0:0:0:0:
192,256,159963,1,8,0:0:0:0:
192,256,160249,1,8,0:0:0:0:
320,128,160534,1,0,0:0:0:0:
192,128,160820,1,0,0:0:0:0:
192,256,161106,1,8,0:0:0:0:
192,128,161249,1,0,0:0:0:0:
192,128,161392,1,0,0:0:0:0:
192,256,161534,1,8,0:0:0:0:
192,256,161677,1,8,0:0:0:0:
192,256,161820,1,0,0:0:0:0:
192,128,162106,1,0,0:0:0:0:
192,128,162392,1,8,0:0:0:0:
192,256,162534,1,8,0:0:0:0:
320,128,162677,1,4,0:0:0:0:
256,192,167184,5,0,0:0:0:0:
256,192,167457,1,8,0:0:0:0:
256,192,167593,1,4,0:0:0:0:
192,256,171548,5,8,0:0:0:0:
192,256,172093,1,8,0:0:0:0:
192,256,172639,1,8,0:0:0:0:
192,256,173184,1,8,0:0:0:0:
192,256,173457,1,0,0:0:0:0:
192,256,173730,1,8,0:0:0:0:
192,256,174275,1,8,0:0:0:0:
192,256,174821,1,8,0:0:0:0:
192,256,175366,1,8,0:0:0:0:
192,256,175775,1,0,0:0:0:0:
192,256,175843,1,0,0:0:0:0:
192,256,175911,1,0,0:0:0:0:
192,256,176184,1,8,0:0:0:0:
192,128,176457,1,0,0:0:0:0:
192,256,176592,1,0,0:0:0:0:
192,128,176728,1,8,0:0:0:0:
192,128,177001,1,8,0:0:0:0:
192,256,177137,1,0,0:0:0:0:
189,136,177273,1,0,0:0:0:0:
192,128,177409,1,0,0:0:0:0:
192,128,177546,1,8,0:0:0:0:
192,256,177819,1,8,0:0:0:0:
192,128,177956,1,0,0:0:0:0:
182,123,178091,1,8,0:0:0:0:
192,128,178365,1,0,0:0:0:0:
192,128,178501,1,0,0:0:0:0:
192,128,178637,1,0,0:0:0:0:
192,256,178774,1,8,0:0:0:0:
192,128,179047,1,8,0:0:0:0:
192,128,179183,1,8,0:0:0:0:
192,128,179319,1,0,0:0:0:0:
192,128,179456,1,0,0:0:0:0:
192,128,179592,1,0,0:0:0:0:
192,256,179728,1,8,0:0:0:0:
192,256,179865,1,8,0:0:0:0:
192,128,182320,5,4,0:0:0:0:
192,128,182592,1,0,0:0:0:0:
192,256,182729,1,8,0:0:0:0:
192,256,183001,1,8,0:0:0:0:
192,128,183138,1,0,0:0:0:0:
192,128,183274,1,0,0:0:0:0:
192,128,183547,1,8,0:0:0:0:
192,256,183820,1,8,0:0:0:0:
192,128,183956,1,0,0:0:0:0:
192,128,184092,1,8,0:0:0:0:
192,128,184229,1,8,0:0:0:0:
192,128,184365,1,0,0:0:0:0:
192,128,184501,1,8,0:0:0:0:
192,256,184911,1,8,0:0:0:0:
192,256,185183,1,0,0:0:0:0:
192,128,185320,1,0,0:0:0:0:
192,128,185592,1,0,0:0:0:0:
192,128,185729,1,0,0:0:0:0:
192,256,185865,1,8,0:0:0:0:
192,256,186001,1,8,0:0:0:0:
192,256,186138,1,0,0:0:0:0:
192,128,186274,1,8,0:0:0:0:
192,256,186547,1,0,0:0:0:0:
192,128,186683,1,8,0:0:0:0:
192,128,187092,1,8,0:0:0:0:
192,128,187229,1,0,0:0:0:0:
192,256,187365,1,8,0:0:0:0:
192,128,187638,1,0,0:0:0:0:
192,256,187774,1,8,0:0:0:0:
192,256,187911,1,8,0:0:0:0:
192,128,188183,1,8,0:0:0:0:
192,128,188456,1,0,0:0:0:0:
192,256,188592,1,8,0:0:0:0:
192,128,188729,1,0,0:0:0:0:
192,128,189001,1,0,0:0:0:0:
192,128,189070,1,0,0:0:0:0:
192,128,189138,1,0,0:0:0:0:
192,256,189274,1,8,0:0:0:0:
192,128,189411,1,0,0:0:0:0:
192,256,189547,1,8,0:0:0:0:
196,141,189615,1,8,0:0:0:0:
196,141,189683,1,8,0:0:0:0:
192,128,189820,1,0,0:0:0:0:
192,256,190092,1,8,0:0:0:0:
192,256,190365,1,8,0:0:0:0:
192,128,190501,1,8,0:0:0:0:
192,256,190638,1,8,0:0:0:0:
192,256,190774,1,0,0:0:0:0:
320,128,191047,1,4,0:0:0:0:
192,256,191457,1,8,0:0:0:0:
192,128,191593,1,0,0:0:0:0:
192,256,191729,1,8,0:0:0:0:
192,128,192002,1,0,0:0:0:0:
192,128,192274,1,0,0:0:0:0:
192,128,192411,1,8,0:0:0:0:
192,256,192548,1,0,0:0:0:0:
192,128,192684,1,0,0:0:0:0:
192,128,192957,1,0,0:0:0:0:
192,128,193092,1,0,0:0:0:0:
192,128,193229,1,8,0:0:0:0:
192,256,193639,1,8,0:0:0:0:
192,256,193911,1,0,0:0:0:0:
192,128,194048,1,0,0:0:0:0:
192,128,194320,1,0,0:0:0:0:
192,128,194457,1,0,0:0:0:0:
192,256,194593,1,8,0:0:0:0:
192,256,194729,1,8,0:0:0:0:
192,256,194866,1,8,0:0:0:0:
192,128,195002,1,0,0:0:0:0:
192,128,195411,1,0,0:0:0:0:
192,128,195820,1,8,0:0:0:0:
192,128,195956,1,0,0:0:0:0:
192,256,196092,1,0,0:0:0:0:
192,256,196228,1,8,0:0:0:0:
192,256,196501,1,8,0:0:0:0:
192,256,196638,1,8,0:0:0:0:
192,128,196911,1,0,0:0:0:0:
192,128,197183,1,0,0:0:0:0:
192,128,197319,1,0,0:0:0:0:
192,128,197456,1,0,0:0:0:0:
192,256,197729,1,8,0:0:0:0:
196,119,197865,1,0,0:0:0:0:
192,256,198001,1,8,0:0:0:0:
192,256,198274,1,0,0:0:0:0:
192,128,198411,1,0,0:0:0:0:
192,256,198547,1,8,0:0:0:0:
192,128,198683,1,8,0:0:0:0:
192,256,198820,1,8,0:0:0:0:
192,128,198956,1,0,0:0:0:0:
192,128,199229,1,8,0:0:0:0:
190,126,199365,1,8,0:0:0:0:
192,128,199501,1,0,0:0:0:0:
192,128,199638,1,8,0:0:0:0:
320,256,199774,1,4,0:0:0:0:
192,256,199910,1,8,0:0:0:0:
196,119,200046,1,0,0:0:0:0:
192,256,200182,1,8,0:0:0:0:
192,256,200455,1,0,0:0:0:0:
192,128,200592,1,0,0:0:0:0:
192,256,200728,1,8,0:0:0:0:
200,122,200796,1,8,0:0:0:0:
192,128,200864,1,8,0:0:0:0:
192,256,201001,1,8,0:0:0:0:
192,128,201137,1,0,0:0:0:0:
192,128,201410,1,8,0:0:0:0:
190,126,201478,1,8,0:0:0:0:
190,126,201546,1,8,0:0:0:0:
192,128,201682,1,0,0:0:0:0:
192,128,201819,1,8,0:0:0:0:
323,142,201956,1,0,0:0:0:0:
328,128,202229,1,0,0:0:0:0:
328,134,202297,1,0,0:0:0:0:
328,132,202365,1,0,0:0:0:0:
323,142,202501,1,8,0:0:0:0:
323,142,202638,1,8,0:0:0:0:
323,142,202706,1,8,0:0:0:0:
323,142,202774,1,8,0:0:0:0:
323,142,202910,1,0,0:0:0:0:
323,142,203047,1,8,0:0:0:0:
323,142,203183,1,0,0:0:0:0:
192,128,203321,1,0,0:0:0:0:
192,256,203457,1,8,0:0:0:0:
192,128,203593,1,8,0:0:0:0:
192,128,203730,1,0,0:0:0:0:
192,128,203798,1,0,0:0:0:0:
192,128,203866,1,0,0:0:0:0:
192,128,204002,1,0,0:0:0:0:
192,128,204139,1,0,0:0:0:0:
192,128,204274,1,4,0:0:0:0:
192,256,204411,1,8,0:0:0:0:
192,256,204548,1,8,0:0:0:0:
192,128,204684,1,4,0:0:0:0:
192,256,204821,1,8,0:0:0:0:
192,256,204957,1,8,0:0:0:0:
192,128,205093,1,4,0:0:0:0:
320,256,205365,1,4,0:0:0:0:
320,128,206288,1,4,0:0:0:0:
192,128,207211,1,0,0:0:0:0:
192,128,207411,1,0,0:0:0:0:
192,128,207611,1,8,0:0:0:0:
192,128,207811,1,8,0:0:0:0:
192,256,208011,1,0,0:0:0:0:
192,128,208211,1,0,0:0:0:0:
192,128,208411,1,0,0:0:0:0:
192,128,208511,1,0,0:0:0:0:
192,128,208611,1,0,0:0:0:0:
192,128,208811,1,8,0:0:0:0:
192,128,208911,1,8,0:0:0:0:
192,128,209011,1,8,0:0:0:0:
192,256,209211,1,0,0:0:0:0:
192,256,209611,1,8,0:0:0:0:
192,128,210011,1,0,0:0:0:0:
192,128,210111,1,0,0:0:0:0:
192,128,210211,1,0,0:0:0:0:
192,128,210411,1,0,0:0:0:0:
192,128,210511,1,0,0:0:0:0:
192,128,210611,1,0,0:0:0:0:
192,128,210811,1,8,0:0:0:0:
192,128,211011,1,0,0:0:0:0:
192,256,211211,1,8,0:0:0:0:
192,128,211611,1,0,0:0:0:0:
192,128,211811,1,0,0:0:0:0:
192,256,212011,1,12,0:0:0:0:
192,256,212211,1,8,0:0:0:0:
192,256,212411,1,8,0:0:0:0:
192,256,212611,1,8,0:0:0:0:
192,128,212811,1,0,0:0:0:0:
192,128,213011,1,0,0:0:0:0:
192,256,213211,1,8,0:0:0:0:
192,128,213611,1,0,0:0:0:0:
192,128,213811,1,0,0:0:0:0:
192,128,214011,1,0,0:0:0:0:
192,128,214211,1,0,0:0:0:0:
192,256,214411,1,8,0:0:0:0:
192,128,214811,1,0,0:0:0:0:
192,128,214911,1,0,0:0:0:0:
192,128,215011,1,0,0:0:0:0:
192,128,215211,1,8,0:0:0:0:
192,128,215311,1,8,0:0:0:0:
192,128,215411,1,8,0:0:0:0:
192,128,215611,1,0,0:0:0:0:
192,128,216011,1,8,0:0:0:0:
192,128,216411,1,0,0:0:0:0:
192,128,216511,1,0,0:0:0:0:
192,128,216611,1,0,0:0:0:0:
192,128,216811,1,0,0:0:0:0:
192,128,216911,1,0,0:0:0:0:
192,128,217011,1,0,0:0:0:0:
192,128,217211,1,8,0:0:0:0:
192,128,217411,1,0,0:0:0:0:
192,256,217611,1,8,0:0:0:0:
192,128,218011,1,0,0:0:0:0:
192,128,218211,1,8,0:0:0:0:
192,256,218411,1,0,0:0:0:0:
64,224,218611,2,0,L|288:160,1,209.999985694886
192,128,219411,1,0,0:0:0:0:
192,256,219611,1,8,0:0:0:0:
192,128,219811,1,0,0:0:0:0:
320,128,220011,1,4,0:0:0:0:
192,128,220411,1,0,0:0:0:0:
192,256,220811,1,8,0:0:0:0:
192,128,221211,1,0,0:0:0:0:
192,128,221611,1,0,0:0:0:0:
192,128,222011,1,8,0:0:0:0:
192,128,222411,1,8,0:0:0:0:
192,256,222611,1,0,0:0:0:0:
192,128,222811,1,0,0:0:0:0:
192,128,222911,1,0,0:0:0:0:
192,128,223011,1,0,0:0:0:0:
192,128,223211,1,8,0:0:0:0:
192,128,223311,1,8,0:0:0:0:
192,128,223411,1,8,0:0:0:0:
192,256,223611,1,8,0:0:0:0:
192,128,223811,1,0,0:0:0:0:
192,256,224011,1,8,0:0:0:0:
192,128,224211,1,0,0:0:0:0:
192,128,224411,1,0,0:0:0:0:
192,256,224611,1,0,0:0:0:0:
192,256,224811,1,8,0:0:0:0:
192,256,225011,1,8,0:0:0:0:
192,256,225211,1,8,0:0:0:0:
192,256,225411,1,8,0:0:0:0:
192,128,225611,1,0,0:0:0:0:
192,128,225811,1,0,0:0:0:0:
192,128,226011,1,0,0:0:0:0:
192,256,226211,1,0,0:0:0:0:
192,128,226611,1,0,0:0:0:0:
192,128,226811,1,0,0:0:0:0:
192,128,227011,1,0,0:0:0:0:
192,256,227211,1,8,0:0:0:0:
192,128,227611,1,0,0:0:0:0:
192,128,227711,1,0,0:0:0:0:
192,128,227811,1,0,0:0:0:0:
192,128,228011,1,0,0:0:0:0:
192,128,228111,1,0,0:0:0:0:
192,128,228211,1,0,0:0:0:0:
192,256,228411,1,8,0:0:0:0:
192,128,228611,1,0,0:0:0:0:
192,128,228811,1,8,0:0:0:0:
192,128,229011,1,8,0:0:0:0:
192,128,229211,1,8,0:0:0:0:
192,128,229411,1,0,0:0:0:0:
192,128,229611,1,0,0:0:0:0:
192,128,229811,1,8,0:0:0:0:
192,128,230011,1,8,0:0:0:0:
192,128,230211,1,0,0:0:0:0:
192,256,230411,1,8,0:0:0:0:
192,128,230811,1,0,0:0:0:0:
192,128,231011,1,0,0:0:0:0:
192,256,231211,1,8,0:0:0:0:
96,224,231411,2,0,L|320:160,1,209.999985694886
192,128,232211,1,0,0:0:0:0:
192,128,232411,1,8,0:0:0:0:
192,128,232611,1,0,0:0:0:0:
