osu file format v14

[General]
AudioFilename: bmth.mp3
AudioLeadIn: 3000
PreviewTime: 8694
Countdown: 0
SampleSet: Normal
StackLeniency: 0.8
Mode: 1
LetterboxInBreaks: 0
WidescreenStoryboard: 0

[Editor]
Bookmarks: 126922,135376
DistanceSpacing: 0.8
BeatDivisor: 2
GridSize: 32
TimelineZoom: 2.499999

[Metadata]
Title:Anthem
TitleUnicode:Anthem
Artist:Bring Me The Horizon
ArtistUnicode:Bring Me The Horizon
Creator:ikin5050
Version:Kantan
Source:
Tags:english IntelliTroodon Intelli DarkStoorM bmth metal metalcore deathcore british Visible Noise There is a Hell Believe me I've seen it There is a Heaven Let's keep it a Secret cut version
BeatmapID:917391
BeatmapSetID:297390

[Difficulty]
HPDrainRate:8
CircleSize:5
OverallDifficulty:2
ApproachRate:5
SliderMultiplier:1.4
SliderTickRate:1

[Events]
//Background and Video events
0,0,"tiah bg.jpg",0,0
//Break Periods
2,162877,165984
//Storyboard Layer 0 (Background)
//Storyboard Layer 1 (Fail)
//Storyboard Layer 2 (Pass)
//Storyboard Layer 3 (Foreground)
//Storyboard Layer 4 (Overlay)
//Storyboard Sound Samples

[TimingPoints]
120,272.727272727273,4,1,0,100,1,0
8710,-100,4,1,0,100,0,1
26165,-100,4,1,0,100,0,0
54529,-100,4,1,0,100,0,1
71983,-100,4,1,0,100,0,0
135392,285.714285714286,4,1,0,50,1,0
139820,-100,4,1,0,100,0,0
162820,272.727272727273,4,1,0,100,1,0
182302,-100,4,1,0,100,0,1
205365,461.538461538462,4,1,0,100,1,0
205365,-66.6666666666667,4,1,0,100,0,0
207211,400,4,1,0,100,1,0

[Colours]
Combo1 : 0,128,192
Combo2 : 255,0,0

[HitObjects]
192,256,120,5,8,0:0:0:0:
192,256,665,1,8,0:0:0:0:
192,256,1210,1,8,0:0:0:0:
192,256,1756,1,8,0:0:0:0:
192,256,2301,1,8,0:0:0:0:
192,256,2847,1,8,0:0:0:0:
192,256,3392,1,8,0:0:0:0:
192,256,3938,1,8,0:0:0:0:
192,256,4483,1,8,0:0:0:0:
192,256,5029,1,8,0:0:0:0:
192,256,5574,1,8,0:0:0:0:
192,256,6120,1,8,0:0:0:0:
192,128,6665,1,0,0:0:0:0:
192,128,7210,1,0,0:0:0:0:
192,128,7756,1,0,0:0:0:0:
192,128,8029,1,8,0:0:0:0:
192,256,8301,1,8,0:0:0:0:
192,128,8710,1,4,0:0:0:0:
192,256,9393,1,8,0:0:0:0:
192,128,9938,1,0,0:0:0:0:
192,128,10756,1,8,0:0:0:0:
192,256,11302,1,8,0:0:0:0:
192,256,11574,1,0,0:0:0:0:
192,128,12120,1,0,0:0:0:0:
192,128,12665,1,8,0:0:0:0:
192,256,13074,1,0,0:0:0:0:
192,128,13756,1,0,0:0:0:0:
192,128,14302,1,8,0:0:0:0:
192,128,14847,1,0,0:0:0:0:
192,256,15392,1,8,0:0:0:0:
192,256,15938,1,0,0:0:0:0:
192,256,16483,1,8,0:0:0:0:
192,256,16756,1,8,0:0:0:0:
192,256,17029,1,0,0:0:0:0:
192,128,17438,1,4,0:0:0:0:
192,256,18120,1,8,0:0:0:0:
192,128,18665,1,0,0:0:0:0:
192,128,19620,1,8,0:0:0:0:
192,256,20029,1,8,0:0:0:0:
192,256,20301,1,0,0:0:0:0:
192,128,20847,1,0,0:0:0:0:
192,256,21802,1,0,0:0:0:0:
192,128,22483,1,0,0:0:0:0:
192,256,22755,1,8,0:0:0:0:
192,128,23029,1,0,0:0:0:0:
192,128,23574,1,0,0:0:0:0:
192,256,24119,1,0,0:0:0:0:
192,256,24665,1,8,0:0:0:0:
192,256,25210,1,8,0:0:0:0:
192,256,25483,1,8,0:0:0:0:
192,256,25756,1,0,0:0:0:0:
192,256,26847,5,8,0:0:0:0:
320,128,27256,1,4,0:0:0:0:
192,256,27938,1,8,0:0:0:0:
320,128,28347,1,4,0:0:0:0:
192,128,29029,1,8,0:0:0:0:
320,128,29438,1,4,0:0:0:0:
192,128,30120,1,0,0:0:0:0:
320,128,30529,1,12,0:0:0:0:
192,128,31210,1,0,0:0:0:0:
192,128,31620,1,4,0:0:0:0:
192,160,32301,1,8,0:0:0:0:
219,139,32710,1,4,0:0:0:0:
320,128,33392,1,8,0:0:0:0:
192,256,33801,1,4,0:0:0:0:
192,128,34483,1,0,0:0:0:0:
320,128,34892,1,4,0:0:0:0:
192,256,35301,1,8,0:0:0:0:
192,128,35574,1,0,0:0:0:0:
192,256,35983,1,8,0:0:0:0:
215,160,36529,1,0,0:0:0:0:
320,128,37210,1,4,0:0:0:0:
192,128,37756,1,0,0:0:0:0:
320,128,38165,1,12,0:0:0:0:
192,128,38847,1,0,0:0:0:0:
192,128,39256,1,12,0:0:0:0:
192,256,39938,1,8,0:0:0:0:
320,256,40347,1,4,0:0:0:0:
192,128,41029,1,0,0:0:0:0:
320,128,41438,1,12,0:0:0:0:
320,128,42120,1,0,0:0:0:0:
192,128,42529,1,4,0:0:0:0:
192,128,43210,1,0,0:0:0:0:
192,128,43620,1,4,0:0:0:0:
192,256,44710,1,8,0:0:0:0:
192,128,45120,1,8,0:0:0:0:
192,256,45393,1,8,0:0:0:0:
192,128,45801,1,0,0:0:0:0:
192,128,46483,1,0,0:0:0:0:
225,136,47029,1,8,0:0:0:0:
320,256,47438,1,4,0:0:0:0:
201,122,47710,1,4,0:0:0:0:
192,128,47983,1,4,0:0:0:0:
192,128,48393,1,8,0:0:0:0:
192,128,48665,1,0,0:0:0:0:
192,256,49210,1,8,0:0:0:0:
192,128,49620,1,0,0:0:0:0:
192,256,50301,1,8,0:0:0:0:
192,256,50847,1,8,0:0:0:0:
192,128,51392,1,0,0:0:0:0:
320,128,51938,1,4,0:0:0:0:
205,130,52483,1,4,0:0:0:0:
192,128,53029,1,4,0:0:0:0:
256,192,53574,12,0,54120,0:0:0:0:
192,128,54529,5,4,0:0:0:0:
192,256,55211,1,8,0:0:0:0:
192,128,55756,1,0,0:0:0:0:
192,128,56710,1,8,0:0:0:0:
192,256,57120,1,8,0:0:0:0:
192,256,57392,1,0,0:0:0:0:
192,128,57938,1,0,0:0:0:0:
192,128,58483,1,8,0:0:0:0:
192,256,58892,1,0,0:0:0:0:
192,128,59574,1,0,0:0:0:0:
192,128,60120,1,8,0:0:0:0:
192,128,60665,1,0,0:0:0:0:
192,256,61210,1,8,0:0:0:0:
192,256,61756,1,0,0:0:0:0:
192,256,62301,1,8,0:0:0:0:
192,256,62574,1,8,0:0:0:0:
192,256,62847,1,0,0:0:0:0:
192,128,63256,1,4,0:0:0:0:
192,256,63938,1,8,0:0:0:0:
192,128,64483,1,0,0:0:0:0:
192,128,65438,1,8,0:0:0:0:
192,256,65847,1,8,0:0:0:0:
192,256,66119,1,0,0:0:0:0:
192,128,66665,1,0,0:0:0:0:
192,256,67620,1,0,0:0:0:0:
192,128,68301,1,0,0:0:0:0:
192,256,68573,1,8,0:0:0:0:
192,128,68847,1,0,0:0:0:0:
192,128,69392,1,0,0:0:0:0:
192,256,69937,1,0,0:0:0:0:
192,256,70483,1,8,0:0:0:0:
192,256,71028,1,8,0:0:0:0:
192,256,71301,1,8,0:0:0:0:
192,256,71574,1,0,0:0:0:0:
192,128,72665,1,0,0:0:0:0:
192,128,73074,1,4,0:0:0:0:
192,288,73756,1,8,0:0:0:0:
192,128,74165,1,4,0:0:0:0:
192,128,74847,1,8,0:0:0:0:
192,128,75256,1,12,0:0:0:0:
192,128,75938,1,8,0:0:0:0:
192,128,76347,1,4,0:0:0:0:
192,256,77029,1,8,0:0:0:0:
192,128,77438,1,4,0:0:0:0:
192,128,78120,1,8,0:0:0:0:
192,128,78529,1,4,0:0:0:0:
192,128,79211,1,0,0:0:0:0:
188,134,79620,1,12,0:0:0:0:
188,134,80029,1,8,0:0:0:0:
188,134,80301,1,8,0:0:0:0:
192,256,80847,1,4,0:0:0:0:
192,256,81392,1,8,0:0:0:0:
192,256,81801,1,12,0:0:0:0:
192,128,82892,1,4,0:0:0:0:
192,128,83574,1,0,0:0:0:0:
192,256,83847,1,8,0:0:0:0:
192,256,84120,1,8,0:0:0:0:
192,256,84665,1,8,0:0:0:0:
192,128,85074,1,0,0:0:0:0:
192,256,85483,1,8,0:0:0:0:
192,128,86029,1,0,0:0:0:0:
210,132,86574,1,0,0:0:0:0:
192,128,87120,1,4,0:0:0:0:
192,128,87665,1,0,0:0:0:0:
192,256,88483,1,8,0:0:0:0:
192,256,88756,1,8,0:0:0:0:
192,128,89029,1,0,0:0:0:0:
192,256,89574,1,8,0:0:0:0:
192,256,90665,1,8,0:0:0:0:
192,256,91756,1,8,0:0:0:0:
192,256,92847,1,8,0:0:0:0:
192,256,93392,1,8,0:0:0:0:
256,192,93938,12,0,98029,0:0:0:0:
192,128,98301,5,4,0:0:0:0:
192,256,98847,1,8,0:0:0:0:
320,256,99392,1,12,0:0:0:0:
320,128,99801,1,0,0:0:0:0:
320,128,100347,1,0,0:0:0:0:
192,128,101029,1,0,0:0:0:0:
192,256,101574,1,8,0:0:0:0:
192,128,101983,1,0,0:0:0:0:
192,256,102938,1,8,0:0:0:0:
192,128,103210,1,0,0:0:0:0:
320,256,103756,1,12,0:0:0:0:
160,128,104302,1,0,0:0:0:0:
320,128,104847,1,4,0:0:0:0:
192,128,105392,1,8,0:0:0:0:
210,162,105938,1,0,0:0:0:0:
192,256,106483,1,8,0:0:0:0:
192,128,106756,1,0,0:0:0:0:
192,128,107028,1,8,0:0:0:0:
192,128,107574,1,0,0:0:0:0:
168,148,108120,2,0,L|245:143,7,70
201,175,109483,1,8,0:0:0:0:
273,176,110029,1,8,0:0:0:0:
273,176,110574,1,8,0:0:0:0:
273,176,111120,1,8,0:0:0:0:
241,146,111665,1,8,0:0:0:0:
224,103,111938,1,8,0:0:0:0:
233,126,112483,1,8,0:0:0:0:
256,192,113438,1,4,0:0:0:0:
249,158,113847,1,8,0:0:0:0:
249,158,114392,1,8,0:0:0:0:
246,162,114938,1,8,0:0:0:0:
246,162,115483,1,8,0:0:0:0:
256,192,115756,1,0,0:0:0:0:
256,192,116301,1,0,0:0:0:0:
256,192,116847,1,8,0:0:0:0:
256,192,117256,1,8,0:0:0:0:
320,128,117801,1,4,0:0:0:0:
192,256,118483,1,8,0:0:0:0:
192,128,119029,1,0,0:0:0:0:
192,128,119574,1,0,0:0:0:0:
192,256,120120,1,12,0:0:0:0:
192,256,120665,1,12,0:0:0:0:
192,256,121210,1,8,0:0:0:0:
192,128,121483,1,0,0:0:0:0:
192,256,121756,1,8,0:0:0:0:
192,128,122710,1,0,0:0:0:0:
192,128,123256,1,0,0:0:0:0:
320,256,124483,1,12,0:0:0:0:
320,128,124892,1,4,0:0:0:0:
320,256,125301,1,12,0:0:0:0:
320,128,125710,1,4,0:0:0:0:
192,256,126120,1,8,0:0:0:0:
277,122,126529,1,0,0:0:0:0:
320,128,127210,1,12,0:0:0:0:
192,128,127620,1,0,0:0:0:0:
192,128,127892,1,0,0:0:0:0:
192,128,128301,1,0,0:0:0:0:
320,256,128847,1,12,0:0:0:0:
320,128,129392,1,4,0:0:0:0:
192,256,129938,1,8,0:0:0:0:
192,256,130483,1,8,0:0:0:0:
192,128,130892,1,0,0:0:0:0:
192,128,131574,1,0,0:0:0:0:
184,129,131983,1,8,0:0:0:0:
192,256,133210,1,8,0:0:0:0:
192,256,133756,1,0,0:0:0:0:
192,256,134438,1,12,0:0:0:0:
192,256,134847,1,12,0:0:0:0:
192,256,135392,1,12,0:0:0:0:
256,192,139820,1,0,0:0:0:0:
258,196,140534,1,0,0:0:0:0:
256,192,141677,1,0,0:0:0:0:
256,192,142106,1,8,0:0:0:0:
268,198,142820,1,0,0:0:0:0:
261,194,143392,1,0,0:0:0:0:
256,192,144392,1,0,0:0:0:0:
256,192,145106,1,8,0:0:0:0:
256,192,145392,1,0,0:0:0:0:
251,194,146249,1,0,0:0:0:0:
256,192,146677,1,0,0:0:0:0:
256,192,147392,1,0,0:0:0:0:
256,192,147963,1,0,0:0:0:0:
254,200,148534,1,8,0:0:0:0:
256,192,149392,1,0,0:0:0:0:
256,192,149677,1,8,0:0:0:0:
256,192,150106,1,0,0:0:0:0:
254,200,150820,1,8,0:0:0:0:
256,192,151677,1,0,0:0:0:0:
256,192,151963,1,8,0:0:0:0:
256,192,152392,1,0,0:0:0:0:
192,128,153392,1,4,0:0:0:0:
192,128,153963,1,0,0:0:0:0:
192,256,154249,1,8,0:0:0:0:
192,128,154534,1,0,0:0:0:0:
192,128,155678,1,0,0:0:0:0:
192,128,156534,1,8,0:0:0:0:
192,128,157106,1,0,0:0:0:0:
196,156,158249,1,0,0:0:0:0:
192,128,158820,1,0,0:0:0:0:
183,146,159106,1,8,0:0:0:0:
192,128,159392,1,0,0:0:0:0:
192,128,159963,1,8,0:0:0:0:
192,256,160820,1,8,0:0:0:0:
192,128,161106,1,0,0:0:0:0:
192,256,161677,1,8,0:0:0:0:
192,128,162106,1,0,0:0:0:0:
195,124,162677,1,0,0:0:0:0:
256,192,167184,5,0,0:0:0:0:
256,192,167593,1,4,0:0:0:0:
192,256,171548,1,0,0:0:0:0:
192,256,172639,1,0,0:0:0:0:
192,256,173730,1,0,0:0:0:0:
237,172,174821,1,0,0:0:0:0:
192,256,175639,1,8,0:0:0:0:
192,256,175911,1,0,0:0:0:0:
192,128,177002,1,0,0:0:0:0:
192,128,178092,1,0,0:0:0:0:
192,128,178638,1,0,0:0:0:0:
192,128,179183,1,8,0:0:0:0:
192,256,179730,1,8,0:0:0:0:
192,128,182320,1,4,0:0:0:0:
192,256,183001,1,8,0:0:0:0:
192,128,183547,1,0,0:0:0:0:
192,128,184502,1,8,0:0:0:0:
192,256,184910,1,8,0:0:0:0:
192,256,185183,1,0,0:0:0:0:
192,128,185730,1,0,0:0:0:0:
192,128,186275,1,8,0:0:0:0:
192,256,186684,1,0,0:0:0:0:
192,128,187366,1,0,0:0:0:0:
192,256,187638,1,8,0:0:0:0:
192,128,187910,1,0,0:0:0:0:
192,128,188457,1,0,0:0:0:0:
192,256,189002,1,8,0:0:0:0:
192,256,189548,1,0,0:0:0:0:
192,256,189821,1,0,0:0:0:0:
192,256,190093,1,8,0:0:0:0:
192,256,190366,1,8,0:0:0:0:
192,256,190639,1,0,0:0:0:0:
192,256,191048,1,4,0:0:0:0:
192,128,191729,1,8,0:0:0:0:
192,128,192275,1,0,0:0:0:0:
192,256,193230,1,2,0:0:0:0:
192,256,193639,1,8,0:0:0:0:
192,128,193911,1,0,0:0:0:0:
192,128,194457,1,0,0:0:0:0:
320,128,195411,1,12,0:0:0:0:
192,128,195821,1,0,0:0:0:0:
192,256,196092,1,8,0:0:0:0:
192,128,196638,1,0,0:0:0:0:
192,256,197184,1,0,0:0:0:0:
192,128,197730,1,8,0:0:0:0:
192,128,198275,1,0,0:0:0:0:
192,128,198547,1,8,0:0:0:0:
192,128,198821,1,0,0:0:0:0:
192,256,199366,1,0,0:0:0:0:
320,128,199911,1,12,0:0:0:0:
192,256,200183,1,0,0:0:0:0:
192,256,200456,1,8,0:0:0:0:
192,256,201001,1,8,0:0:0:0:
192,256,201274,1,0,0:0:0:0:
192,256,201548,1,0,0:0:0:0:
192,128,201957,1,0,0:0:0:0:
192,256,202639,1,8,0:0:0:0:
192,256,203184,1,0,0:0:0:0:
192,128,203730,1,8,0:0:0:0:
192,128,204275,1,0,0:0:0:0:
192,128,204684,1,0,0:0:0:0:
192,128,205093,1,0,0:0:0:0:
320,256,205365,1,8,0:0:0:0:
320,128,206288,1,12,0:0:0:0:
192,128,207211,1,0,0:0:0:0:
192,128,207611,1,8,0:0:0:0:
192,128,208011,1,0,0:0:0:0:
192,128,208811,1,0,0:0:0:0:
192,128,209211,1,8,0:0:0:0:
192,128,209611,1,0,0:0:0:0:
192,128,210411,1,0,0:0:0:0:
192,128,210811,1,8,0:0:0:0:
192,128,211211,1,0,0:0:0:0:
192,256,212011,1,12,0:0:0:0:
192,256,212411,1,8,0:0:0:0:
192,128,212811,1,0,0:0:0:0:
192,128,213611,1,0,0:0:0:0:
192,128,214011,1,0,0:0:0:0:
192,256,214411,1,8,0:0:0:0:
192,128,215211,1,0,0:0:0:0:
192,128,215611,1,8,0:0:0:0:
192,128,216011,1,0,0:0:0:0:
192,128,216811,1,0,0:0:0:0:
192,128,217211,1,8,0:0:0:0:
192,128,217611,1,0,0:0:0:0:
192,256,218411,1,12,0:0:0:0:
192,128,218811,1,8,0:0:0:0:
192,256,219211,1,0,0:0:0:0:
320,128,220011,1,4,0:0:0:0:
192,256,220811,1,8,0:0:0:0:
192,128,221611,1,0,0:0:0:0:
192,256,222411,1,0,0:0:0:0:
192,128,223611,1,0,0:0:0:0:
192,128,224011,1,8,0:0:0:0:
192,256,224811,1,8,0:0:0:0:
192,128,225611,1,4,0:0:0:0:
192,128,226011,1,0,0:0:0:0:
192,128,226811,1,0,0:0:0:0:
192,256,227211,1,8,0:0:0:0:
192,128,227611,1,0,0:0:0:0:
192,128,228411,1,0,0:0:0:0:
192,128,229211,1,8,0:0:0:0:
192,128,229611,1,0,0:0:0:0:
192,128,230011,1,8,0:0:0:0:
192,128,230811,1,0,0:0:0:0:
192,256,231211,1,8,0:0:0:0:
192,256,231611,1,8,0:0:0:0:
192,128,232411,1,8,0:0:0:0:
192,128,232611,1,4,0:0:0:0:
