osu file format v14

[General]
AudioFilename: bmth.mp3
AudioLeadIn: 3000
PreviewTime: 8694
Countdown: 0
SampleSet: Normal
StackLeniency: 0.8
Mode: 1
LetterboxInBreaks: 0
WidescreenStoryboard: 0

[Editor]
Bookmarks: 126922,135376
DistanceSpacing: 0.8
BeatDivisor: 2
GridSize: 32
TimelineZoom: 3.599998

[Metadata]
Title:Anthem
TitleUnicode:Anthem
Artist:Bring Me The Horizon
ArtistUnicode:Bring Me The Horizon
Creator:ikin5050
Version:Futsuu
Source:
Tags:english IntelliTroodon Intelli DarkStoorM bmth metal metalcore deathcore british Visible Noise There is a Hell Believe me I've seen it There is a Heaven Let's keep it a Secret cut version
BeatmapID:906769
BeatmapSetID:297390

[Difficulty]
HPDrainRate:7
CircleSize:5
OverallDifficulty:3
ApproachRate:5
SliderMultiplier:1.4
SliderTickRate:1

[Events]
//Background and Video events
0,0,"tiah bg.jpg",0,0
//Break Periods
2,162877,165984
//Storyboard Layer 0 (Background)
//Storyboard Layer 1 (Fail)
//Storyboard Layer 2 (Pass)
//Storyboard Layer 3 (Foreground)
//Storyboard Layer 4 (Overlay)
//Storyboard Sound Samples

[TimingPoints]
120,272.727272727273,4,1,0,100,1,0
8710,-100,4,1,0,100,0,1
26165,-100,4,1,0,100,0,0
54529,-100,4,1,0,100,0,1
71983,-100,4,1,0,100,0,0
135392,285.714285714286,4,1,0,50,1,0
139820,-100,4,1,0,100,0,0
162820,272.727272727273,4,1,0,100,1,0
182302,-100,4,1,0,100,0,1
205365,461.538461538462,4,1,0,100,1,0
205365,-66.6666666666667,4,1,0,100,0,0
207211,400,4,1,0,100,1,0

[Colours]
Combo1 : 0,128,192
Combo2 : 255,0,0

[HitObjects]
192,256,120,5,8,0:0:0:0:
192,256,665,1,8,0:0:0:0:
192,256,1210,1,8,0:0:0:0:
192,256,1756,1,8,0:0:0:0:
192,256,2301,1,8,0:0:0:0:
192,256,2847,1,8,0:0:0:0:
192,256,3392,1,8,0:0:0:0:
192,256,3938,1,8,0:0:0:0:
192,256,4210,1,0,0:0:0:0:
192,256,4483,1,8,0:0:0:0:
192,256,5029,1,8,0:0:0:0:
192,256,5574,1,8,0:0:0:0:
192,256,6120,1,8,0:0:0:0:
192,256,6392,1,0,0:0:0:0:
192,128,6665,1,0,0:0:0:0:
192,128,6938,1,0,0:0:0:0:
192,128,7210,1,0,0:0:0:0:
192,128,7756,1,8,0:0:0:0:
192,128,8029,1,8,0:0:0:0:
192,256,8301,1,8,0:0:0:0:
192,128,8710,1,4,0:0:0:0:
192,128,9119,1,0,0:0:0:0:
192,128,9392,1,0,0:0:0:0:
192,128,9937,1,0,0:0:0:0:
192,128,10347,1,8,0:0:0:0:
192,128,10620,1,0,0:0:0:0:
192,256,10892,1,0,0:0:0:0:
192,128,11301,1,0,0:0:0:0:
192,256,11574,1,8,0:0:0:0:
192,128,11710,1,0,0:0:0:0:
192,256,12120,1,0,0:0:0:0:
192,256,12256,1,0,0:0:0:0:
192,256,12393,1,8,0:0:0:0:
192,256,12666,1,0,0:0:0:0:
320,128,13074,1,4,0:0:0:0:
192,256,13756,1,8,0:0:0:0:
192,128,14029,1,0,0:0:0:0:
192,128,14302,1,8,0:0:0:0:
192,128,14847,1,0,0:0:0:0:
320,128,15392,1,4,0:0:0:0:
192,256,15665,1,8,0:0:0:0:
192,128,15938,1,0,0:0:0:0:
192,256,16210,1,8,0:0:0:0:
192,256,16483,1,0,0:0:0:0:
192,128,16756,1,0,0:0:0:0:
192,256,16892,1,8,0:0:0:0:
192,128,17437,1,4,0:0:0:0:
192,128,17846,1,0,0:0:0:0:
192,128,18119,1,0,0:0:0:0:
192,128,18392,1,8,0:0:0:0:
192,128,18664,1,0,0:0:0:0:
192,128,19074,1,8,0:0:0:0:
192,128,19347,1,0,0:0:0:0:
192,256,19619,1,0,0:0:0:0:
192,128,20028,1,0,0:0:0:0:
192,256,20301,1,8,0:0:0:0:
192,128,20438,1,0,0:0:0:0:
192,256,20847,1,0,0:0:0:0:
205,197,20983,1,0,0:0:0:0:
192,256,21120,1,8,0:0:0:0:
192,256,21393,1,0,0:0:0:0:
320,128,21529,1,0,0:0:0:0:
320,128,21801,1,4,0:0:0:0:
192,128,22210,1,0,0:0:0:0:
192,256,22483,1,8,0:0:0:0:
192,128,22756,1,0,0:0:0:0:
192,128,23029,1,8,0:0:0:0:
192,128,23574,1,0,0:0:0:0:
320,128,24119,1,4,0:0:0:0:
192,256,24392,1,8,0:0:0:0:
192,128,24665,1,0,0:0:0:0:
192,256,24937,1,8,0:0:0:0:
192,256,25210,1,0,0:0:0:0:
291,144,25483,1,0,0:0:0:0:
192,256,25620,1,8,0:0:0:0:
192,128,25756,1,0,0:0:0:0:
192,128,25892,1,8,0:0:0:0:
192,128,26029,1,8,0:0:0:0:
320,128,26165,1,0,0:0:0:0:
320,128,26574,1,0,0:0:0:0:
192,256,26847,1,8,0:0:0:0:
195,147,27120,1,8,0:0:0:0:
320,128,27256,1,0,0:0:0:0:
192,256,27664,1,8,0:0:0:0:
192,128,27937,1,0,0:0:0:0:
195,147,28210,1,0,0:0:0:0:
320,128,28347,1,0,0:0:0:0:
192,128,28755,1,0,0:0:0:0:
192,256,29029,1,8,0:0:0:0:
192,128,29301,1,0,0:0:0:0:
320,128,29438,1,0,0:0:0:0:
203,132,29847,1,0,0:0:0:0:
192,128,30119,1,0,0:0:0:0:
192,96,30392,1,8,0:0:0:0:
320,128,30529,1,8,0:0:0:0:
192,256,30938,1,8,0:0:0:0:
192,256,31210,1,0,0:0:0:0:
192,128,31483,1,0,0:0:0:0:
192,128,31620,1,8,0:0:0:0:
192,128,32029,1,0,0:0:0:0:
192,128,32301,1,8,0:0:0:0:
192,128,32574,1,8,0:0:0:0:
320,128,32710,1,8,0:0:0:0:
192,128,33120,1,0,0:0:0:0:
192,256,33393,1,8,0:0:0:0:
192,128,33665,1,0,0:0:0:0:
320,128,33801,1,0,0:0:0:0:
192,128,34210,1,0,0:0:0:0:
192,128,34483,1,0,0:0:0:0:
192,128,34756,1,8,0:0:0:0:
320,128,34892,1,0,0:0:0:0:
255,218,35165,1,0,0:0:0:0:
192,256,35301,1,8,0:0:0:0:
255,218,35438,1,8,0:0:0:0:
192,256,35573,1,8,0:0:0:0:
320,256,35983,1,8,0:0:0:0:
196,123,36256,1,0,0:0:0:0:
192,128,36392,1,0,0:0:0:0:
195,129,36529,1,0,0:0:0:0:
192,256,36665,1,8,0:0:0:0:
192,129,36938,1,0,0:0:0:0:
192,128,37074,1,0,0:0:0:0:
192,128,37483,1,8,0:0:0:0:
192,256,37756,1,0,0:0:0:0:
192,128,38029,1,0,0:0:0:0:
192,128,38165,1,8,0:0:0:0:
176,125,38574,1,8,0:0:0:0:
320,209,38847,1,0,0:0:0:0:
192,128,39120,1,8,0:0:0:0:
320,256,39256,1,0,0:0:0:0:
196,105,39665,1,8,0:0:0:0:
196,105,39938,1,0,0:0:0:0:
192,128,40210,1,0,0:0:0:0:
320,256,40347,1,0,0:0:0:0:
192,96,40756,1,8,0:0:0:0:
196,105,40892,1,0,0:0:0:0:
196,134,41028,1,0,0:0:0:0:
192,128,41165,1,0,0:0:0:0:
192,128,41301,1,8,0:0:0:0:
192,128,41438,1,0,0:0:0:0:
192,128,41847,1,0,0:0:0:0:
192,128,42120,1,8,0:0:0:0:
192,96,42392,1,0,0:0:0:0:
192,128,42529,1,8,0:0:0:0:
192,128,42938,1,0,0:0:0:0:
192,128,43210,1,8,0:0:0:0:
192,96,43483,1,0,0:0:0:0:
192,128,43620,1,0,0:0:0:0:
192,128,44029,1,0,0:0:0:0:
192,256,44301,1,8,0:0:0:0:
192,128,44574,1,8,0:0:0:0:
192,128,44710,1,8,0:0:0:0:
192,128,44983,1,0,0:0:0:0:
197,129,45120,1,0,0:0:0:0:
211,157,45392,1,0,0:0:0:0:
192,256,45529,1,8,0:0:0:0:
197,129,45801,1,0,0:0:0:0:
188,123,46074,1,0,0:0:0:0:
186,125,46210,1,0,0:0:0:0:
188,123,46347,1,0,0:0:0:0:
192,256,46483,1,8,0:0:0:0:
192,256,46620,1,8,0:0:0:0:
320,256,47029,1,8,0:0:0:0:
208,156,47165,1,8,0:0:0:0:
192,128,47438,1,0,0:0:0:0:
192,128,47710,1,0,0:0:0:0:
192,128,47983,1,0,0:0:0:0:
192,128,48256,1,8,0:0:0:0:
186,130,48392,1,0,0:0:0:0:
192,128,48665,1,0,0:0:0:0:
192,256,48938,1,8,0:0:0:0:
192,256,49210,1,8,0:0:0:0:
192,128,49483,1,0,0:0:0:0:
191,141,49620,1,8,0:0:0:0:
192,128,49892,1,0,0:0:0:0:
203,152,50165,1,0,0:0:0:0:
192,256,50573,1,8,0:0:0:0:
200,123,50710,1,8,0:0:0:0:
192,128,50846,1,0,0:0:0:0:
200,123,51120,1,0,0:0:0:0:
202,129,51392,1,0,0:0:0:0:
320,256,51528,1,8,0:0:0:0:
320,256,51801,1,8,0:0:0:0:
320,128,52074,1,0,0:0:0:0:
320,128,52347,1,0,0:0:0:0:
184,127,52620,1,0,0:0:0:0:
184,127,52756,1,8,0:0:0:0:
184,127,52892,1,0,0:0:0:0:
192,128,53029,1,0,0:0:0:0:
184,127,53301,1,8,0:0:0:0:
256,192,53574,12,0,54256,0:0:0:0:
192,128,54529,5,4,0:0:0:0:
192,128,54938,1,0,0:0:0:0:
192,128,55211,1,0,0:0:0:0:
192,128,55756,1,0,0:0:0:0:
192,128,56166,1,8,0:0:0:0:
192,128,56438,1,0,0:0:0:0:
192,256,56711,1,0,0:0:0:0:
192,128,57120,1,0,0:0:0:0:
192,256,57393,1,8,0:0:0:0:
192,128,57529,1,0,0:0:0:0:
192,256,57939,1,0,0:0:0:0:
192,256,58075,1,0,0:0:0:0:
192,256,58212,1,8,0:0:0:0:
192,256,58485,1,0,0:0:0:0:
320,128,58892,1,0,0:0:0:0:
192,256,59575,1,8,0:0:0:0:
192,128,59848,1,0,0:0:0:0:
192,128,60121,1,8,0:0:0:0:
192,128,60666,1,0,0:0:0:0:
320,128,61211,1,4,0:0:0:0:
192,256,61484,1,8,0:0:0:0:
192,128,61757,1,0,0:0:0:0:
192,256,62029,1,8,0:0:0:0:
192,256,62302,1,0,0:0:0:0:
192,128,62575,1,0,0:0:0:0:
192,256,62711,1,8,0:0:0:0:
192,128,63256,1,4,0:0:0:0:
192,128,63665,1,0,0:0:0:0:
192,128,63938,1,0,0:0:0:0:
192,128,64211,1,8,0:0:0:0:
192,128,64483,1,0,0:0:0:0:
192,128,64893,1,8,0:0:0:0:
192,128,65165,1,0,0:0:0:0:
192,256,65438,1,0,0:0:0:0:
192,128,65847,1,0,0:0:0:0:
192,256,66120,1,8,0:0:0:0:
192,128,66257,1,0,0:0:0:0:
192,256,66666,1,0,0:0:0:0:
205,197,66802,1,0,0:0:0:0:
192,256,66939,1,8,0:0:0:0:
192,256,67212,1,0,0:0:0:0:
320,128,67348,1,0,0:0:0:0:
320,128,67620,1,0,0:0:0:0:
192,128,68029,1,0,0:0:0:0:
192,256,68302,1,8,0:0:0:0:
192,128,68575,1,0,0:0:0:0:
192,128,68848,1,8,0:0:0:0:
192,128,69393,1,0,0:0:0:0:
320,128,69938,1,0,0:0:0:0:
192,256,70211,1,8,0:0:0:0:
192,128,70484,1,0,0:0:0:0:
192,256,70756,1,8,0:0:0:0:
192,256,71029,1,0,0:0:0:0:
192,128,71165,1,0,0:0:0:0:
291,144,71302,1,0,0:0:0:0:
192,128,71575,1,0,0:0:0:0:
192,256,71710,1,8,0:0:0:0:
192,128,71847,1,8,0:0:0:0:
320,256,71983,1,4,0:0:0:0:
192,128,72393,1,0,0:0:0:0:
192,128,72665,1,8,0:0:0:0:
192,128,72938,1,0,0:0:0:0:
192,128,73074,1,0,0:0:0:0:
192,128,73484,1,8,0:0:0:0:
192,256,73756,1,0,0:0:0:0:
192,128,74029,1,8,0:0:0:0:
192,128,74165,1,0,0:0:0:0:
192,128,74574,1,0,0:0:0:0:
192,128,74847,1,8,0:0:0:0:
192,128,75120,1,0,0:0:0:0:
192,128,75256,1,0,0:0:0:0:
192,256,75665,1,8,0:0:0:0:
192,256,75938,1,8,0:0:0:0:
192,128,76210,1,0,0:0:0:0:
192,128,76347,1,8,0:0:0:0:
192,128,76756,1,0,0:0:0:0:
192,256,77029,1,8,0:0:0:0:
192,128,77301,1,8,0:0:0:0:
192,128,77438,1,0,0:0:0:0:
192,128,77847,1,0,0:0:0:0:
192,128,78120,1,8,0:0:0:0:
192,128,78392,1,0,0:0:0:0:
192,128,78529,1,0,0:0:0:0:
192,128,78938,1,8,0:0:0:0:
192,128,79211,1,0,0:0:0:0:
192,128,79483,1,0,0:0:0:0:
192,256,79756,1,8,0:0:0:0:
192,256,80029,1,0,0:0:0:0:
192,256,80301,1,8,0:0:0:0:
192,256,80574,1,8,0:0:0:0:
320,128,80710,1,0,0:0:0:0:
192,128,81120,1,0,0:0:0:0:
192,128,81392,1,0,0:0:0:0:
187,136,81665,1,8,0:0:0:0:
320,128,81801,1,0,0:0:0:0:
192,128,82074,1,0,0:0:0:0:
192,256,82210,1,8,0:0:0:0:
192,128,82756,1,0,0:0:0:0:
192,128,82892,1,8,0:0:0:0:
192,256,83301,1,8,0:0:0:0:
192,128,83574,1,0,0:0:0:0:
192,256,83847,1,8,0:0:0:0:
192,128,83983,1,8,0:0:0:0:
201,125,84120,1,0,0:0:0:0:
192,128,84392,1,0,0:0:0:0:
192,128,84665,1,0,0:0:0:0:
192,256,84801,1,0,0:0:0:0:
192,256,84937,1,8,0:0:0:0:
192,256,85073,1,8,0:0:0:0:
192,256,85483,1,8,0:0:0:0:
192,128,85756,1,0,0:0:0:0:
192,128,86164,1,4,0:0:0:0:
192,128,86438,1,8,0:0:0:0:
200,125,86574,1,0,0:0:0:0:
192,128,87120,1,0,0:0:0:0:
192,128,87256,1,8,0:0:0:0:
192,128,87664,1,0,0:0:0:0:
192,128,87937,1,0,0:0:0:0:
192,128,88210,1,0,0:0:0:0:
200,125,88483,1,8,0:0:0:0:
200,125,88620,1,8,0:0:0:0:
200,125,88756,1,0,0:0:0:0:
200,125,88892,1,8,0:0:0:0:
192,128,89029,1,0,0:0:0:0:
192,128,89301,1,0,0:0:0:0:
192,256,89574,1,8,0:0:0:0:
249,196,90120,1,0,0:0:0:0:
192,256,90665,1,8,0:0:0:0:
192,256,90938,1,8,0:0:0:0:
255,194,91210,1,0,0:0:0:0:
192,256,91756,1,8,0:0:0:0:
255,194,92301,1,0,0:0:0:0:
192,224,92574,1,0,0:0:0:0:
192,256,92847,1,8,0:0:0:0:
192,224,93120,1,0,0:0:0:0:
192,256,93392,1,8,0:0:0:0:
192,256,93665,1,8,0:0:0:0:
256,192,93938,12,0,97892,0:0:0:0:
192,128,98301,5,4,0:0:0:0:
192,224,98574,1,0,0:0:0:0:
192,256,98847,1,8,0:0:0:0:
192,256,99120,1,8,0:0:0:0:
320,256,99392,1,12,0:0:0:0:
320,128,99801,1,4,0:0:0:0:
320,128,100074,1,4,0:0:0:0:
320,256,100347,1,12,0:0:0:0:
218,199,100756,1,0,0:0:0:0:
218,199,101029,1,0,0:0:0:0:
192,256,101301,1,8,0:0:0:0:
218,199,101574,1,0,0:0:0:0:
192,256,101983,1,8,0:0:0:0:
192,128,102120,1,0,0:0:0:0:
192,128,102256,1,0,0:0:0:0:
192,128,102529,1,8,0:0:0:0:
192,128,102801,1,0,0:0:0:0:
192,128,102938,1,8,0:0:0:0:
192,128,103210,1,0,0:0:0:0:
192,128,103483,1,0,0:0:0:0:
320,256,103756,1,12,0:0:0:0:
160,128,104165,1,0,0:0:0:0:
192,256,104438,1,8,0:0:0:0:
320,128,104710,1,4,0:0:0:0:
160,128,104983,1,0,0:0:0:0:
192,128,105120,1,0,0:0:0:0:
192,128,105392,1,8,0:0:0:0:
192,128,105801,1,8,0:0:0:0:
192,128,106074,1,0,0:0:0:0:
192,128,106210,1,0,0:0:0:0:
192,128,106483,1,0,0:0:0:0:
192,128,106756,1,0,0:0:0:0:
192,128,107028,1,8,0:0:0:0:
192,96,107301,1,8,0:0:0:0:
192,128,107574,1,0,0:0:0:0:
192,128,107847,1,0,0:0:0:0:
192,128,108119,1,0,0:0:0:0:
250,137,108256,1,0,0:0:0:0:
192,256,108392,1,8,0:0:0:0:
192,256,108665,1,8,0:0:0:0:
288,150,108801,1,8,0:0:0:0:
192,256,108938,1,0,0:0:0:0:
257,189,109483,1,0,0:0:0:0:
257,189,109756,1,8,0:0:0:0:
257,189,110029,1,0,0:0:0:0:
257,189,110301,1,8,0:0:0:0:
257,189,110710,1,8,0:0:0:0:
260,207,111665,1,0,0:0:0:0:
245,196,111938,1,8,0:0:0:0:
247,194,112074,1,0,0:0:0:0:
248,194,112483,1,8,0:0:0:0:
247,194,112756,1,8,0:0:0:0:
248,194,113029,1,0,0:0:0:0:
248,194,113165,1,8,0:0:0:0:
256,192,113438,1,4,0:0:0:0:
256,192,113847,1,0,0:0:0:0:
256,192,114120,1,0,0:0:0:0:
256,192,114392,1,8,0:0:0:0:
256,192,114665,1,8,0:0:0:0:
256,192,115074,1,0,0:0:0:0:
256,192,115756,1,0,0:0:0:0:
256,192,116029,1,0,0:0:0:0:
256,192,116301,1,8,0:0:0:0:
256,192,116574,1,0,0:0:0:0:
256,192,116847,1,8,0:0:0:0:
256,192,117120,1,8,0:0:0:0:
256,192,117256,1,0,0:0:0:0:
192,128,117801,1,0,0:0:0:0:
192,256,118210,1,8,0:0:0:0:
178,143,118483,1,0,0:0:0:0:
192,128,119029,1,0,0:0:0:0:
192,128,119574,1,0,0:0:0:0:
192,256,120120,1,8,0:0:0:0:
192,256,120665,1,8,0:0:0:0:
192,256,121210,1,8,0:0:0:0:
210,173,121483,1,8,0:0:0:0:
192,256,121756,1,8,0:0:0:0:
192,128,122165,1,0,0:0:0:0:
192,128,122574,1,0,0:0:0:0:
192,128,122847,1,0,0:0:0:0:
192,128,123392,1,0,0:0:0:0:
192,128,123938,1,0,0:0:0:0:
192,128,124210,1,0,0:0:0:0:
320,256,124483,1,12,0:0:0:0:
320,128,124892,1,4,0:0:0:0:
320,256,125301,1,12,0:0:0:0:
320,128,125710,1,4,0:0:0:0:
192,256,126120,1,8,0:0:0:0:
250,126,126392,1,0,0:0:0:0:
192,256,126529,1,8,0:0:0:0:
320,128,127211,1,4,0:0:0:0:
192,128,127621,1,0,0:0:0:0:
249,171,127893,1,8,0:0:0:0:
192,128,128302,1,0,0:0:0:0:
320,256,128848,1,12,0:0:0:0:
320,128,129393,1,4,0:0:0:0:
192,256,129939,1,8,0:0:0:0:
192,256,130484,1,8,0:0:0:0:
178,147,130893,1,0,0:0:0:0:
192,128,131575,1,0,0:0:0:0:
192,256,131984,1,8,0:0:0:0:
192,128,132393,1,0,0:0:0:0:
192,256,132666,1,8,0:0:0:0:
192,256,133211,1,8,0:0:0:0:
192,256,133757,1,0,0:0:0:0:
192,256,134302,1,8,0:0:0:0:
192,256,134848,1,8,0:0:0:0:
192,256,135120,1,0,0:0:0:0:
192,128,135392,1,12,0:0:0:0:
256,192,139820,1,4,0:0:0:0:
256,192,141677,1,0,0:0:0:0:
256,192,141820,1,0,0:0:0:0:
256,192,141963,1,8,0:0:0:0:
256,192,142106,1,0,0:0:0:0:
260,196,142392,1,0,0:0:0:0:
260,196,142534,1,8,0:0:0:0:
260,196,142820,1,8,0:0:0:0:
260,196,143106,1,0,0:0:0:0:
256,192,143392,1,0,0:0:0:0:
256,192,143677,1,8,0:0:0:0:
256,192,143820,1,8,0:0:0:0:
256,192,143963,1,0,0:0:0:0:
256,192,144392,1,4,0:0:0:0:
256,192,144820,1,0,0:0:0:0:
256,192,145106,1,0,0:0:0:0:
256,192,145392,1,8,0:0:0:0:
256,192,145963,1,0,0:0:0:0:
256,192,146249,1,0,0:0:0:0:
256,192,146677,1,8,0:0:0:0:
256,192,147392,1,0,0:0:0:0:
256,192,147963,1,0,0:0:0:0:
256,192,148534,1,8,0:0:0:0:
256,192,148820,1,0,0:0:0:0:
256,192,149249,1,0,0:0:0:0:
256,192,149677,1,8,0:0:0:0:
256,192,149820,1,0,0:0:0:0:
256,192,150106,1,0,0:0:0:0:
256,192,150820,1,8,0:0:0:0:
256,192,151534,1,0,0:0:0:0:
256,192,151963,1,0,0:0:0:0:
256,192,152392,1,8,0:0:0:0:
256,192,152820,1,8,0:0:0:0:
256,192,153106,1,0,0:0:0:0:
192,128,153535,1,0,0:0:0:0:
192,128,153963,1,0,0:0:0:0:
192,128,154249,1,8,0:0:0:0:
192,128,154534,1,0,0:0:0:0:
254,189,155106,1,0,0:0:0:0:
254,189,155392,1,0,0:0:0:0:
192,128,155820,1,0,0:0:0:0:
192,128,156534,1,8,0:0:0:0:
192,128,157106,1,0,0:0:0:0:
254,189,157677,1,8,0:0:0:0:
254,189,157963,1,0,0:0:0:0:
192,128,158820,1,0,0:0:0:0:
192,128,159106,1,0,0:0:0:0:
192,128,159392,1,0,0:0:0:0:
192,256,159963,1,8,0:0:0:0:
192,256,160820,1,8,0:0:0:0:
192,128,161106,1,0,0:0:0:0:
192,256,161677,1,8,0:0:0:0:
192,128,162106,1,0,0:0:0:0:
192,128,162392,1,8,0:0:0:0:
192,256,162534,1,8,0:0:0:0:
320,128,162677,1,4,0:0:0:0:
256,192,167184,5,0,0:0:0:0:
256,192,167457,1,0,0:0:0:0:
256,192,167593,1,8,0:0:0:0:
192,256,171548,5,8,0:0:0:0:
192,256,172639,1,8,0:0:0:0:
192,256,173730,1,8,0:0:0:0:
192,256,174821,1,8,0:0:0:0:
192,256,175366,1,8,0:0:0:0:
192,256,175911,1,8,0:0:0:0:
192,256,176457,1,8,0:0:0:0:
192,128,177002,1,0,0:0:0:0:
192,256,177275,1,0,0:0:0:0:
192,128,177548,1,0,0:0:0:0:
192,128,178092,1,0,0:0:0:0:
192,128,178637,1,0,0:0:0:0:
192,128,178909,1,4,0:0:0:0:
192,128,179183,1,8,0:0:0:0:
192,128,179456,1,0,0:0:0:0:
192,256,179728,1,8,0:0:0:0:
192,128,182319,5,4,0:0:0:0:
192,128,182728,1,0,0:0:0:0:
192,128,183001,1,0,0:0:0:0:
192,128,183546,1,0,0:0:0:0:
192,128,184092,1,8,0:0:0:0:
192,256,184501,1,0,0:0:0:0:
192,128,184910,1,0,0:0:0:0:
192,256,185183,1,8,0:0:0:0:
197,254,185319,1,8,0:0:0:0:
192,256,185729,1,0,0:0:0:0:
239,166,185864,1,0,0:0:0:0:
192,256,186000,1,8,0:0:0:0:
192,256,186273,1,0,0:0:0:0:
320,128,186683,1,4,0:0:0:0:
192,256,187364,1,8,0:0:0:0:
192,128,187909,1,8,0:0:0:0:
192,128,188456,1,0,0:0:0:0:
192,256,188729,1,8,0:0:0:0:
320,128,189001,1,4,0:0:0:0:
192,128,189547,1,0,0:0:0:0:
192,256,189819,1,8,0:0:0:0:
192,256,190092,1,0,0:0:0:0:
192,256,190638,1,8,0:0:0:0:
184,136,190773,1,8,0:0:0:0:
184,136,190909,1,0,0:0:0:0:
192,128,191046,1,4,0:0:0:0:
192,128,191455,1,0,0:0:0:0:
192,128,191728,1,0,0:0:0:0:
192,128,192273,1,0,0:0:0:0:
192,128,192819,1,8,0:0:0:0:
192,256,193228,1,0,0:0:0:0:
192,128,193637,1,0,0:0:0:0:
192,256,193910,1,8,0:0:0:0:
197,254,194046,1,8,0:0:0:0:
192,256,194456,1,0,0:0:0:0:
198,138,194591,1,0,0:0:0:0:
192,256,194729,1,8,0:0:0:0:
192,256,195000,1,0,0:0:0:0:
320,128,195409,1,4,0:0:0:0:
192,256,196092,1,8,0:0:0:0:
192,128,196638,1,8,0:0:0:0:
192,128,197183,1,0,0:0:0:0:
320,128,197728,1,4,0:0:0:0:
192,256,198000,1,8,0:0:0:0:
192,128,198274,1,0,0:0:0:0:
192,256,198547,1,8,0:0:0:0:
192,256,198820,1,0,0:0:0:0:
192,256,199365,1,8,0:0:0:0:
210,226,199911,1,0,0:0:0:0:
210,226,200184,1,0,0:0:0:0:
210,226,200457,1,0,0:0:0:0:
210,226,201002,1,8,0:0:0:0:
210,226,201275,1,8,0:0:0:0:
210,226,201548,1,8,0:0:0:0:
320,128,201820,1,12,0:0:0:0:
192,128,202093,1,0,0:0:0:0:
192,256,202366,1,8,0:0:0:0:
256,160,202502,1,0,0:0:0:0:
192,256,202639,1,8,0:0:0:0:
192,256,203184,1,8,0:0:0:0:
192,256,203457,1,8,0:0:0:0:
192,128,203730,1,0,0:0:0:0:
192,128,203866,1,8,0:0:0:0:
192,256,204002,1,0,0:0:0:0:
186,149,204275,1,4,0:0:0:0:
192,128,204684,1,4,0:0:0:0:
192,256,205093,1,12,0:0:0:0:
320,256,205365,1,4,0:0:0:0:
320,128,206288,1,4,0:0:0:0:
192,128,207211,1,0,0:0:0:0:
192,256,208011,1,0,0:0:0:0:
192,128,208411,1,0,0:0:0:0:
192,128,208811,1,0,0:0:0:0:
192,128,209011,1,8,0:0:0:0:
192,256,209211,1,0,0:0:0:0:
192,256,209611,1,8,0:0:0:0:
192,128,210011,1,0,0:0:0:0:
192,128,210211,1,8,0:0:0:0:
192,128,210411,1,0,0:0:0:0:
192,128,210811,1,8,0:0:0:0:
192,128,211011,1,0,0:0:0:0:
192,256,211211,1,8,0:0:0:0:
192,128,211611,1,0,0:0:0:0:
192,256,212011,1,12,0:0:0:0:
192,256,212411,1,8,0:0:0:0:
192,256,212611,1,8,0:0:0:0:
192,128,212811,1,0,0:0:0:0:
192,256,213211,1,8,0:0:0:0:
192,128,213611,1,0,0:0:0:0:
192,128,214011,1,0,0:0:0:0:
192,256,214411,1,8,0:0:0:0:
192,128,214811,1,0,0:0:0:0:
192,128,215011,1,8,0:0:0:0:
192,128,215211,1,0,0:0:0:0:
190,136,215611,1,8,0:0:0:0:
197,134,215811,1,0,0:0:0:0:
192,128,216011,1,8,0:0:0:0:
192,128,216411,1,0,0:0:0:0:
192,128,216611,1,8,0:0:0:0:
192,128,216811,1,0,0:0:0:0:
192,128,217211,1,8,0:0:0:0:
192,128,217411,1,0,0:0:0:0:
192,256,217611,1,12,0:0:0:0:
197,134,218011,1,0,0:0:0:0:
192,256,218411,1,4,0:0:0:0:
192,256,218611,1,0,0:0:0:0:
192,256,218811,1,0,0:0:0:0:
192,128,219211,1,8,0:0:0:0:
192,256,219611,1,8,0:0:0:0:
320,128,220011,1,4,0:0:0:0:
192,256,220811,1,8,0:0:0:0:
192,128,221611,1,0,0:0:0:0:
192,128,221811,1,0,0:0:0:0:
192,128,222011,1,8,0:0:0:0:
192,256,222411,1,8,0:0:0:0:
192,128,223211,1,0,0:0:0:0:
192,128,223611,1,0,0:0:0:0:
192,128,224011,1,0,0:0:0:0:
192,128,224211,1,8,0:0:0:0:
192,256,224611,1,8,0:0:0:0:
192,128,225011,1,0,0:0:0:0:
192,128,225211,1,0,0:0:0:0:
192,128,225411,1,8,0:0:0:0:
192,128,225611,1,4,0:0:0:0:
192,256,225811,1,8,0:0:0:0:
192,128,226011,1,0,0:0:0:0:
192,256,226211,1,8,0:0:0:0:
192,128,226811,1,0,0:0:0:0:
192,128,227211,1,0,0:0:0:0:
192,256,227611,1,8,0:0:0:0:
192,128,228011,1,8,0:0:0:0:
192,128,228411,1,0,0:0:0:0:
192,128,229211,1,8,0:0:0:0:
192,128,230011,1,0,0:0:0:0:
192,128,230411,1,0,0:0:0:0:
192,256,230811,1,8,0:0:0:0:
192,128,231011,1,0,0:0:0:0:
192,256,231211,1,8,0:0:0:0:
192,256,231611,1,8,0:0:0:0:
192,256,231811,1,8,0:0:0:0:
192,128,232011,1,0,0:0:0:0:
192,128,232211,1,8,0:0:0:0:
192,128,232411,1,4,0:0:0:0:
192,128,232611,1,4,0:0:0:0:
