osu file format v14

[General]
AudioFilename: audio.mp3
AudioLeadIn: 0
PreviewTime: -1
Countdown: 1
SampleSet: None
StackLeniency: 0.7
Mode: 0
LetterboxInBreaks: 0
WidescreenStoryboard: 0

[Editor]
DistanceSpacing: 1.03
BeatDivisor: 4
GridSize: 4
TimelineZoom: 1

[Metadata]
Title:Mi stuppai na fanta
TitleUnicode:Mi stuppai na fanta
Artist:Brigantony
ArtistUnicode:Brigantony
Creator:Proioxis
Version:vito una pizza al tavolo 4
Source:
Tags:
BeatmapID:1814212
BeatmapSetID:867898

[Difficulty]
HPDrainRate:6
CircleSize:4
OverallDifficulty:7
ApproachRate:9
SliderMultiplier:1.4
SliderTickRate:1

[Events]
//Background and Video events
Video,0,"Brigantony The final countdown mi stuppai na fanta.mp4"
//Break Periods
//Storyboard Layer 0 (Background)
//Storyboard Layer 1 (Fail)
//Storyboard Layer 2 (Pass)
//Storyboard Layer 3 (Foreground)
//Storyboard Sound Samples

[TimingPoints]
18913,512.820512820513,4,1,0,100,1,0
43920,512.820512820513,4,1,0,100,1,0

[HitObjects]
293,277,19682,5,0,0:0:0:0:
285,264,19810,1,0,0:0:0:0:
278,251,19938,1,0,0:0:0:0:
376,57,20451,1,0,0:0:0:0:
120,69,21733,5,0,0:0:0:0:
93,147,21861,1,0,0:0:0:0:
120,69,21989,1,0,0:0:0:0:
423,85,22246,1,0,0:0:0:0:
331,291,22502,1,0,0:0:0:0:
131,195,23784,1,0,0:0:0:0:
210,180,23913,1,0,0:0:0:0:
191,258,24041,1,0,0:0:0:0:
404,128,24554,1,0,0:0:0:0:
150,84,25964,5,0,0:0:0:0:
152,171,26092,1,0,0:0:0:0:
181,252,26220,1,0,0:0:0:0:
394,217,26477,1,0,0:0:0:0:
318,57,26733,1,0,0:0:0:0:
107,77,26989,1,0,0:0:0:0:
106,277,27246,2,0,P|210:304|293:282,1,175
341,253,28143,5,0,0:0:0:0:
177,259,28271,1,0,0:0:0:0:
261,261,28399,1,0,0:0:0:0:
126,46,28784,2,0,P|236:50|287:102,1,175
129,258,30066,5,0,0:0:0:0:
206,306,30194,1,0,0:0:0:0:
276,246,30322,1,0,0:0:0:0:
123,64,30579,1,0,0:0:0:0:
377,88,30836,2,0,P|267:69|177:91,1,175
168,192,32246,5,0,0:0:0:0:
225,252,32374,1,0,0:0:0:0:
287,308,32502,1,0,0:0:0:0:
416,74,33015,2,0,P|296:54|193:61,1,210
136,192,34297,5,0,0:0:0:0:
233,274,34425,1,0,0:0:0:0:
345,227,34554,1,0,0:0:0:0:
256,45,34810,1,0,0:0:0:0:
139,279,35066,1,0,0:0:0:0:
448,98,35323,1,0,0:0:0:0:
63,81,35579,2,0,L|97:108,1,35
401,217,36348,5,0,0:0:0:0:
394,299,36477,1,0,0:0:0:0:
313,321,36605,1,0,0:0:0:0:
94,139,37374,5,0,0:0:0:0:
96,49,37502,1,0,0:0:0:0:
192,52,37630,1,0,0:0:0:0:
419,202,37887,5,0,0:0:0:0:
93,283,38143,1,0,0:0:0:0:
205,47,38400,1,0,0:0:0:0:
398,311,38656,1,0,0:0:0:0:
63,115,39169,2,0,L|104:127,1,35
407,221,39682,2,0,L|366:210,1,35
143,234,41092,5,0,0:0:0:0:
421,105,41477,1,0,0:0:0:0:
368,194,41605,1,0,0:0:0:0:
265,256,41734,1,0,0:0:0:0:
179,265,41861,6,0,L|120:239,1,35
94,199,42118,1,0,0:0:0:0:
78,111,42246,1,0,0:0:0:0:
137,49,42374,2,0,L|191:44,1,35
252,51,42630,1,0,0:0:0:0:
327,88,42759,1,0,0:0:0:0:
386,145,42887,2,0,L|389:182,1,35
385,256,43143,1,0,0:0:0:0:
329,313,43271,1,0,0:0:0:0:
257,328,43400,2,0,B|132:309|85:231|80:165,1,245
374,79,44561,5,0,0:0:0:0:
151,285,44817,1,0,0:0:0:0:
429,188,45073,5,0,0:0:0:0:
117,124,45330,1,0,0:0:0:0:
350,53,45586,5,0,0:0:0:0:
222,283,45843,1,0,0:0:0:0:
96,91,46099,5,0,0:0:0:0:
101,125,46227,1,0,0:0:0:0:
122,108,46355,1,0,0:0:0:0:
319,236,46612,1,0,0:0:0:0:
362,233,46740,1,0,0:0:0:0:
335,272,46868,1,0,0:0:0:0:
203,54,47125,5,0,0:0:0:0:
151,113,47253,1,0,0:0:0:0:
132,197,47381,1,0,0:0:0:0:
182,269,47509,1,0,0:0:0:0:
262,302,47637,1,0,0:0:0:0:
344,298,47766,2,0,P|373:171|255:56,1,280
209,61,48920,1,0,0:0:0:0:
144,110,49048,1,0,0:0:0:0:
112,185,49176,1,0,0:0:0:0:
122,263,49304,1,0,0:0:0:0:
186,305,49432,1,0,0:0:0:0:
230,307,49561,1,0,0:0:0:0:
272,313,49689,1,0,0:0:0:0:
301,313,49817,1,0,0:0:0:0:
325,316,49945,1,0,0:0:0:0:
348,317,50073,1,0,0:0:0:0:
361,318,50201,1,0,0:0:0:0:
379,321,50329,1,0,0:0:0:0:
389,321,50457,1,0,0:0:0:0:
398,322,50585,1,0,0:0:0:0:
405,323,50714,1,0,0:0:0:0:
412,323,50842,1,0,0:0:0:0:
430,324,50970,1,0,0:0:0:0:
431,324,51098,1,0,0:0:0:0:
434,324,51226,1,0,0:0:0:0:
446,326,51355,1,0,0:0:0:0:
453,327,51483,1,0,0:0:0:0:
456,327,51611,1,0,0:0:0:0:
456,327,51739,1,0,0:0:0:0:
85,65,51996,6,0,P|140:100|149:143,1,105
122,104,53022,1,0,0:0:0:0:
152,189,53150,1,0,0:0:0:0:
226,230,53278,1,0,0:0:0:0:
402,38,53791,2,0,L|410:97,1,35
185,163,55073,1,0,0:0:0:0:
270,253,55202,1,0,0:0:0:0:
356,123,55330,1,0,0:0:0:0:
124,333,55586,6,0,L|118:282,1,35
431,332,55843,2,0,L|439:286,1,35
111,62,57125,1,0,0:0:0:0:
259,174,57253,1,0,0:0:0:0:
394,59,57381,1,0,0:0:0:0:
244,41,57894,2,0,L|243:83,1,35
129,203,59304,1,0,0:0:0:0:
126,334,59432,1,0,0:0:0:0:
264,336,59561,1,0,0:0:0:0:
265,202,59817,5,0,0:0:0:0:
264,336,60073,1,0,0:0:0:0:
71,41,60330,2,0,L|92:75,1,35
386,47,60586,2,0,L|351:85,1,35
104,254,61355,1,0,0:0:0:0:
293,231,61484,1,0,0:0:0:0:
351,297,61612,1,0,0:0:0:0:
105,153,62381,1,0,0:0:0:0:
252,331,62509,1,0,0:0:0:0:
105,153,62637,1,0,0:0:0:0:
439,71,62894,1,0,0:0:0:0:
89,42,63150,2,0,L|115:88,1,35
256,321,63407,2,0,L|231:280,1,35
335,322,63663,2,0,L|358:282,1,35
144,79,64176,6,0,L|178:100,1,35
487,227,64689,2,0,B|410:320|347:330|267:283|313:211|375:279|243:357|161:345|228:285,1,350
174,162,66227,1,0,0:0:0:0:
175,242,66355,1,0,0:0:0:0:
174,162,66484,1,0,0:0:0:0:
255,79,66612,1,0,0:0:0:0:
362,43,66740,1,0,0:0:0:0:
256,192,66996,12,0,68791,0:0:0:0:
160,131,69048,5,0,0:0:0:0:
243,280,69304,1,0,0:0:0:0:
378,121,69561,1,0,0:0:0:0:
141,311,69817,2,0,P|97:207|130:170,1,175
176,118,70843,1,0,0:0:0:0:
273,220,70971,1,0,0:0:0:0:
138,262,71099,1,0,0:0:0:0:
391,57,71355,2,0,P|338:153|354:228,1,175
387,276,72125,1,0,0:0:0:0:
359,206,72253,1,0,0:0:0:0:
349,125,72381,1,0,0:0:0:0:
376,42,72509,1,0,0:0:0:0:
376,42,72637,2,0,P|348:160|394:285,1,245
64,69,73791,5,0,0:0:0:0:
87,148,73920,1,0,0:0:0:0:
135,212,74048,1,0,0:0:0:0:
252,151,74176,1,0,0:0:0:0:
329,35,74304,1,0,0:0:0:0:
427,184,74432,1,0,0:0:0:0:
304,301,74561,1,0,0:0:0:0:
239,157,74689,1,0,0:0:0:0:
156,66,74945,6,0,P|79:73|53:169,1,175
72,74,75843,2,0,L|110:93,1,35
157,131,76099,2,0,L|196:148,1,35
251,177,76355,2,0,L|293:198,1,35
340,227,76612,2,0,L|385:245,1,35
443,270,76868,1,0,0:0:0:0:
397,163,76996,1,0,0:0:0:0:
276,272,77125,1,0,0:0:0:0:
443,270,77253,1,0,0:0:0:0:
115,83,77509,5,0,0:0:0:0:
264,301,77766,1,0,0:0:0:0:
331,97,78022,1,0,0:0:0:0:
96,217,78278,1,0,0:0:0:0:
386,197,78535,1,0,0:0:0:0:
106,67,78791,1,0,0:0:0:0:
228,319,79048,2,0,P|144:294|203:255,1,175
307,109,79945,1,0,0:0:0:0:
405,320,80202,1,0,0:0:0:0:
38,146,80458,1,0,0:0:0:0:
153,281,80714,6,0,P|210:290|261:266,1,105
349,113,81355,1,0,0:0:0:0:
498,374,81612,1,0,0:0:0:0:
56,72,81868,1,0,0:0:0:0:
70,346,82125,1,0,0:0:0:0:
385,154,82381,1,0,0:0:0:0:
196,54,82637,2,0,P|132:54|92:132,1,140
107,192,82766,1,0,0:0:0:0:
180,269,82894,1,0,0:0:0:0:
309,308,83022,1,0,0:0:0:0:
415,253,83150,1,0,0:0:0:0:
397,125,83278,1,0,0:0:0:0:
236,99,83407,1,0,0:0:0:0:
220,200,83535,1,0,0:0:0:0:
333,251,83663,1,0,0:0:0:0:
429,172,83791,1,0,0:0:0:0:
406,91,83920,6,0,P|305:37|174:68,1,245
115,248,85073,1,0,0:0:0:0:
406,95,85330,1,0,0:0:0:0:
402,297,85586,1,0,0:0:0:0:
132,95,85843,1,0,0:0:0:0:
192,340,86099,1,0,0:0:0:0:
222,85,86355,1,0,0:0:0:0:
297,329,86612,1,0,0:0:0:0:
343,93,86868,6,0,L|347:134,1,35
441,331,87125,2,0,L|406:297,1,35
111,336,87381,2,0,L|136:305,1,35
116,83,87637,2,0,L|143:118,1,35
275,207,88022,5,0,0:0:0:0:
218,115,88150,1,0,0:0:0:0:
101,155,88278,1,0,0:0:0:0:
149,273,88407,1,0,0:0:0:0:
275,207,88535,1,0,0:0:0:0:
149,273,88663,1,0,0:0:0:0:
101,155,88791,1,0,0:0:0:0:
218,115,88920,1,0,0:0:0:0:
283,217,89048,2,0,B|209:114|210:113|209:122|209:118|209:117|208:114|97:174|171:271|262:209|263:214,1,280
143,91,90330,5,0,0:0:0:0:
327,316,90586,1,0,0:0:0:0:
440,38,90843,1,0,0:0:0:0:
484,356,91099,1,0,0:0:0:0:
511,40,91355,1,0,0:0:0:0:
505,356,91612,1,0,0:0:0:0:
511,40,91868,2,0,P|16:35|16:35,1,490
144,290,93920,1,0,0:0:0:0:
441,97,94176,1,0,0:0:0:0:
264,341,94432,5,0,0:0:0:0:
186,294,94561,1,0,0:0:0:0:
170,204,94689,1,0,0:0:0:0:
349,60,94945,1,0,0:0:0:0:
431,106,95073,1,0,0:0:0:0:
468,188,95202,1,0,0:0:0:0:
349,60,95458,1,0,0:0:0:0:
435,117,95586,1,0,0:0:0:0:
471,221,95714,1,0,0:0:0:0:
123,173,95971,1,0,0:0:0:0:
169,253,96099,1,0,0:0:0:0:
243,302,96227,1,0,0:0:0:0:
324,330,96355,1,0,0:0:0:0:
243,302,96484,1,0,0:0:0:0:
165,248,96612,1,0,0:0:0:0:
119,182,96740,2,0,P|116:102|177:55,1,140
362,320,97509,5,0,0:0:0:0:
210,71,97766,1,0,0:0:0:0:
111,284,98022,1,0,0:0:0:0:
452,320,98278,2,0,L|452:277,1,35
450,217,98535,2,0,L|448:177,1,35
447,108,98791,2,0,L|446:59,1,35
58,75,99176,2,0,P|86:104|84:106,1,35
243,310,99561,1,0,0:0:0:0:
423,47,99817,1,0,0:0:0:0:
108,113,100073,2,0,B|193:82|235:136|163:189,1,175
203,132,100458,2,0,B|319:129|354:48|431:143|430:192,1,245
152,293,101612,5,0,0:0:0:0:
177,43,101868,1,0,0:0:0:0:
442,277,102125,1,0,0:0:0:0:
74,124,102381,1,0,0:0:0:0:
353,85,102637,1,0,0:0:0:0:
142,350,102894,1,0,0:0:0:0:
353,85,103150,1,0,0:0:0:0:
43,359,103407,1,0,0:0:0:0:
482,28,103663,1,0,0:0:0:0:
27,351,103920,1,0,0:0:0:0:
469,353,104176,5,0,0:0:0:0:
25,29,104304,1,0,0:0:0:0:
413,298,104561,1,0,0:0:0:0:
93,83,104817,1,0,0:0:0:0:
361,261,105073,1,0,0:0:0:0:
146,138,105330,1,0,0:0:0:0:
293,220,105586,1,0,0:0:0:0:
66,322,105843,6,0,L|101:288,1,35
176,211,106099,2,0,L|134:253,1,35
446,47,106612,2,0,L|412:73,1,35
56,97,106996,2,0,L|94:115,1,35
446,322,107381,2,0,L|410:306,1,35
136,84,108150,5,0,0:0:0:0:
283,294,108407,1,0,0:0:0:0:
438,57,108663,1,0,0:0:0:0:
90,273,109176,1,0,0:0:0:0:
346,83,109689,1,0,0:0:0:0:
418,314,110202,2,0,P|318:328|171:238,1,280
120,69,112509,5,0,0:0:0:0:
163,151,112637,1,0,0:0:0:0:
50,223,112765,1,0,0:0:0:0:
430,86,113022,1,0,0:0:0:0:
329,326,113278,1,0,0:0:0:0:
352,57,114560,1,0,0:0:0:0:
440,151,114689,1,0,0:0:0:0:
448,288,114817,1,0,0:0:0:0:
100,100,115330,1,0,0:0:0:0:
150,84,116740,5,0,0:0:0:0:
224,122,116868,1,0,0:0:0:0:
151,165,116996,1,0,0:0:0:0:
394,217,117253,1,0,0:0:0:0:
318,57,117509,1,0,0:0:0:0:
107,77,117765,1,0,0:0:0:0:
106,277,118022,2,0,P|210:304|293:282,1,175
348,178,118919,5,0,0:0:0:0:
153,247,119047,1,0,0:0:0:0:
290,310,119175,1,0,0:0:0:0:
126,46,119560,2,0,P|236:50|287:102,1,175
129,258,120842,5,0,0:0:0:0:
206,306,120970,1,0,0:0:0:0:
276,246,121098,1,0,0:0:0:0:
123,64,121355,1,0,0:0:0:0:
407,310,121612,2,0,P|297:329|207:307,1,175
114,265,123022,5,0,0:0:0:0:
229,223,123150,1,0,0:0:0:0:
307,314,123278,1,0,0:0:0:0:
416,74,123791,2,0,P|296:54|193:61,1,210
84,224,125073,5,0,0:0:0:0:
204,337,125201,1,0,0:0:0:0:
347,277,125330,1,0,0:0:0:0:
256,45,125586,1,0,0:0:0:0:
139,279,125842,1,0,0:0:0:0:
448,98,126099,1,0,0:0:0:0:
63,81,126355,2,0,L|97:108,1,35
155,103,127125,5,0,0:0:0:0:
335,289,127381,1,0,0:0:0:0:
434,90,127637,1,0,0:0:0:0:
87,140,128022,1,0,0:0:0:0:
244,303,128407,1,0,0:0:0:0:
372,146,128920,1,0,0:0:0:0:
99,72,129432,5,0,0:0:0:0:
304,259,129945,1,0,0:0:0:0:
435,41,130202,1,0,0:0:0:0:
91,303,130458,1,0,0:0:0:0:
120,55,130714,1,0,0:0:0:0:
404,222,131099,1,0,0:0:0:0:
121,326,131355,1,0,0:0:0:0:
161,112,131868,1,0,0:0:0:0:
341,260,132125,1,0,0:0:0:0:
390,73,132381,1,0,0:0:0:0:
330,298,132894,2,0,P|204:305|83:202,1,280
193,117,134176,5,0,0:0:0:0:
356,337,134432,1,0,0:0:0:0:
264,93,134689,1,0,0:0:0:0:
429,306,134945,1,0,0:0:0:0:
264,93,135202,1,0,0:0:0:0:
429,306,135458,1,0,0:0:0:0:
99,304,135714,1,0,0:0:0:0:
254,75,136099,1,0,0:0:0:0:
339,302,136484,1,0,0:0:0:0:
105,122,136868,1,0,0:0:0:0:
446,172,137381,2,0,P|430:240|350:212,1,175
436,239,137637,2,0,B|386:250|339:187|334:142|387:118|440:157,1,210
109,75,138663,5,0,0:0:0:0:
362,310,138920,1,0,0:0:0:0:
392,68,139176,1,0,0:0:0:0:
104,60,139561,2,0,L|133:89,1,35
241,296,139945,1,0,0:0:0:0:
370,123,140330,2,0,L|330:148,1,35
115,184,140714,1,0,0:0:0:0:
382,257,141099,2,0,P|384:314|201:331,1,280
359,73,142381,5,0,0:0:0:0:
149,273,142637,1,0,0:0:0:0:
434,288,142894,1,0,0:0:0:0:
116,82,143150,1,0,0:0:0:0:
344,324,143407,1,0,0:0:0:0:
406,77,143791,5,0,0:0:0:0:
128,331,144176,2,0,L|166:289,1,35
448,263,144561,2,0,P|415:254|404:252,1,35
423,105,144817,1,0,0:0:0:0:
143,246,145202,2,0,P|169:147|420:64,1,385
274,313,146996,1,0,0:0:0:0:
119,111,147253,1,0,0:0:0:0:
415,172,147509,1,0,0:0:0:0:
377,129,147637,1,0,0:0:0:0:
336,101,147766,1,0,0:0:0:0:
65,184,148022,5,0,0:0:0:0:
321,293,148278,1,0,0:0:0:0:
199,90,148535,1,0,0:0:0:0:
118,288,148920,1,0,0:0:0:0:
439,59,149304,2,0,B|322:15|352:117|239:25,1,210
109,323,150330,1,0,0:0:0:0:
297,83,150843,1,0,0:0:0:0:
433,344,151227,2,0,B|316:300|346:402|178:320,1,245
188,59,152381,5,0,0:0:0:0:
176,279,152637,1,0,0:0:0:0:
422,75,153022,1,0,0:0:0:0:
141,296,153407,1,0,0:0:0:0:
116,73,153791,1,0,0:0:0:0:
340,302,154176,1,0,0:0:0:0:
377,62,154432,1,0,0:0:0:0:
78,270,154817,1,0,0:0:0:0:
377,62,155202,1,0,0:0:0:0:
389,337,155458,1,0,0:0:0:0:
80,57,155843,6,0,L|108:83,1,35
464,53,156099,2,0,L|432:88,1,35
235,303,156484,2,0,L|232:263,1,35
266,44,156996,2,0,L|266:80,1,35
444,294,157381,2,0,L|409:273,1,35
100,96,158022,5,0,0:0:0:0:
287,217,158278,1,0,0:0:0:0:
160,275,158663,1,0,0:0:0:0:
390,61,159048,1,0,0:0:0:0:
359,328,159561,1,0,0:0:0:0:
123,106,160202,1,0,0:0:0:0:
293,277,160458,5,0,0:0:0:0:
129,207,160586,1,0,0:0:0:0:
310,206,160714,1,0,0:0:0:0:
461,67,161227,1,0,0:0:0:0:
245,187,162509,5,0,0:0:0:0:
116,257,162637,1,0,0:0:0:0:
164,312,162765,1,0,0:0:0:0:
469,142,163022,1,0,0:0:0:0:
331,291,163278,1,0,0:0:0:0:
59,82,164560,5,0,0:0:0:0:
232,125,164689,1,0,0:0:0:0:
231,200,164817,1,0,0:0:0:0:
404,128,165330,1,0,0:0:0:0:
150,84,166740,5,0,0:0:0:0:
152,171,166868,1,0,0:0:0:0:
181,252,166996,1,0,0:0:0:0:
394,217,167253,1,0,0:0:0:0:
318,57,167509,1,0,0:0:0:0:
107,77,167765,1,0,0:0:0:0:
106,277,168022,2,0,P|210:304|293:282,1,175
436,144,168919,5,0,0:0:0:0:
440,239,169047,1,0,0:0:0:0:
392,325,169175,1,0,0:0:0:0:
126,46,169560,2,0,P|236:50|287:102,1,175
129,258,170842,5,0,0:0:0:0:
206,306,170970,1,0,0:0:0:0:
276,246,171098,1,0,0:0:0:0:
123,64,171355,1,0,0:0:0:0:
480,287,171612,2,0,P|370:268|280:290,1,175
161,66,173022,5,0,0:0:0:0:
249,127,173150,1,0,0:0:0:0:
57,119,173278,1,0,0:0:0:0:
416,74,173791,2,0,P|296:54|193:61,1,210
136,192,175073,5,0,0:0:0:0:
233,274,175201,1,0,0:0:0:0:
345,227,175330,1,0,0:0:0:0:
256,45,175586,1,0,0:0:0:0:
139,279,175842,1,0,0:0:0:0:
448,98,176099,1,0,0:0:0:0:
63,81,176355,2,0,L|97:108,1,35
401,217,177124,5,0,0:0:0:0:
394,299,177253,1,0,0:0:0:0:
313,321,177381,1,0,0:0:0:0:
94,139,178150,5,0,0:0:0:0:
96,49,178278,1,0,0:0:0:0:
192,52,178406,1,0,0:0:0:0:
441,276,178663,5,0,0:0:0:0:
77,151,178919,1,0,0:0:0:0:
377,39,179176,1,0,0:0:0:0:
398,311,179432,1,0,0:0:0:0:
63,115,179945,2,0,L|104:127,1,35
407,221,180458,2,0,L|366:210,1,35
117,63,181868,2,0,L|205:65,1,70
256,67,182253,2,0,L|337:69,1,70
399,74,182637,2,0,L|112:71,1,280
256,192,183791,12,0,188663,0:0:0:0:
102,51,188920,5,0,0:0:0:0:
174,57,189048,1,0,0:0:0:0:
250,60,189176,1,0,0:0:0:0:
329,67,189304,1,0,0:0:0:0:
404,73,189432,1,0,0:0:0:0:
432,143,189561,1,0,0:0:0:0:
434,216,189689,1,0,0:0:0:0:
422,268,189817,1,0,0:0:0:0:
396,305,189945,1,0,0:0:0:0:
367,321,190073,1,0,0:0:0:0:
340,326,190202,1,0,0:0:0:0:
315,328,190330,1,0,0:0:0:0:
283,328,190458,1,0,0:0:0:0:
251,331,190586,1,0,0:0:0:0:
229,332,190714,1,0,0:0:0:0:
226,190,190843,5,0,0:0:0:0:
192,188,190971,1,0,0:0:0:0:
159,189,191099,1,0,0:0:0:0:
120,177,191227,1,0,0:0:0:0:
89,140,191355,1,0,0:0:0:0:
88,85,191484,1,0,0:0:0:0:
141,52,191612,1,0,0:0:0:0:
213,46,191740,1,0,0:0:0:0:
293,52,191868,1,0,0:0:0:0:
367,81,191996,1,0,0:0:0:0:
420,152,192125,1,0,0:0:0:0:
424,243,192253,1,0,0:0:0:0:
364,313,192381,1,0,0:0:0:0:
271,328,192509,1,0,0:0:0:0:
163,328,192637,1,0,0:0:0:0:
61,270,192766,1,0,0:0:0:0:
48,146,192894,1,0,0:0:0:0:
163,328,193022,5,0,0:0:0:0:
85,275,193150,1,0,0:0:0:0:
84,167,193278,1,0,0:0:0:0:
169,73,193407,1,0,0:0:0:0:
326,52,193535,1,0,0:0:0:0:
401,187,193663,1,0,0:0:0:0:
314,319,193791,1,0,0:0:0:0:
165,239,193920,1,0,0:0:0:0:
289,113,194048,1,0,0:0:0:0:
430,304,194176,1,0,0:0:0:0:
206,346,194304,1,0,0:0:0:0:
137,92,194432,1,0,0:0:0:0:
443,192,194561,1,0,0:0:0:0:
121,338,194689,1,0,0:0:0:0:
443,192,194817,1,0,0:0:0:0:
116,332,194945,1,0,0:0:0:0:
443,192,195073,2,0,P|415:136|356:83,1,140
144,83,195843,1,0,0:0:0:0:
115,147,195971,1,0,0:0:0:0:
93,233,196099,1,0,0:0:0:0:
116,310,196227,1,0,0:0:0:0:
186,337,196355,1,0,0:0:0:0:
270,343,196484,1,0,0:0:0:0:
168,117,196612,5,0,0:0:0:0:
215,184,196740,1,0,0:0:0:0:
286,241,196868,1,0,0:0:0:0:
371,276,196996,1,0,0:0:0:0:
455,290,197125,2,0,P|487:247|453:111,1,175
80,112,198022,5,0,0:0:0:0:
363,313,198278,1,0,0:0:0:0:
419,67,198535,1,0,0:0:0:0:
120,283,198791,1,0,0:0:0:0:
425,192,199048,1,0,0:0:0:0:
166,55,199304,2,0,B|108:96|83:169|121:155|270:96|91:164|29:182|25:191|159:200|122:162|50:83|101:159|167:216,1,280
162,211,200330,2,0,B|290:117|306:169|306:169|398:64,1,280
331,85,201355,2,0,B|255:69|238:126|238:126|235:75|235:75|205:69,1,175
154,69,202125,5,0,0:0:0:0:
121,170,202253,1,0,0:0:0:0:
135,259,202381,1,0,0:0:0:0:
222,318,202509,1,0,0:0:0:0:
314,317,202637,1,0,0:0:0:0:
365,255,202766,1,0,0:0:0:0:
324,193,202894,1,0,0:0:0:0:
250,236,203022,1,0,0:0:0:0:
250,319,203150,1,0,0:0:0:0:
163,36,203407,6,0,P|109:37|87:77,1,105
79,148,203920,1,0,0:0:0:0:
108,236,204048,1,0,0:0:0:0:
176,284,204176,1,0,0:0:0:0:
267,281,204304,1,0,0:0:0:0:
335,229,204432,2,0,P|398:162|404:103,1,140
112,64,205458,5,0,0:0:0:0:
106,147,205586,1,0,0:0:0:0:
120,233,205714,1,0,0:0:0:0:
188,301,205843,1,0,0:0:0:0:
286,335,205971,1,0,0:0:0:0:
373,333,206099,1,0,0:0:0:0:
447,288,206227,1,0,0:0:0:0:
451,204,206355,1,0,0:0:0:0:
425,114,206484,1,0,0:0:0:0:
348,62,206612,1,0,0:0:0:0:
239,73,206740,1,0,0:0:0:0:
123,132,206868,1,0,0:0:0:0:
77,252,206996,1,0,0:0:0:0:
154,348,207125,1,0,0:0:0:0:
295,363,207253,1,0,0:0:0:0:
386,281,207381,1,0,0:0:0:0:
409,152,207509,1,0,0:0:0:0:
383,34,207637,1,0,0:0:0:0:
269,290,207766,5,0,0:0:0:0:
333,168,207894,1,0,0:0:0:0:
238,36,208022,1,0,0:0:0:0:
66,67,208150,1,0,0:0:0:0:
70,243,208278,1,0,0:0:0:0:
181,325,208407,1,0,0:0:0:0:
273,322,208535,1,0,0:0:0:0:
359,287,208663,1,0,0:0:0:0:
413,223,208791,1,0,0:0:0:0:
433,152,208920,1,0,0:0:0:0:
416,100,209048,1,0,0:0:0:0:
366,70,209176,1,0,0:0:0:0:
310,59,209304,1,0,0:0:0:0:
255,64,209432,1,0,0:0:0:0:
198,80,209561,1,0,0:0:0:0:
316,230,209689,5,0,0:0:0:0:
256,236,209817,1,0,0:0:0:0:
184,223,209945,1,0,0:0:0:0:
107,187,210073,1,0,0:0:0:0:
76,85,210202,1,0,0:0:0:0:
170,42,210330,1,0,0:0:0:0:
299,35,210458,1,0,0:0:0:0:
424,116,210586,1,0,0:0:0:0:
441,255,210714,1,0,0:0:0:0:
341,345,210843,1,0,0:0:0:0:
235,344,210971,1,0,0:0:0:0:
90,248,211099,1,0,0:0:0:0:
191,76,211227,1,0,0:0:0:0:
441,144,211355,1,0,0:0:0:0:
365,361,211484,1,0,0:0:0:0:
131,337,211612,1,0,0:0:0:0:
296,113,211740,5,0,0:0:0:0:
296,88,211868,1,0,0:0:0:0:
295,64,211996,1,0,0:0:0:0:
293,50,212125,1,0,0:0:0:0:
295,43,212253,1,0,0:0:0:0:
297,30,212381,1,0,0:0:0:0:
93,169,212509,5,0,0:0:0:0:
169,247,212637,1,0,0:0:0:0:
268,277,212766,1,0,0:0:0:0:
365,287,212894,1,0,0:0:0:0:
458,268,213022,1,0,0:0:0:0:
479,172,213150,1,0,0:0:0:0:
410,143,213278,5,0,0:0:0:0:
310,211,213407,1,0,0:0:0:0:
204,173,213535,1,0,0:0:0:0:
117,125,213663,1,0,0:0:0:0:
71,44,213791,2,0,P|54:147|68:203,1,140
116,80,214689,5,0,0:0:0:0:
123,135,214817,1,0,0:0:0:0:
139,188,214945,1,0,0:0:0:0:
184,228,215073,1,0,0:0:0:0:
246,254,215202,1,0,0:0:0:0:
319,270,215330,1,0,0:0:0:0:
397,274,215458,1,0,0:0:0:0:
461,224,215586,2,0,P|471:152|461:116,1,105
463,121,215971,2,0,P|405:62|333:54,1,140
351,51,216484,2,0,B|262:49|226:58,1,105
108,257,216996,6,0,L|144:231,1,35
359,255,217509,6,0,L|326:220,1,35
100,93,218022,2,0,B|90:195|131:175|131:175|65:192|65:192|102:224|52:252|52:252|127:248|127:248|72:283|33:309|33:309|105:310|105:310|78:357,1,560
327,352,220202,2,0,B|317:250|358:270|358:270|292:253|292:253|329:221|279:193|279:193|354:197|354:197|299:162|260:136|260:136|332:135|332:135|305:88,1,560
95,318,223022,5,0,0:0:0:0:
321,305,223150,1,0,0:0:0:0:
199,216,223278,1,0,0:0:0:0:
411,59,223791,1,0,0:0:0:0:
291,105,225073,5,0,0:0:0:0:
134,224,225201,1,0,0:0:0:0:
127,56,225329,1,0,0:0:0:0:
462,291,225586,1,0,0:0:0:0:
106,140,225843,1,0,0:0:0:0:
117,61,227124,1,0,0:0:0:0:
277,125,227253,1,0,0:0:0:0:
128,280,227381,1,0,0:0:0:0:
404,128,227894,1,0,0:0:0:0:
150,84,229304,5,0,0:0:0:0:
107,256,229432,1,0,0:0:0:0:
263,279,229560,1,0,0:0:0:0:
392,45,229817,1,0,0:0:0:0:
405,313,230073,1,0,0:0:0:0:
107,77,230329,1,0,0:0:0:0:
104,314,230586,2,0,P|208:341|291:319,1,175
157,96,231355,1,0,0:0:0:0:
333,17,231483,1,0,0:0:0:0:
126,46,232124,2,0,P|236:50|287:102,1,175
81,236,233406,5,0,0:0:0:0:
234,333,233534,1,0,0:0:0:0:
382,228,233662,1,0,0:0:0:0:
231,47,233919,1,0,0:0:0:0:
363,318,234176,2,0,P|253:337|163:315,1,175
212,87,235586,5,0,0:0:0:0:
99,274,235714,1,0,0:0:0:0:
267,241,235842,1,0,0:0:0:0:
411,71,236227,2,0,P|291:51|188:58,1,210
387,318,237509,5,0,0:0:0:0:
213,326,237637,1,0,0:0:0:0:
372,172,237766,1,0,0:0:0:0:
62,37,238022,1,0,0:0:0:0:
129,290,238278,1,0,0:0:0:0:
384,67,238535,1,0,0:0:0:0:
46,132,238791,2,0,L|80:159,1,35
390,133,239560,5,0,0:0:0:0:
447,330,239689,1,0,0:0:0:0:
285,314,239817,1,0,0:0:0:0:
189,199,240586,5,0,0:0:0:0:
64,97,240714,1,0,0:0:0:0:
242,68,240842,1,0,0:0:0:0:
462,264,241099,5,0,0:0:0:0:
93,283,241355,5,0,0:0:0:0:
205,47,241612,5,0,0:0:0:0:
398,311,241868,5,0,0:0:0:0:
63,115,242381,6,0,L|104:127,1,35
407,221,242894,6,0,L|366:210,1,35
214,79,244561,5,0,0:0:0:0:
146,181,244689,1,0,0:0:0:0:
235,81,244817,1,0,0:0:0:0:
380,77,244945,1,0,0:0:0:0:
417,185,245073,6,0,L|401:226,1,35
325,288,245330,1,0,0:0:0:0:
202,303,245458,1,0,0:0:0:0:
106,260,245586,2,0,L|68:215,1,35
91,106,245842,1,0,0:0:0:0:
241,37,245971,1,0,0:0:0:0:
394,86,246099,2,0,L|397:123,1,35
425,220,246355,1,0,0:0:0:0:
358,323,246483,1,0,0:0:0:0:
238,327,246612,2,0,B|113:308|66:230|61:164,1,245
109,291,248022,5,0,0:0:0:0:
353,328,248150,1,0,0:0:0:0:
423,145,248278,1,0,0:0:0:0:
137,45,248791,1,0,0:0:0:0:
83,231,250073,5,0,0:0:0:0:
226,333,250201,1,0,0:0:0:0:
447,328,250329,1,0,0:0:0:0:
331,44,250586,1,0,0:0:0:0:
91,335,250842,1,0,0:0:0:0:
116,34,252124,1,0,0:0:0:0:
246,134,252253,1,0,0:0:0:0:
304,40,252381,1,0,0:0:0:0:
448,342,252894,1,0,0:0:0:0:
116,105,254304,5,0,0:0:0:0:
258,148,254432,1,0,0:0:0:0:
123,309,254560,1,0,0:0:0:0:
436,339,254817,1,0,0:0:0:0:
318,57,255073,1,0,0:0:0:0:
107,77,255329,1,0,0:0:0:0:
106,277,255586,2,0,P|210:304|293:282,1,175
356,258,256355,1,0,0:0:0:0:
407,174,256483,1,0,0:0:0:0:
126,46,257124,2,0,P|236:50|287:102,1,175
80,200,258278,5,0,0:0:0:0:
212,332,258406,1,0,0:0:0:0:
352,238,258534,1,0,0:0:0:0:
479,69,258791,1,0,0:0:0:0:
370,329,259048,2,0,P|260:348|170:326,1,175
48,122,260458,5,0,0:0:0:0:
217,261,260586,1,0,0:0:0:0:
419,237,260714,1,0,0:0:0:0:
416,74,261227,2,0,P|296:54|193:61,1,210
88,160,262509,5,0,0:0:0:0:
222,288,262637,1,0,0:0:0:0:
412,363,262766,1,0,0:0:0:0:
256,45,263022,1,0,0:0:0:0:
139,279,263278,1,0,0:0:0:0:
448,98,263535,1,0,0:0:0:0:
63,81,263791,2,0,L|97:108,1,35
442,169,264560,5,0,0:0:0:0:
358,315,264689,1,0,0:0:0:0:
149,307,264817,1,0,0:0:0:0:
108,298,265586,5,0,0:0:0:0:
70,96,265714,1,0,0:0:0:0:
243,46,265842,1,0,0:0:0:0:
419,202,266099,5,0,0:0:0:0:
93,283,266355,1,0,0:0:0:0:
205,47,266612,1,0,0:0:0:0:
398,311,266868,1,0,0:0:0:0:
63,115,267381,2,0,L|104:127,1,35
407,221,267894,2,0,L|366:210,1,35
94,82,269561,5,0,0:0:0:0:
106,223,269689,1,0,0:0:0:0:
266,79,269817,1,0,0:0:0:0:
311,298,269945,1,0,0:0:0:0:
86,329,270073,2,0,P|152:357|226:318,1,140
256,192,270714,12,0,272637,0:0:0:0:
293,277,273022,5,0,0:0:0:0:
112,309,273150,1,0,0:0:0:0:
153,157,273278,1,0,0:0:0:0:
465,139,273791,1,0,0:0:0:0:
246,252,275073,5,0,0:0:0:0:
67,212,275201,1,0,0:0:0:0:
188,108,275329,1,0,0:0:0:0:
492,299,275586,1,0,0:0:0:0:
144,238,275842,1,0,0:0:0:0:
84,24,277124,1,0,0:0:0:0:
282,156,277253,1,0,0:0:0:0:
477,46,277381,1,0,0:0:0:0:
213,333,277894,1,0,0:0:0:0:
184,39,279304,5,0,0:0:0:0:
404,98,279432,1,0,0:0:0:0:
435,290,279560,1,0,0:0:0:0:
67,319,279817,1,0,0:0:0:0:
91,60,280073,1,0,0:0:0:0:
396,338,280329,1,0,0:0:0:0:
106,277,280586,2,0,P|210:304|293:282,1,175
378,226,281355,5,0,0:0:0:0:
428,69,281484,1,0,0:0:0:0:
126,46,282124,2,0,P|236:50|287:102,1,175
95,253,283406,5,0,0:0:0:0:
324,359,283534,1,0,0:0:0:0:
421,215,283662,1,0,0:0:0:0:
123,64,283919,1,0,0:0:0:0:
468,49,284176,2,0,P|358:30|268:52,1,175
92,200,285458,5,0,0:0:0:0:
315,359,285586,1,0,0:0:0:0:
423,196,285714,1,0,0:0:0:0:
288,66,286227,2,0,P|168:46|65:53,1,210
146,68,287509,5,0,0:0:0:0:
140,308,287637,1,0,0:0:0:0:
185,88,287766,1,0,0:0:0:0:
440,310,288022,1,0,0:0:0:0:
89,254,288278,1,0,0:0:0:0:
448,98,288535,1,0,0:0:0:0:
63,81,288791,2,0,L|97:108,1,35
403,140,289560,5,0,0:0:0:0:
443,351,289689,1,0,0:0:0:0:
149,131,289817,1,0,0:0:0:0:
157,324,290586,5,0,0:0:0:0:
96,49,290714,1,0,0:0:0:0:
314,147,290842,1,0,0:0:0:0:
419,202,291099,5,0,0:0:0:0:
93,283,291355,1,0,0:0:0:0:
205,47,291612,1,0,0:0:0:0:
398,311,291868,1,0,0:0:0:0:
63,115,292381,2,0,L|104:127,1,35
407,221,292894,2,0,L|366:210,1,35
136,109,294561,5,0,0:0:0:0:
332,109,294689,1,0,0:0:0:0:
129,122,294817,1,0,0:0:0:0:
332,141,294945,1,0,0:0:0:0:
115,167,295074,1,0,0:0:0:0:
427,341,295458,6,0,L|396:313,1,35
113,57,295714,6,0,L|136:88,1,35
142,339,295971,6,0,L|178:292,1,35
109,82,296612,1,0,0:0:0:0:
416,87,296868,5,0,0:0:0:0:
393,273,296996,1,0,0:0:0:0:
219,318,297125,2,0,P|130:277|103:230,1,140
256,192,297766,12,0,314304,0:0:0:0:
