osu file format v14

[General]
AudioFilename: audio.ogg
AudioLeadIn: 0
PreviewTime: 45657
Countdown: 0
SampleSet: Soft
StackLeniency: 0.5
Mode: 0
LetterboxInBreaks: 0
WidescreenStoryboard: 1

[Editor]
DistanceSpacing: 1.1
BeatDivisor: 2
GridSize: 32
TimelineZoom: 4

[Metadata]
Title:Determinate (Nightcore Mix)
TitleUnicode:Determinate (Nightcore Mix)
Artist:Bridgit Mendler, Adam Hicks, Naomi Scott and Hayley Kiyoko
ArtistUnicode:Bridgit Mendler, Adam Hicks, Naomi Scott and Hayley Kiyoko
Creator:AJT
Version:inti's Hard
Source:Lemonade Mouth
Tags:english pop rock nightcore disney channel original movie soundtrack blake michael kuki1537 sylas thekoala moonpoint intiaz nyantiaz
BeatmapID:4452670
BeatmapSetID:2104449

[Difficulty]
HPDrainRate:4.5
CircleSize:3.5
OverallDifficulty:6
ApproachRate:7.5
SliderMultiplier:1.5
SliderTickRate:1

[Events]
//Background and Video events
0,0,"bg.jpeg",0,0
//Break Periods
2,65056,66775
2,103457,105175
//Storyboard Layer 0 (Background)
//Storyboard Layer 1 (Fail)
//Storyboard Layer 2 (Pass)
//Storyboard Layer 3 (Foreground)
//Storyboard Layer 4 (Overlay)
//Storyboard Sound Samples

[TimingPoints]
400,685.714285714286,4,2,1,60,1,0
28857,-100,4,2,1,5,0,0
29200,342.857142857143,4,2,1,60,1,0
40171,-117.647058823529,4,2,1,60,0,0
45657,-90.9090909090909,4,2,1,70,0,1
64857,-117.647058823529,4,2,1,60,0,0
67600,-100,4,2,1,60,0,0
78571,-117.647058823529,4,2,1,60,0,0
84057,-90.9090909090909,4,2,1,70,0,1
95800,-90.9090909090909,4,2,1,35,0,1
95885,-90.9090909090909,4,2,1,70,0,1
96314,-90.9090909090909,4,2,1,35,0,1
96399,-90.9090909090909,4,2,1,70,0,1
98028,-90.9090909090909,4,2,1,35,0,1
98113,-90.9090909090909,4,2,1,70,0,1
98542,-90.9090909090909,4,2,1,35,0,1
98627,-90.9090909090909,4,2,1,70,0,1
99057,-90.9090909090909,4,2,1,35,0,1
99142,-90.9090909090909,4,2,1,70,0,1
99571,-90.9090909090909,4,2,1,35,0,1
99656,-90.9090909090909,4,2,1,70,0,1
103257,-117.647058823529,4,2,1,60,0,0
106000,-100,4,2,1,60,0,0
107371,-100,4,2,1,60,0,0
122457,-90.9090909090909,4,2,1,70,0,1
144057,-90.9090909090909,4,2,1,65,0,0
144400,-90.9090909090909,4,2,1,70,0,1
154771,-90.9090909090909,4,2,1,35,0,1
154856,-90.9090909090909,4,2,1,70,0,1
155371,-90.9090909090909,4,2,1,60,0,0

[Colours]
Combo1 : 255,192,0
Combo2 : 255,128,0
Combo3 : 128,128,128
Combo4 : 128,64,0

[HitObjects]
208,97,29200,6,0,P|144:65|48:65,1,150,4|8,1:2|0:0,0:0:0:0:
16,126,29714,2,0,L|24:204,1,75,2|0,0:0|1:0,0:0:0:0:
94,253,30057,1,2,0:0:0:0:
94,253,30228,2,0,L|86:331,1,75,8|0,0:0|0:0,0:0:0:0:
192,304,30571,6,0,B|260:285|260:285|340:309,1,150,4|8,1:3|0:0,0:0:0:0:
418,338,31085,1,2,0:0:0:0:
418,338,31257,2,0,P|421:300|404:254,1,75,0|2,1:0|0:0,0:0:0:0:
440,187,31600,2,0,P|408:165|360:157,1,75,8|2,0:0|0:0,0:0:0:0:
307,74,31942,6,0,P|246:116|227:187,1,150,4|8,1:3|0:0,0:0:0:0:
167,245,32457,2,0,L|76:232,1,75,2|0,0:0|1:0,0:0:0:0:
36,173,32800,1,2,0:0:0:0:
36,173,32971,2,0,L|49:82,1,75,8|2,0:0|0:0,0:0:0:0:
145,47,33314,5,0,1:0:0:0:
307,74,33657,2,0,L|435:99,1,112.5,8|0,0:0|0:0,0:0:0:0:
443,128,34000,2,0,L|417:256,1,112.5,0|0,1:0|0:0,0:0:0:0:
389,264,34342,1,8,0:0:0:0:
228,238,34685,6,0,B|166:223|154:172|85:164,1,150,4|8,1:3|0:0,0:0:0:0:
28,120,35200,2,0,P|15:159|28:200,1,75,2|0,0:0|1:0,0:0:0:0:
49,273,35542,1,2,0:0:0:0:
49,273,35714,2,0,P|62:312|49:353,1,75,8|2,0:0|0:0,0:0:0:0:
163,319,36057,5,2,0:0:0:0:
326,344,36400,2,0,P|318:307|331:272,1,75,8|2,0:0|0:0,0:0:0:0:
392,217,36742,2,0,L|477:229,2,75,0|2|8,1:0|0:0|0:0,0:0:0:0:
321,137,37257,1,2,0:0:0:0:
321,137,37428,6,0,B|275:121|221:123|221:123|199:72,1,150,4|8,1:3|0:0,0:0:0:0:
247,9,37942,2,0,B|270:17|297:15|297:15|306:38,1,75,2|0,0:0|1:0,0:0:0:0:
391,63,38285,1,2,0:0:0:0:
391,63,38457,2,0,B|400:85|400:85|427:84|450:92,1,75,8|2,0:0|0:0,0:0:0:0:
512,176,38800,5,0,1:3:0:0:
376,269,39142,2,0,L|245:277,1,112.5,8|0,0:0|0:0,0:0:0:0:
231,252,39485,2,0,L|222:121,1,112.5,0|0,1:0|0:0,0:0:0:0:
248,107,39827,1,8,0:0:0:0:
112,14,40171,6,0,P|78:13|32:88,1,127.50000243187,0|2,1:3|1:2,0:0:0:0:
45,243,40857,2,0,P|44:277|119:323,1,127.50000243187,0|2,1:3|1:2,0:0:0:0:
274,310,41542,2,0,P|308:311|354:236,1,127.50000243187,0|0,1:3|1:3,0:0:0:0:
339,164,42057,1,2,0:0:0:0:
339,164,42228,2,0,L|328:99,1,63.7500012159348,0|2,1:3|0:0,0:0:0:0:
378,38,42571,2,0,B|405:24|405:24|442:33,1,63.7500012159348,0|2,1:3|0:0,0:0:0:0:
499,103,42914,6,0,L|513:233,1,127.50000243187,0|2,1:3|1:2,0:0:0:0:
399,331,43600,2,0,L|273:309,1,127.50000243187,0|2,1:3|1:2,0:0:0:0:
215,255,44114,1,2,0:0:0:0:
215,255,44285,2,1,L|89:276,1,127.50000243187,14|2,1:3|0:0,0:0:0:0:
13,142,44971,2,0,L|7:68,1,63.7500012159348,2|0,0:0|0:0,0:0:0:0:
85,49,45314,2,0,L|90:112,1,63.7500012159348,2|0,0:0|0:0,0:0:0:0:
174,179,45657,6,0,B|235:170|223:127|283:115,1,123.75000377655,4|0,1:0|0:0,0:0:0:0:
317,94,46000,1,8,1:0:0:0:
390,146,46171,1,2,0:0:0:0:
463,94,46342,2,0,P|483:161|491:245,1,123.75000377655,0|0,1:0|0:0,0:0:0:0:
478,258,46685,1,8,1:0:0:0:
474,367,46857,6,0,P|431:374|383:347,1,82.5000025177003,2|0,0:0|1:0,0:0:0:0:
326,301,47200,1,2,0:0:0:0:
249,349,47371,1,8,1:0:0:0:
249,349,47542,1,2,0:0:0:0:
172,301,47714,2,0,L|180:215,1,82.5000025177003,0|0,1:0|0:0,0:0:0:0:
126,144,48057,2,0,L|134:58,1,82.5000025177003,8|0,1:0|0:0,0:0:0:0:
235,25,48400,5,0,1:0:0:0:
322,54,48571,2,0,L|425:47,1,82.5000025177003,2|8,0:0|1:0,0:0:0:0:
479,100,48914,2,0,B|463:160|506:167|488:238,1,123.75000377655,2|0,0:0|0:0,0:0:0:0:
471,261,49257,1,2,0:0:0:0:
404,322,49428,2,0,L|321:316,1,82.5000025177003,8|0,1:0|0:0,0:0:0:0:
256,224,49771,6,0,L|338:218,1,82.5000025177003,0|2,1:0|0:0,0:0:0:0:
368,132,50114,1,8,1:0:0:0:
322,54,50285,2,0,L|170:64,1,123.75000377655,2|0,0:0|0:0,0:0:0:0:
153,65,50628,1,2,0:0:0:0:
62,71,50800,1,8,1:0:0:0:
174,230,51142,6,0,L|256:224,1,82.5000025177003,0|0,1:0|0:0,0:0:0:0:
326,165,51485,1,8,1:0:0:0:
411,194,51656,1,2,0:0:0:0:
496,165,51828,2,0,L|486:33,1,123.75000377655,0|0,1:0|0:0,0:0:0:0:
455,9,52171,1,8,1:0:0:0:
358,65,52342,6,0,L|226:55,1,123.75000377655,2|0,0:0|0:0,0:0:0:0:
202,24,52685,1,2,0:0:0:0:
112,40,52857,1,8,1:0:0:0:
112,40,53028,1,2,0:0:0:0:
22,56,53200,2,0,B|16:97|16:97|28:138,1,82.5000025177003,0|0,1:0|0:0,0:0:0:0:
99,191,53542,2,0,B|110:230|110:230|104:271,1,82.5000025177003,8|0,1:0|0:0,0:0:0:0:
192,352,53885,5,0,1:0:0:0:
256,288,54057,1,2,0:0:0:0:
256,288,54228,1,8,1:0:0:0:
320,352,54400,2,0,B|381:343|369:300|429:288,1,123.75000377655,2|0,0:0|0:0,0:0:0:0:
463,267,54743,1,2,0:0:0:0:
506,187,54914,2,0,P|460:175|403:204,1,82.5000025177003,8|0,1:0|0:0,0:0:0:0:
324,210,55257,5,0,1:0:0:0:
260,146,55429,1,2,0:0:0:0:
260,146,55600,1,8,1:0:0:0:
173,170,55771,2,0,P|113:185|39:147,1,123.75000377655,2|0,0:0|0:0,0:0:0:0:
32,126,56114,1,2,0:0:0:0:
32,35,56285,1,8,1:0:0:0:
210,1,56628,6,0,P|264:-5|317:26,2,82.5000025177003,6|0|8,1:0|0:0|1:0,0:0:0:0:
181,87,57142,2,0,L|172:175,2,82.5000025177003,2|0|0,0:1|1:0|0:0,0:0:0:0:
267,116,57657,2,0,L|258:204,2,82.5000025177003,10|0|0,1:0|0:0|1:0,0:0:0:0:
353,145,58171,2,0,L|344:233,2,82.5000025177003,2|8|0,0:1|1:0|0:0,0:0:0:0:
382,60,58685,2,0,B|422:51|422:51|476:69,1,82.5000025177003,2|0,1:0|0:0,0:0:0:0:
504,144,59028,2,0,L|513:232,1,82.5000025177003,10|0,1:0|0:0,0:0:0:0:
424,276,59371,6,0,L|415:364,2,82.5000025177003,2|0|8,1:0|0:0|1:0,0:0:0:0:
344,227,59885,2,0,B|304:213|304:213|264:222,2,82.5000025177003,2|0|0,0:1|1:0|0:0,0:0:0:0:
344,135,60400,2,0,B|304:121|304:121|264:130,2,82.5000025177003,10|0|0,1:0|0:0|1:0,0:0:0:0:
344,43,60914,2,0,B|304:29|304:29|264:38,2,82.5000025177003,2|8|0,0:1|1:0|0:0,0:0:0:0:
423,89,61428,2,0,P|458:109|479:151,1,82.5000025177003,2|0,1:0|0:0,0:0:0:0:
398,191,61771,2,0,P|363:170|344:135,1,82.5000025177003,10|0,1:0|0:0,0:0:0:0:
347,23,62114,5,0,1:0:0:0:
169,57,62457,1,8,1:0:0:0:
81,33,62628,1,2,0:0:0:0:
35,111,62800,2,0,L|25:237,1,123.75000377655,0|0,1:0|0:0,0:0:0:0:
36,277,63142,1,8,1:0:0:0:
142,251,63314,6,0,P|220:234|258:239,1,82.5000025177003,2|0,0:0|1:0,0:0:0:0:
310,253,63657,1,2,0:0:0:0:
328,164,63828,1,8,1:0:0:0:
328,164,64000,1,2,0:0:0:0:
346,75,64171,2,0,P|386:78|425:91,1,82.5000025177003,0|0,1:0|0:0,0:0:0:0:
488,157,64514,2,0,L|478:283,1,123.75000377655,8|0,1:0|0:0,0:0:0:0:
489,323,64856,5,0,1:3:0:0:
489,323,67600,6,0,P|397:308|326:304,1,150,4|8,1:2|0:0,0:0:0:0:
262,332,68114,2,0,B|256:291|256:291|270:259,1,75,2|0,0:0|1:0,0:0:0:0:
315,190,68457,1,2,0:0:0:0:
315,190,68628,2,0,B|320:149|320:149|306:117,1,75,8|2,0:0|0:0,0:0:0:0:
233,42,68971,6,0,P|158:47|84:60,1,150,4|8,1:3|0:0,0:0:0:0:
48,135,69485,1,2,0:0:0:0:
48,135,69657,2,0,B|41:214,1,75,0|2,1:0|0:0,0:0:0:0:
122,225,70000,2,0,B|130:151,1,75,8|2,0:0|0:0,0:0:0:0:
206,202,70342,6,0,B|268:187|280:136|349:128,1,150,4|8,1:3|0:0,0:0:0:0:
395,72,70857,2,0,P|439:79|481:80,1,75,2|0,0:0|1:0,0:0:0:0:
508,158,71200,1,2,0:0:0:0:
508,158,71371,2,0,P|501:202|500:244,1,75,8|2,0:0|0:0,0:0:0:0:
417,274,71714,5,0,1:0:0:0:
335,130,72057,2,0,B|291:134|281:175|231:187,1,112.5,8|0,0:0|0:0,0:0:0:0:
206,202,72400,2,0,B|174:172|186:132|150:106,1,112.5,0|0,1:0|0:0,0:0:0:0:
134,72,72742,1,8,0:0:0:0:
21,192,73085,6,0,P|40:269|45:362,1,150,4|8,1:3|0:0,0:0:0:0:
130,325,73600,1,2,0:0:0:0:
130,325,73771,2,0,P|196:323|234:344,1,75,0|2,1:0|0:0,0:0:0:0:
286,326,74114,2,0,P|322:319|359:325,1,75,8|2,0:0|0:0,0:0:0:0:
450,327,74457,5,4,1:3:0:0:
471,164,74800,2,0,P|458:129|466:92,1,75,8|2,0:0|0:0,0:0:0:0:
405,38,75142,2,0,L|334:8,2,75,0|2|8,1:0|0:0|0:0,0:0:0:0:
360,118,75657,1,2,0:0:0:0:
360,118,75828,6,0,B|260:132|260:132|211:105,1,150,4|8,1:3|0:0,0:0:0:0:
142,71,76342,2,0,P|126:104|126:141,1,75,2|0,0:0|1:0,0:0:0:0:
64,196,76685,1,2,0:0:0:0:
64,196,76857,2,0,P|79:229|79:266,1,75,8|2,0:0|0:0,0:0:0:0:
144,334,77200,5,0,1:3:0:0:
314,334,77542,2,0,L|445:342,1,112.5,8|0,0:0|0:0,0:0:0:0:
459,317,77885,2,0,L|467:199,1,112.5,0|0,1:0|0:0,0:0:0:0:
471,164,78227,1,8,0:0:0:0:
403,26,78571,6,0,B|373:18|373:18|272:32,1,127.50000243187,0|0,1:3|1:3,0:0:0:0:
118,44,79257,2,0,B|110:74|110:74|124:175,1,127.50000243187,0|0,1:3|1:3,0:0:0:0:
136,329,79942,2,0,B|166:337|166:337|267:323,1,127.50000243187,0|0,1:3|1:3,0:0:0:0:
320,269,80457,1,2,0:0:0:0:
320,269,80628,2,0,B|324:251|324:251|316:190,1,63.7500012159348,0|2,1:3|0:0,0:0:0:0:
264,147,80971,2,0,B|246:142|246:142|185:150,1,63.7500012159348,0|2,1:3|0:0,0:0:0:0:
123,169,81314,6,0,P|64:157|25:86,1,127.50000243187,0|0,1:3|1:3,0:0:0:0:
149,0,82000,2,0,P|208:12|247:83,1,127.50000243187,0|0,1:3|1:3,0:0:0:0:
264,147,82514,1,2,0:0:0:0:
264,147,82685,2,1,P|299:198|360:211,1,127.50000243187,14|2,1:3|0:0,0:0:0:0:
489,118,83371,2,0,L|495:44,1,63.7500012159348,2|0,0:0|0:0,0:0:0:0:
417,25,83714,2,0,L|412:88,1,63.7500012159348,2|0,0:0|0:0,0:0:0:0:
377,191,84057,6,0,P|316:177|280:126,1,123.75000377655,4|0,1:0|0:0,0:0:0:0:
274,84,84400,1,8,1:0:0:0:
198,33,84571,1,2,0:0:0:0:
122,84,84742,2,0,P|76:126|71:188,1,123.75000377655,0|0,1:0|0:0,0:0:0:0:
86,228,85085,1,8,1:0:0:0:
77,327,85257,6,0,P|117:315|180:306,1,82.5000025177003,2|0,0:0|1:0,0:0:0:0:
231,255,85600,1,2,0:0:0:0:
300,321,85771,1,8,1:0:0:0:
300,321,85942,1,2,0:0:0:0:
370,263,86114,2,0,P|362:222|350:182,1,82.5000025177003,0|0,1:0|0:0,0:0:0:0:
416,119,86457,2,0,P|423:78|435:38,1,82.5000025177003,8|0,1:0|0:0,0:0:0:0:
340,4,86800,5,0,1:0:0:0:
260,47,86971,1,2,0:0:0:0:
260,47,87142,1,8,1:0:0:0:
180,90,87314,2,0,P|120:72|59:61,1,123.75000377655,2|0,0:0|0:0,0:0:0:0:
21,87,87657,1,2,0:0:0:0:
1,175,87828,2,0,P|-6:212|18:247,1,82.5000025177003,8|0,1:0|0:0,0:0:0:0:
108,293,88171,5,0,1:0:0:0:
147,212,88342,1,2,0:0:0:0:
147,212,88514,1,8,1:0:0:0:
227,251,88686,2,0,P|269:295|317:335,1,123.75000377655,2|0,0:0|0:0,0:0:0:0:
362,332,89029,1,2,0:0:0:0:
449,310,89200,1,8,1:0:0:0:
488,136,89542,6,0,P|455:112|416:119,2,82.5000025177003,0|0|8,1:0|0:0|1:0,0:0:0:0:
432,209,90057,1,2,0:0:0:0:
345,176,90228,2,0,L|313:50,1,123.75000377655,0|0,1:0|0:0,0:0:0:0:
279,26,90571,1,8,1:0:0:0:
200,91,90742,6,0,L|168:217,1,123.75000377655,2|0,0:0|0:0,0:0:0:0:
134,241,91085,1,2,0:0:0:0:
49,206,91257,1,8,1:0:0:0:
49,206,91428,1,2,0:0:0:0:
14,291,91600,2,0,L|36:379,1,82.5000025177003,0|0,1:0|0:0,0:0:0:0:
124,365,91942,2,0,P|175:361|202:334,1,82.5000025177003,8|0,1:0|0:0,0:0:0:0:
256,256,92285,5,0,1:0:0:0:
205,180,92457,2,0,L|199:83,1,82.5000025177003,2|8,0:0|1:0,0:0:0:0:
275,47,92800,2,0,L|410:38,1,123.75000377655,2|0,0:0|0:0,0:0:0:0:
443,33,93142,1,2,0:0:0:0:
497,105,93314,2,0,L|491:187,1,82.5000025177003,8|2,1:0|0:0,0:0:0:0:
414,257,93657,6,0,L|419:339,1,82.5000025177003,0|2,1:0|0:0,0:0:0:0:
335,303,94000,1,8,1:0:0:0:
250,339,94171,2,0,L|256:257,1,82.5000025177003,2|0,0:0|1:0,0:0:0:0:
176,210,94514,1,2,0:0:0:0:
175,197,94599,1,2,0:0:0:0:
174,185,94685,1,8,1:0:0:0:
263,26,95028,6,0,P|209:20|156:51,2,82.5000025177003,6|0|8,1:0|0:0|1:0,0:0:0:0:
331,87,95542,2,0,L|340:175,2,82.5000025177003,2|0|0,0:1|1:0|0:0,0:0:0:0:
245,116,96057,2,0,L|254:204,2,82.5000025177003,10|0|0,1:0|0:0|1:0,0:0:0:0:
159,145,96571,2,0,L|168:233,2,82.5000025177003,2|8|0,0:1|1:0|0:0,0:0:0:0:
130,60,97085,2,0,B|90:51|90:51|36:69,1,82.5000025177003,2|0,1:0|0:0,0:0:0:0:
8,144,97428,2,0,L|-1:232,1,82.5000025177003,10|0,1:0|0:0,0:0:0:0:
88,276,97771,6,0,L|97:364,2,82.5000025177003,2|0|8,1:0|0:0|1:0,0:0:0:0:
168,227,98285,2,0,B|208:213|208:213|248:222,2,82.5000025177003,2|0|0,0:1|1:0|0:0,0:0:0:0:
168,135,98800,2,0,B|208:121|208:121|248:130,2,82.5000025177003,10|0|0,1:0|0:0|1:0,0:0:0:0:
168,43,99314,2,0,B|208:29|208:29|248:38,2,82.5000025177003,2|8|0,0:1|1:0|0:0,0:0:0:0:
89,89,99828,2,0,P|54:109|33:151,1,82.5000025177003,2|0,1:0|0:0,0:0:0:0:
114,191,100171,2,0,P|149:170|168:135,1,82.5000025177003,10|0,1:0|0:0,0:0:0:0:
165,23,100514,5,0,1:0:0:0:
334,89,100857,1,8,1:0:0:0:
422,107,101028,1,2,0:0:0:0:
404,195,101200,2,0,L|384:323,1,123.75000377655,0|0,1:0|0:0,0:0:0:0:
353,349,101542,1,8,1:0:0:0:
256,288,101714,6,0,B|212:281|212:281|168:303,1,82.5000025177003,2|0,0:0|1:0,0:0:0:0:
87,309,102057,1,2,0:0:0:0:
76,218,102228,1,8,1:0:0:0:
76,218,102400,1,2,0:0:0:0:
65,127,102571,2,0,L|60:37,1,82.5000025177003,0|0,1:0|0:0,0:0:0:0:
146,14,102914,2,0,L|150:96,1,82.5000025177003,8|0,1:0|0:0,0:0:0:0:
233,157,103257,5,0,1:3:0:0:
233,157,106000,5,4,1:2:0:0:
164,203,106171,1,2,0:0:0:0:
157,212,106257,1,2,0:0:0:0:
150,221,106342,2,0,L|59:208,1,75,8|2,0:0|0:0,0:0:0:0:
35,138,106685,2,0,L|48:47,1,75,0|0,1:0|0:0,0:0:0:0:
118,23,107028,2,0,L|209:36,1,75,10|2,0:1|0:1,0:0:0:0:
283,90,107371,6,0,L|346:80,2,37.5,4|2|2,1:3|0:0|0:0,0:0:0:0:
233,157,107714,2,0,L|246:247,1,75,8|2,0:0|0:0,0:0:0:0:
293,298,108057,2,0,P|333:303|380:273,1,75,0|2,1:0|0:0,0:0:0:0:
436,248,108400,2,0,L|499:257,2,37.5,10|2|2,0:1|0:0|0:1,0:0:0:0:
399,161,108742,5,4,1:3:0:0:
394,150,108828,1,2,0:0:0:0:
390,139,108913,1,2,0:0:0:0:
433,68,109085,2,0,P|398:27|360:22,1,75,8|2,0:0|0:0,0:0:0:0:
368,24,109342,1,2,0:0:0:0:
357,27,109428,2,0,P|308:50|293:85,1,75,0|2,1:0|0:0,0:0:0:0:
220,95,109771,2,0,L|176:84,2,37.5,10|2|2,0:1|0:0|0:1,0:0:0:0:
274,187,110114,5,0,1:0:0:0:
185,326,110457,2,0,L|54:334,1,112.5,8|0,0:0|0:0,0:0:0:0:
40,309,110800,2,0,L|31:178,1,112.5,0|2,1:0|0:0,0:0:0:0:
57,164,111142,1,8,0:0:0:0:
10,5,111485,6,0,P|75:17|163:46,1,150,4|8,1:3|0:0,0:0:0:0:
228,81,112000,1,2,0:0:0:0:
239,79,112085,1,2,0:0:0:0:
250,77,112171,1,0,1:0:0:0:
323,40,112342,1,2,0:0:0:0:
391,84,112514,2,0,L|383:126,2,37.5,10|2|2,0:1|0:0|0:1,0:0:0:0:
477,28,112857,5,2,0:0:0:0:
488,192,113200,2,0,P|454:228|408:227,1,75,8|2,0:0|0:0,0:0:0:0:
417,313,113542,2,0,P|368:301|346:261,1,75,0|2,1:0|0:0,0:0:0:0:
276,312,113885,1,10,0:1:0:0:
269,302,113970,1,2,0:0:0:0:
264,292,114056,1,2,0:1:0:0:
256,192,114228,5,2,0:0:0:0:
149,65,114571,2,0,L|74:72,1,75,8|2,0:0|0:0,0:0:0:0:
67,80,114828,1,2,0:0:0:0:
60,89,114914,1,0,1:0:0:0:
18,160,115085,1,2,0:0:0:0:
60,231,115257,2,0,L|51:320,1,75,10|2,0:1|0:1,0:0:0:0:
130,359,115600,5,0,1:3:0:0:
255,253,115942,2,0,B|299:257|309:298|359:310,1,112.5,8|2,0:0|0:0,0:0:0:0:
384,325,116285,2,0,B|416:295|404:255|440:229,1,112.5,0|2,1:0|0:0,0:0:0:0:
456,195,116627,1,8,0:0:0:0:
374,50,116971,6,0,P|333:29|243:88,2,150,4|8|0,1:3|0:0|1:0,0:0:0:0:
358,131,117828,1,2,0:0:0:0:
355,142,117914,1,2,0:0:0:0:
352,153,118000,1,10,0:1:0:0:
287,203,118171,1,2,0:1:0:0:
222,153,118342,6,0,L|132:139,1,75,4|2,1:3|0:0,0:0:0:0:
79,187,118685,1,8,0:0:0:0:
65,268,118857,2,0,L|55:331,2,37.5,2|2|0,0:0|0:0|1:0,0:0:0:0:
146,282,119200,1,2,0:0:0:0:
227,296,119371,2,0,L|301:307,1,75,10|2,0:1|0:1,0:0:0:0:
351,232,119714,6,0,P|323:208|287:203,1,75,4|0,1:3|0:0,0:0:0:0:
222,153,120057,2,0,P|234:118|263:94,1,75,8|0,0:0|0:0,0:0:0:0:
314,29,120400,1,0,1:0:0:0:
234,6,120571,1,2,0:0:0:0:
223,6,120657,1,2,0:0:0:0:
213,6,120742,2,0,P|176:9|145:30,1,75,10|2,0:1|0:1,0:0:0:0:
64,97,121085,5,0,1:3:0:0:
108,256,121428,2,0,L|193:354,1,112.5,8|0,0:0|0:0,0:0:0:0:
213,367,121771,2,0,L|310:280,1,112.5,0|0,1:0|0:0,0:0:0:0:
336,302,122113,1,8,0:0:0:0:
454,167,122457,6,0,P|425:111|338:96,1,123.75000377655,4|0,1:0|0:0,0:0:0:0:
325,95,122800,1,8,1:0:0:0:
235,110,122971,1,2,0:0:0:0:
145,125,123142,2,0,P|139:81|127:46,1,82.5000025177003,0|0,1:0|0:0,0:0:0:0:
44,84,123485,1,8,1:0:0:0:
46,198,123657,6,0,P|85:211|125:216,1,82.5000025177003,2|0,0:0|1:0,0:0:0:0:
214,188,124000,1,2,0:0:0:0:
305,215,124171,1,8,1:0:0:0:
305,215,124342,1,2,0:0:0:0:
278,306,124514,2,0,P|253:337|229:383,1,82.5000025177003,0|0,1:0|0:3,0:0:0:0:
148,339,124857,2,0,P|112:360|74:375,1,82.5000025177003,8|0,1:0|0:3,0:0:0:0:
28,278,125200,6,0,P|33:237|46:198,1,82.5000025177003,0|0,1:0|0:0,0:0:0:0:
104,128,125542,1,8,1:0:0:0:
65,45,125714,2,0,P|120:38|179:76,1,123.75000377655,2|0,0:0|0:0,0:0:0:0:
206,106,126057,1,2,0:0:0:0:
288,68,126228,2,0,P|328:73|368:85,1,82.5000025177003,8|0,1:0|0:0,0:0:0:0:
452,165,126571,6,0,P|411:170|371:182,1,82.5000025177003,0|2,1:0|0:0,0:0:0:0:
322,259,126914,1,8,1:0:0:0:
232,243,127085,2,0,P|168:247|93:240,1,123.75000377655,2|0,0:0|0:0,0:0:0:0:
68,221,127428,1,2,0:0:0:0:
39,307,127600,1,8,1:0:0:0:
217,342,127942,6,0,P|257:347|297:359,1,82.5000025177003,0|0,1:0|0:0,0:0:0:0:
385,338,128285,1,8,1:0:0:0:
385,338,128457,1,2,0:0:0:0:
472,316,128628,2,0,P|489:236|468:198,1,123.75000377655,0|0,1:0|0:0,0:0:0:0:
433,175,128971,1,8,1:0:0:0:
351,134,129142,6,0,P|310:139|270:151,1,82.5000025177003,2|0,0:0|1:0,0:0:0:0:
198,206,129485,1,2,0:0:0:0:
143,133,129657,1,8,1:0:0:0:
143,133,129828,1,2,0:0:0:0:
216,78,130000,2,0,P|255:65|296:60,1,82.5000025177003,0|0,1:0|0:3,0:0:0:0:
373,13,130342,2,0,P|413:18|453:30,1,82.5000025177003,8|0,1:0|0:3,0:0:0:0:
503,107,130685,5,0,1:0:0:0:
439,171,130857,1,2,0:0:0:0:
439,171,131028,1,8,1:0:0:0:
416,259,131200,2,0,B|407:320|364:308|352:368,1,123.75000377655,2|0,0:0|0:0,0:0:0:0:
310,376,131543,1,2,0:0:0:0:
227,335,131714,2,0,P|215:289|244:232,1,82.5000025177003,8|2,1:0|0:0,0:0:0:0:
274,153,132057,5,0,1:0:0:0:
184,136,132228,1,2,0:0:0:0:
184,136,132400,1,8,1:0:0:0:
94,119,132571,2,0,P|98:60|148:10,1,123.75000377655,2|0,0:0|0:0,0:0:0:0:
185,12,132914,1,2,0:0:0:0:
275,29,133085,1,8,1:0:0:0:
436,111,133428,6,0,L|445:199,2,82.5000025177003,6|0|8,1:0|0:3|1:0,0:0:0:0:
350,140,133943,2,0,L|359:228,2,82.5000025177003,2|0|0,0:1|1:0|0:3,0:0:0:0:
264,169,134457,2,0,L|273:257,2,82.5000025177003,10|0|0,1:0|0:3|1:0,0:0:0:0:
178,198,134971,2,0,L|187:286,2,82.5000025177003,2|8|0,0:1|1:0|0:3,0:0:0:0:
92,227,135485,2,0,L|101:315,1,82.5000025177003,2|0,1:0|0:3,0:0:0:0:
169,369,135828,2,0,L|251:360,1,82.5000025177003,10|0,1:0|0:3,0:0:0:0:
311,292,136171,6,0,L|302:209,2,82.5000025177003,2|0|8,1:0|0:3|1:0,0:0:0:0:
397,263,136685,2,0,L|388:175,2,82.5000025177003,2|0|0,0:1|1:0|0:3,0:0:0:0:
483,234,137200,2,0,L|474:146,2,82.5000025177003,10|0|0,1:0|0:3|1:0,0:0:0:0:
465,322,137714,1,2,0:1:0:0:
465,322,137885,2,0,P|407:349|365:377,1,82.5000025177003,8|0,1:0|0:3,0:0:0:0:
300,366,138228,2,0,P|264:345|168:313,1,123.75000377655,2|0,1:0|0:0,0:0:0:0:
141,313,138571,1,10,1:0:0:0:
29,169,138914,6,0,P|65:148|161:116,1,123.75000377655,0|0,1:0|0:0,0:0:0:0:
188,116,139257,1,8,1:0:0:0:
256,175,139428,1,2,0:0:0:0:
324,116,139600,2,0,P|360:137|456:169,1,123.75000377655,0|0,1:0|0:0,0:0:0:0:
483,169,139943,1,8,1:0:0:0:
481,78,140114,6,0,P|454:62|382:38,1,82.5000025177003,2|0,0:0|1:0,0:0:0:0:
319,17,140457,1,2,0:0:0:0:
230,37,140628,1,8,1:0:0:0:
230,37,140800,1,2,0:0:0:0:
141,17,140971,2,0,P|125:44|101:116,1,82.5000025177003,0|0,1:0|0:3,0:0:0:0:
32,143,141314,2,0,P|52:178|66:217,1,82.5000025177003,8|0,1:0|0:3,0:0:0:0:
144,297,141657,6,0,P|131:352|143:375,2,82.5000025177003,0|0|8,1:0|0:3|1:0,0:0:0:0:
224,254,142171,2,0,P|280:241|344:258,1,123.75000377655,2|0,0:0|0:0,0:0:0:0:
385,273,142514,1,2,0:0:0:0:
460,222,142685,2,0,L|484:143,1,82.5000025177003,8|2,1:0|0:0,0:0:0:0:
407,59,143028,6,0,L|383:138,1,82.5000025177003,0|2,1:0|0:0,0:0:0:0:
293,153,143371,1,8,1:0:0:0:
293,153,143542,1,2,0:0:0:0:
203,138,143714,2,0,L|179:59,2,82.5000025177003,2|2|2,1:0|0:1|0:0,0:0:0:0:
256,320,144400,5,4,1:2:0:0:
169,347,144571,1,2,0:0:0:0:
169,347,144742,2,0,L|90:323,1,82.5000025177003,8|2,1:0|0:0,0:0:0:0:
29,255,145085,1,0,1:0:0:0:
90,187,145257,1,2,0:1:0:0:
90,187,145428,2,0,L|169:163,1,82.5000025177003,10|2,1:0|0:0,0:0:0:0:
256,96,145771,6,0,P|256:49|250:5,2,82.5000025177003,0|2|8,1:0|0:0|1:0,0:0:0:0:
337,137,146285,1,2,0:0:0:0:
418,96,146457,1,0,1:0:0:0:
418,96,146628,1,2,0:0:0:0:
499,137,146800,2,0,P|499:184|505:228,1,82.5000025177003,8|2,1:0|0:0,0:0:0:0:
411,282,147142,6,0,P|411:329|405:373,1,82.5000025177003,2|2,1:0|0:0,0:0:0:0:
322,329,147485,2,0,L|235:335,1,82.5000025177003,8|2,1:0|0:0,0:0:0:0:
188,259,147828,2,0,L|101:253,2,82.5000025177003,0|2|8,1:0|0:0|1:0,0:0:0:0:
239,183,148342,1,2,0:0:0:0:
307,108,148514,6,0,P|320:61|309:11,1,82.5000025177003,0|2,1:0|0:1,0:0:0:0:
226,17,148857,2,0,P|213:64|224:114,1,82.5000025177003,8|2,1:0|0:1,0:0:0:0:
154,159,149200,1,0,1:2:0:0:
154,159,149371,1,2,1:2:0:0:
90,221,149542,1,8,1:0:0:0:
81,311,149713,1,2,1:0:0:0:
0,270,149885,5,4,1:2:0:0:
18,89,150228,1,8,1:0:0:0:
90,34,150400,1,2,0:0:0:0:
162,89,150571,2,0,L|304:98,1,123.75000377655,0|0,1:0|0:0,0:0:0:0:
322,70,150914,2,0,P|381:57|412:64,1,82.5000025177003,8|0,1:0|0:0,0:0:0:0:
488,110,151257,5,0,1:0:0:0:
495,290,151600,1,8,1:0:0:0:
423,345,151772,1,2,0:0:0:0:
351,290,151943,2,0,L|209:281,1,123.75000377655,0|0,1:0|0:0,0:0:0:0:
191,309,152286,2,0,P|132:322|101:315,1,82.5000025177003,8|0,1:0|0:0,0:0:0:0:
48,229,152628,6,0,P|66:171|87:148,1,82.5000025177003,0|2,1:0|0:0,0:0:0:0:
161,115,152971,1,8,1:0:0:0:
161,115,153142,1,2,0:0:0:0:
244,150,153314,2,0,P|301:152|352:79,1,123.75000377655,0|0,1:0|0:0,0:0:0:0:
344,62,153657,2,0,P|298:7|276:7,1,82.5000025177003,8|0,1:0|0:0,0:0:0:0:
184,27,154000,6,0,L|93:21,1,82.5000025177003,0|2,1:0|0:0,0:0:0:0:
33,81,154342,1,8,1:0:0:0:
101,140,154514,2,0,B|77:204|119:205|77:287,1,123.75000377655,2|0,0:0|0:0,0:0:0:0:
110,301,154857,1,2,0:0:0:0:
199,287,155028,2,0,L|368:280,1,165.000005035401,8|4,1:0|0:0,0:0:0:0:
