osu file format v14

[General]
AudioFilename: audio.ogg
AudioLeadIn: 0
PreviewTime:45657
Countdown: 0
SampleSet: Soft
StackLeniency: 0.5
Mode: 0
LetterboxInBreaks: 0
WidescreenStoryboard: 1

[Editor]
DistanceSpacing: 1
BeatDivisor: 2
GridSize: 16
TimelineZoom: 1.6

[Metadata]
Title:Determinate (Nightcore Mix)
TitleUnicode:Determinate (Nightcore Mix)
Artist:Bridgit Mendler, Adam Hicks, Naomi Scott and Hayley Kiyoko
ArtistUnicode:Bridgit Mendler, Adam Hicks, Naomi Scott and Hayley Kiyoko
Creator:AJT
Version:Normal
Source:Lemonade Mouth
Tags:english pop rock nightcore disney channel original movie soundtrack blake michael kuki1537 sylas thekoala moonpoint intiaz nyantiaz
BeatmapID:4442268
BeatmapSetID:2104449

[Difficulty]
HPDrainRate:3
CircleSize:3
OverallDifficulty:4
ApproachRate:5.5
SliderMultiplier:0.999999999999999
SliderTickRate:1

[Events]
//Background and Video events
0,0,"bg.jpeg",0,0
//Break Periods
2,65057,66475
2,103457,104875
//Storyboard Layer 0 (Background)
//Storyboard Layer 1 (Fail)
//Storyboard Layer 2 (Pass)
//Storyboard Layer 3 (Foreground)
//Storyboard Layer 4 (Overlay)
//Storyboard Sound Samples

[TimingPoints]
400,685.714285714286,4,2,1,60,1,0
28857,-100,4,2,1,5,0,0
29200,342.857142857143,4,2,1,60,1,0
45657,-90.9090909090909,4,2,1,70,0,1
64857,-100,4,2,1,60,0,0
84057,-90.9090909090909,4,2,1,70,0,1
95800,-90.9090909090909,4,2,1,35,0,1
95885,-90.9090909090909,4,2,1,70,0,1
96314,-90.9090909090909,4,2,1,35,0,1
96399,-90.9090909090909,4,2,1,70,0,1
98028,-90.9090909090909,4,2,1,35,0,1
98113,-90.9090909090909,4,2,1,70,0,1
98542,-90.9090909090909,4,2,1,35,0,1
98627,-90.9090909090909,4,2,1,70,0,1
99057,-90.9090909090909,4,2,1,35,0,1
99142,-90.9090909090909,4,2,1,70,0,1
99571,-90.9090909090909,4,2,1,35,0,1
99656,-90.9090909090909,4,2,1,70,0,1
103257,-90.9090909090909,4,2,1,60,0,0
106000,-95.2380952380952,4,2,1,60,0,0
122457,-86.9565217391304,4,2,1,70,0,1
144057,-100,4,2,1,65,0,0
144400,-86.9565217391304,4,2,1,70,0,1
154771,-86.9565217391304,4,2,1,35,0,1
154856,-86.9565217391304,4,2,1,70,0,1
155371,-100,4,2,1,60,0,0

[Colours]
Combo1 : 255,192,0
Combo2 : 255,128,0
Combo3 : 128,128,128
Combo4 : 128,64,0

[HitObjects]
256,192,26457,12,0,28514,0:0:0:0:
359,384,29200,6,0,P|403:296|411:235,1,150,4|2,1:2|0:0,0:0:0:0:
463,160,30057,2,0,L|535:150,2,50,2|8|0,0:0|0:0|0:0,0:0:0:0:
437,116,30571,2,0,B|370:81|364:136|282:82,1,150,4|2,1:3|0:0,0:0:0:0:
196,116,31428,2,0,L|189:165,1,50,2|8,0:0|0:0,0:0:0:0:
221,204,31771,1,2,0:0:0:0:
205,251,31942,6,0,B|138:285|132:230|50:284,1,150,4|2,1:3|0:0,0:0:0:0:
116,360,32800,2,0,L|165:367,1,50,2|8,0:0|0:0,0:0:0:0:
219,376,33142,1,2,0:0:0:0:
219,376,33314,1,0,1:0:0:0:
300,318,33657,1,8,0:0:0:0:
323,220,34000,1,0,1:0:0:0:
299,123,34342,1,8,0:0:0:0:
207,81,34685,6,0,B|149:95|149:95|127:117|127:117|67:131,2,150,4|2|8,1:3|0:0|0:0,0:0:0:0:
251,103,35885,1,2,0:0:0:0:
343,228,36400,1,8,0:0:0:0:
343,228,36571,2,0,B|347:281|347:281|315:330,1,99.9999999999999,2|0,0:0|0:0,0:0:0:0:
281,351,37085,2,0,P|254:356|230:365,1,50,8|2,0:0|0:0,0:0:0:0:
184,378,37428,6,0,B|190:285|156:331|165:222,1,150,4|2,1:3|0:0,0:0:0:0:
93,161,38285,2,0,P|69:164|47:176,2,50,2|8|2,0:0|0:0|0:0,0:0:0:0:
114,115,38799,1,0,1:3:0:0:
175,36,39142,1,8,0:0:0:0:
259,90,39485,1,0,1:0:0:0:
341,34,39827,1,8,0:0:0:0:
414,102,40171,1,0,1:3:0:0:
256,192,40342,12,0,42914,1:3:0:0:
256,192,43085,12,14,44285,1:3:0:0:
0,192,45657,6,0,P|51:185|124:183,1,110.000003356934,4|8,1:0|1:0,0:0:0:0:
138,235,46171,1,2,0:0:0:0:
138,235,46342,2,0,P|170:270|229:251,1,110.000003356934,0|8,1:0|1:0,0:0:0:0:
256,209,46857,2,0,P|288:174|347:193,1,110.000003356934,2|0,0:0|0:0,0:0:0:0:
378,230,47371,2,0,L|369:294,2,55.0000016784668,8|2|0,1:0|0:0|1:0,0:0:0:0:
486,208,48057,1,8,1:0:0:0:
508,100,48400,1,0,1:0:0:0:
402,69,48742,5,8,1:0:0:0:
373,17,48914,2,0,P|318:19|263:26,1,110.000003356934,2|2,0:0|0:0,0:0:0:0:
240,76,49428,2,0,P|185:78|130:85,1,110.000003356934,8|0,1:0|1:0,0:0:0:0:
119,194,50113,1,8,1:0:0:0:
148,246,50285,2,0,P|203:244|258:237,1,110.000003356934,2|2,0:0|0:0,0:0:0:0:
281,187,50799,2,0,P|336:185|391:178,1,110.000003356934,8|0,1:0|1:0,0:0:0:0:
489,249,51485,5,8,1:0:0:0:
489,249,51657,1,2,0:0:0:0:
489,249,51828,2,0,P|506:293|463:337,1,110.000003356934,0|8,1:0|1:0,0:0:0:0:
432,377,52343,2,0,P|371:368|303:364,1,110.000003356934,2|0,0:0|0:0,0:0:0:0:
284,325,52857,2,0,L|229:332,1,55.0000016784668,8|2,1:0|0:0,0:0:0:0:
183,363,53200,1,0,1:0:0:0:
96,295,53542,1,8,1:0:0:0:
156,202,53885,1,0,1:0:0:0:
75,127,54228,5,8,1:0:0:0:
104,75,54400,2,0,P|159:77|214:84,1,110.000003356934,2|2,0:0|0:0,0:0:0:0:
237,134,54914,2,0,P|292:136|347:143,1,110.000003356934,8|0,1:0|1:0,0:0:0:0:
356,197,55428,1,2,0:0:0:0:
356,252,55600,1,8,1:0:0:0:
341,309,55772,2,0,P|287:321|232:328,1,110.000003356934,2|2,0:0|0:0,0:0:0:0:
198,287,56286,1,8,1:0:0:0:
106,347,56628,5,6,1:0:0:0:
34,198,57142,1,2,0:1:0:0:
126,61,57657,1,10,1:0:0:0:
275,0,58171,1,2,0:1:0:0:
432,64,58685,1,2,1:0:0:0:
480,162,59028,1,10,1:0:0:0:
470,271,59371,6,0,P|401:317|324:304,1,165.0000050354,2|2,1:0|0:1,0:0:0:0:
172,370,60400,2,0,P|126:301|139:224,1,165.0000050354,10|2,1:0|0:1,0:0:0:0:
291,162,61428,1,2,1:0:0:0:
195,107,61771,2,0,P|183:27|172:-19,1,110.000003356934,10|0,1:0|1:0,0:0:0:0:
77,46,62457,6,0,P|82:85|88:109,1,55.0000016784668,8|2,1:0|0:0,0:0:0:0:
56,146,62800,2,0,P|37:203|36:257,1,110.000003356934,0|8,1:0|1:0,0:0:0:0:
55,304,63314,2,0,P|107:332|160:342,1,110.000003356934,2|0,0:0|0:0,0:0:0:0:
195,303,63828,1,8,1:0:0:0:
249,297,64000,1,2,0:0:0:0:
275,344,64171,1,0,1:0:0:0:
357,271,64514,1,8,1:0:0:0:
335,173,64857,1,0,1:3:0:0:
153,0,67600,6,0,P|109:88|101:149,1,150,4|2,1:2|0:0,0:0:0:0:
49,224,68457,2,0,L|-23:234,2,50,2|8|2,0:0|0:0|0:0,0:0:0:0:
74,268,68971,2,0,B|117:290|121:255|174:289,1,99.9999999999999,4|8,1:3|0:0,0:0:0:0:
219,296,69485,1,2,0:0:0:0:
314,265,69828,1,2,0:0:0:0:
343,224,70000,2,0,P|349:200|346:175,1,50,8|2,0:0|0:0,0:0:0:0:
312,138,70342,6,0,B|376:99|386:153|464:94,1,150,4|2,1:3|0:0,0:0:0:0:
396,24,71200,1,2,0:0:0:0:
396,24,71371,1,8,0:0:0:0:
293,8,71714,1,0,1:0:0:0:
212,66,72057,1,8,0:0:0:0:
189,164,72400,1,0,1:0:0:0:
213,261,72742,1,8,0:0:0:0:
305,303,73085,6,0,P|365:274|382:189,2,150,4|2|8,1:3|0:0|0:0,0:0:0:0:
261,281,74285,1,2,0:0:0:0:
261,281,74457,2,0,P|206:285|159:253,1,99.9999999999999,4|8,1:3|0:0,0:0:0:0:
144,219,74971,1,2,0:0:0:0:
125,120,75314,1,2,0:0:0:0:
153,78,75485,2,0,P|180:73|204:64,1,50,8|2,0:0|0:0,0:0:0:0:
228,23,75828,6,0,B|321:17|275:51|384:42,1,150,4|2,1:3|0:0,0:0:0:0:
417,138,76685,1,2,0:0:0:0:
417,138,76857,2,0,P|395:150|370:153,1,50,8|2,0:0|0:0,0:0:0:0:
357,201,77199,1,0,1:3:0:0:
396,293,77542,1,8,0:0:0:0:
296,301,77885,1,0,1:0:0:0:
219,365,78227,1,8,0:0:0:0:
122,339,78571,1,0,1:3:0:0:
256,192,78742,12,0,81314,1:3:0:0:
256,192,81485,12,14,82685,1:3:0:0:
512,192,84057,6,0,P|461:199|388:201,1,110.000003356934,4|8,1:0|1:0,0:0:0:0:
374,149,84571,1,2,0:0:0:0:
374,149,84742,2,0,P|342:114|283:133,1,110.000003356934,0|8,1:0|1:0,0:0:0:0:
256,175,85257,2,0,P|224:210|165:191,1,110.000003356934,2|2,0:0|0:0,0:0:0:0:
134,154,85771,2,0,L|143:90,2,55.0000016784668,8|2|0,1:0|0:0|1:0,0:0:0:0:
26,176,86457,1,8,1:0:0:0:
4,284,86800,1,0,1:0:0:0:
110,315,87142,5,8,1:0:0:0:
139,367,87314,2,0,P|194:365|249:358,1,110.000003356934,2|2,0:0|0:0,0:0:0:0:
272,308,87828,2,0,P|327:306|382:299,1,110.000003356934,8|0,1:0|1:0,0:0:0:0:
396,246,88342,1,2,0:0:0:0:
393,190,88513,1,8,1:0:0:0:
364,138,88685,2,0,P|309:140|254:147,1,110.000003356934,2|2,0:0|0:0,0:0:0:0:
219,189,89199,1,8,1:0:0:0:
109,189,89541,1,0,1:0:0:0:
23,135,89885,5,8,1:0:0:0:
23,135,90057,1,2,0:0:0:0:
23,135,90228,2,0,P|6:91|49:47,1,110.000003356934,0|8,1:0|1:0,0:0:0:0:
80,7,90743,1,2,0:0:0:0:
189,19,91085,1,2,0:0:0:0:
228,59,91257,2,0,L|283:52,1,55.0000016784668,8|2,1:0|0:0,0:0:0:0:
329,21,91600,1,0,1:0:0:0:
416,89,91942,1,8,1:0:0:0:
356,182,92285,1,0,1:0:0:0:
437,257,92628,5,8,1:0:0:0:
408,309,92800,2,0,P|353:307|298:300,1,110.000003356934,2|2,0:0|0:0,0:0:0:0:
275,250,93314,2,0,P|220:248|165:241,1,110.000003356934,8|0,1:0|1:0,0:0:0:0:
156,187,93828,1,2,0:0:0:0:
156,132,94000,1,8,1:0:0:0:
171,75,94172,1,2,0:0:0:0:
279,56,94514,1,2,0:0:0:0:
314,97,94686,1,8,1:0:0:0:
406,37,95028,5,6,1:0:0:0:
478,186,95542,1,2,0:1:0:0:
386,323,96057,1,10,1:0:0:0:
237,384,96571,1,2,0:1:0:0:
80,320,97085,1,2,1:0:0:0:
32,222,97428,1,10,1:0:0:0:
54,114,97771,5,2,1:0:0:0:
180,8,98285,1,2,0:1:0:0:
344,21,98800,1,10,1:0:0:0:
451,146,99314,1,2,0:1:0:0:
438,310,99828,1,2,1:0:0:0:
347,372,100171,1,10,1:0:0:0:
241,341,100514,1,0,1:0:0:0:
297,246,100857,6,0,P|292:207|286:183,1,55.0000016784668,8|2,1:0|0:0,0:0:0:0:
338,168,101200,2,0,P|357:111|358:57,1,110.000003356934,0|8,1:0|1:0,0:0:0:0:
308,37,101714,2,0,P|256:9|203:-1,1,110.000003356934,2|2,0:0|0:0,0:0:0:0:
152,12,102228,1,8,1:0:0:0:
108,43,102400,1,2,0:0:0:0:
120,96,102571,1,0,1:0:0:0:
208,161,102914,1,8,1:0:0:0:
172,265,103257,1,0,1:3:0:0:
266,384,106000,6,0,L|275:324,1,52.4999983978271,4|2,1:2|0:0,0:0:0:0:
316,302,106342,2,0,L|325:242,1,52.4999983978271,8|2,0:0|0:0,0:0:0:0:
369,223,106685,2,0,L|378:163,2,52.4999983978271,0|0|10,1:0|0:0|0:1,0:0:0:0:
275,174,107371,2,0,L|215:165,1,52.4999983978271,4|2,1:3|0:0,0:0:0:0:
193,124,107713,1,8,0:0:0:0:
141,116,107884,1,2,0:0:0:0:
114,71,108056,2,0,L|54:62,2,52.4999983978271,0|2|10,1:0|0:0|0:1,0:0:0:0:
203,15,108742,5,4,1:3:0:0:
254,22,108913,1,2,0:0:0:0:
285,65,109085,2,0,L|345:74,1,52.4999983978271,8|2,0:0|0:0,0:0:0:0:
364,118,109427,2,0,L|424:127,2,52.4999983978271,0|2|10,1:0|0:0|0:1,0:0:0:0:
275,175,110114,5,0,1:0:0:0:
282,226,110285,1,2,0:0:0:0:
325,257,110457,1,8,0:0:0:0:
351,358,110799,1,0,1:0:0:0:
249,382,111141,1,8,0:0:0:0:
151,341,111485,6,0,B|129:292|129:292|78:289|78:289|85:241|85:241|30:229|30:229|39:188|39:188|94:155|94:155|84:96|84:96|131:76,1,419.999987182617,4|2,1:3|0:0,0:0:0:0:
215,24,113200,2,0,P|237:43|261:46,1,52.4999983978271,8|2,0:0|0:0,0:0:0:0:
307,66,113542,2,0,P|333:55|361:60,1,52.4999983978271,0|2,1:0|0:0,0:0:0:0:
408,53,113885,1,10,0:1:0:0:
452,80,114056,1,2,0:1:0:0:
464,131,114228,1,2,0:0:0:0:
418,224,114571,6,0,L|343:214,1,52.4999983978271,8|2,0:0|0:0,0:0:0:0:
315,208,114914,1,0,1:0:0:0:
263,201,115085,1,2,0:0:0:0:
211,192,115257,1,10,0:1:0:0:
149,276,115600,6,0,P|115:283|74:266,1,52.4999983978271,0|2,1:3|0:0,0:0:0:0:
61,242,115942,1,8,0:0:0:0:
26,142,116285,1,0,1:0:0:0:
86,56,116628,1,8,0:0:0:0:
179,7,116971,6,0,P|233:10|276:37,2,104.999996795654,4|8|0,1:3|0:0|1:0,0:0:0:0:
128,21,117828,1,2,0:0:0:0:
86,56,118000,2,0,P|96:95|113:116,1,52.4999983978271,10|2,0:1|0:1,0:0:0:0:
130,149,118342,1,4,1:3:0:0:
98,249,118685,2,0,P|127:248|150:230,1,52.4999983978271,8|2,0:0|0:0,0:0:0:0:
190,263,119028,2,0,P|209:241|213:212,1,52.4999983978271,0|2,1:0|0:0,0:0:0:0:
242,174,119371,1,10,0:1:0:0:
292,158,119542,1,2,0:1:0:0:
341,177,119714,6,0,P|355:225|362:281,1,104.999996795654,4|8,1:3|0:0,0:0:0:0:
421,379,120400,1,0,1:0:0:0:
421,379,120571,1,2,0:0:0:0:
421,379,120742,2,0,L|492:370,1,52.4999983978271,10|2,0:1|0:1,0:0:0:0:
506,331,121085,2,0,P|520:307|521:271,1,52.4999983978271,0|2,1:3|0:0,0:0:0:0:
510,231,121428,1,8,0:0:0:0:
458,139,121771,1,0,1:0:0:0:
360,99,122114,1,8,0:0:0:0:
246,116,122457,1,4,1:0:0:0:
270,228,122800,6,0,P|268:264|259:291,1,57.5000010967254,8|2,1:0|0:0,0:0:0:0:
229,338,123143,2,0,P|172:357|114:358,1,115.000002193451,0|8,1:0|1:0,0:0:0:0:
70,325,123657,1,2,0:0:0:0:
0,241,124000,1,2,0:0:0:0:
0,241,124171,2,0,P|1:207|14:181,1,57.5000010967254,8|2,1:0|0:0,0:0:0:0:
44,138,124514,2,0,P|95:118|155:117,1,115.000002193451,0|8,1:0|1:0,0:0:0:0:
214,216,125200,1,0,1:0:0:0:
145,308,125542,5,8,1:0:0:0:
174,360,125714,2,0,P|229:358|294:348,1,115.000002193451,2|2,0:0|0:0,0:0:0:0:
344,338,126228,1,8,1:0:0:0:
453,303,126571,2,0,P|462:274|464:227,1,57.5000010967254,0|2,1:0|0:0,0:0:0:0:
474,190,126913,1,8,1:0:0:0:
445,138,127085,2,0,P|390:140|329:149,1,115.000002193451,2|2,0:0|0:0,0:0:0:0:
294,194,127600,2,0,P|239:196|178:205,1,115.000002193451,8|0,1:0|1:0,0:0:0:0:
79,261,128285,5,8,1:0:0:0:
77,318,128457,1,2,0:0:0:0:
115,360,128628,1,0,1:0:0:0:
219,311,128971,1,8,1:0:0:0:
241,257,129143,1,2,0:0:0:0:
146,191,129485,1,2,0:0:0:0:
106,152,129657,2,0,P|105:122|116:98,1,57.5000010967254,8|2,1:0|0:0,0:0:0:0:
146,48,130000,1,0,1:0:0:0:
245,104,130342,1,8,1:0:0:0:
338,36,130685,5,0,1:0:0:0:
437,94,131028,1,8,1:0:0:0:
489,123,131200,1,2,0:0:0:0:
407,204,131542,1,2,0:0:0:0:
458,230,131714,2,0,P|456:285|448:350,1,115.000002193451,8|0,1:0|1:0,0:0:0:0:
399,373,132228,1,2,0:0:0:0:
341,381,132400,1,8,1:0:0:0:
283,373,132572,1,2,0:0:0:0:
236,268,132914,1,2,0:0:0:0:
265,218,133086,1,8,1:0:0:0:
296,107,133428,5,6,1:0:0:0:
223,25,133771,1,8,1:0:0:0:
223,25,133942,1,2,0:1:0:0:
112,14,134285,1,2,0:3:0:0:
112,14,134456,1,10,1:0:0:0:
13,71,134800,1,0,1:0:0:0:
13,71,134971,1,2,0:1:0:0:
5,189,135314,1,2,0:3:0:0:
5,189,135485,1,2,1:0:0:0:
66,285,135828,1,10,1:0:0:0:
159,352,136171,6,0,P|222:349|279:326,1,115.000002193451,2|8,1:0|1:0,0:0:0:0:
314,367,136685,2,0,P|369:337|411:292,1,115.000002193451,2|2,0:1|0:3,0:0:0:0:
364,260,137200,2,0,P|402:209|421:151,1,115.000002193451,10|0,1:0|1:0,0:0:0:0:
475,151,137714,2,0,P|488:89|480:28,1,115.000002193451,2|2,0:1|0:3,0:0:0:0:
437,2,138228,1,2,1:0:0:0:
358,85,138571,2,0,P|296:98|235:90,1,115.000002193451,10|0,1:0|1:0,0:0:0:0:
162,12,139257,5,8,1:0:0:0:
104,6,139428,1,2,0:0:0:0:
53,34,139600,2,0,P|34:91|40:152,1,115.000002193451,0|8,1:0|1:0,0:0:0:0:
0,197,140114,2,0,P|37:259|81:287,1,115.000002193451,2|2,0:0|0:3,0:0:0:0:
85,338,140628,1,8,1:0:0:0:
141,348,140800,1,2,0:0:0:0:
190,319,140971,1,0,1:0:0:0:
256,225,141314,1,8,1:0:0:0:
200,124,141657,1,0,1:0:0:0:
286,48,142000,5,8,1:0:0:0:
315,0,142172,2,0,P|370:2|435:12,1,115.000002193451,2|2,0:0|0:0,0:0:0:0:
480,37,142686,1,8,1:0:0:0:
414,131,143029,2,0,P|423:160|425:207,1,57.5000010967254,0|2,1:0|0:0,0:0:0:0:
384,226,143371,2,0,P|388:266|406:299,1,57.5000010967254,8|2,1:0|0:0,0:0:0:0:
434,323,143714,1,2,1:0:0:0:
423,378,143885,1,2,0:1:0:0:
250,368,144400,6,0,P|210:364|177:346,1,57.5000010967254,4|2,1:2|0:0,0:0:0:0:
153,318,144743,1,8,1:0:0:0:
173,205,145085,2,0,P|133:201|100:183,1,57.5000010967254,0|2,1:0|0:1,0:0:0:0:
74,155,145428,1,10,1:0:0:0:
96,41,145771,2,0,P|56:37|23:19,1,57.5000010967254,0|2,1:0|0:0,0:0:0:0:
0,0,146114,2,0,P|-5:59|11:135,1,115.000002193451,8|0,1:0|1:0,0:0:0:0:
13,229,146800,1,8,1:0:0:0:
114,281,147142,6,0,P|153:274|185:253,1,57.5000010967254,2|2,1:0|0:0,0:0:0:0:
208,224,147485,1,8,1:0:0:0:
277,315,147828,2,0,P|316:321|348:342,1,57.5000010967254,0|2,1:0|0:0,0:0:0:0:
371,372,148171,1,8,1:0:0:0:
442,281,148514,2,0,P|448:241|469:209,1,57.5000010967254,0|2,1:0|0:1,0:0:0:0:
499,187,148857,1,8,1:0:0:0:
499,187,149028,1,2,0:1:0:0:
471,136,149200,2,0,P|464:96|443:64,1,57.5000010967254,0|2,1:2|1:2,0:0:0:0:
431,29,149542,2,0,P|392:18|354:23,1,57.5000010967254,8|2,1:0|1:0,0:0:0:0:
322,42,149885,5,4,1:2:0:0:
328,156,150228,1,8,1:0:0:0:
300,206,150400,1,2,0:0:0:0:
308,263,150571,2,0,P|336:321|374:373,2,115.000002193451,0|8|0,1:0|1:0|1:0,0:0:0:0:
205,211,151599,1,8,1:0:0:0:
155,183,151771,1,2,0:0:0:0:
98,191,151942,2,0,P|39:219|-12:257,2,115.000002193451,0|8|0,1:0|1:0|1:0,0:0:0:0:
217,181,152971,5,8,1:0:0:0:
270,161,153143,1,2,0:0:0:0:
301,112,153314,2,0,P|316:48|321:-16,2,115.000002193451,0|8|0,1:0|1:0|1:0,0:0:0:0:
270,161,154171,1,2,0:0:0:0:
217,181,154343,1,8,1:0:0:0:
182,226,154514,1,2,0:0:0:0:
214,336,154856,1,2,0:0:0:0:
255,374,155028,2,0,P|318:360|383:357,1,115.000002193451,8|4,1:0|0:0,0:0:0:0:
