osu file format v14

[General]
AudioFilename: audio.ogg
AudioLeadIn: 0
PreviewTime: 45657
Countdown: 0
SampleSet: Soft
StackLeniency: 0.5
Mode: 0
LetterboxInBreaks: 0
WidescreenStoryboard: 0

[Editor]
DistanceSpacing: 0.9
BeatDivisor: 2
GridSize: 16
TimelineZoom: 1.6

[Metadata]
Title:Determinate (Nightcore Mix)
TitleUnicode:Determinate (Nightcore Mix)
Artist:Bridgit Mendler, Adam Hicks, Naomi Scott and Hayley Kiyoko
ArtistUnicode:Bridgit Mendler, Adam Hicks, Naomi Scott and Hayley Kiyoko
Creator:AJT
Version:Fearless
Source:Lemonade Mouth
Tags:english pop rock nightcore disney channel original movie soundtrack blake michael kuki1537 sylas thekoala moonpoint intiaz nyantiaz
BeatmapID:4415722
BeatmapSetID:2104449

[Difficulty]
HPDrainRate:5
CircleSize:4
OverallDifficulty:9
ApproachRate:9
SliderMultiplier:2
SliderTickRate:1

[Events]
//Background and Video events
0,0,"bg.jpeg",0,0
//Break Periods
//Storyboard Layer 0 (Background)
//Storyboard Layer 1 (Fail)
//Storyboard Layer 2 (Pass)
//Storyboard Layer 3 (Foreground)
//Storyboard Layer 4 (Overlay)
//Storyboard Sound Samples

[TimingPoints]
400,685.714285714286,4,2,1,60,1,0
28857,-100,4,2,1,5,0,0
29200,342.857142857143,4,2,1,60,1,0
35200,-74.0740740740741,4,2,1,60,0,0
36571,-100,4,2,1,60,0,0
40171,-133.333333333333,4,2,1,60,0,0
44285,-161.290322580645,4,2,1,60,0,0
44971,-1000,4,2,1,60,0,0
45657,-86.9565217391304,4,2,1,70,0,1
64857,-200,4,2,1,60,0,0
67600,-100,4,2,1,60,0,0
78571,-133.333333333333,4,2,1,60,0,0
82685,-322.58064516129,4,2,1,60,0,0
83542,-1000,4,2,1,60,0,0
84057,-86.9565217391304,4,2,1,70,0,1
95800,-86.9565217391304,4,2,1,35,0,1
95885,-86.9565217391304,4,2,1,70,0,1
96314,-86.9565217391304,4,2,1,35,0,1
96399,-86.9565217391304,4,2,1,70,0,1
98028,-86.9565217391304,4,2,1,35,0,1
98113,-86.9565217391304,4,2,1,70,0,1
98542,-86.9565217391304,4,2,1,35,0,1
98627,-86.9565217391304,4,2,1,70,0,1
99057,-86.9565217391304,4,2,1,35,0,1
99142,-86.9565217391304,4,2,1,70,0,1
99571,-86.9565217391304,4,2,1,35,0,1
99656,-86.9565217391304,4,2,1,70,0,1
103257,-200,4,2,1,60,0,1
106000,-86.9565217391304,4,2,1,60,0,0
107371,-86.9565217391304,4,2,1,60,0,0
122457,-86.9565217391304,4,2,1,70,0,1
144057,-86.9565217391304,4,2,1,65,0,0
144400,-86.9565217391304,4,2,1,70,0,1
154771,-86.9565217391304,4,2,1,35,0,1
154856,-86.9565217391304,4,2,1,70,0,1
155028,-116.279069767442,4,2,1,70,0,1
155371,-86.9565217391304,4,2,1,60,0,0

[Colours]
Combo1 : 255,192,0
Combo2 : 255,128,0
Combo3 : 128,128,128
Combo4 : 128,64,0

[HitObjects]
256,192,26457,12,0,28857,0:0:0:0:
451,384,29200,6,0,P|510:316|510:208,1,200,4|8,1:2|0:0,0:0:0:0:
443,63,29714,2,0,P|401:88|352:96,1,100,2|0,0:0|1:0,0:0:0:0:
256,0,30057,1,2,0:0:0:0:
68,63,30228,2,0,P|110:88|160:96,1,100,8|0,0:0|0:0,0:0:0:0:
0,210,30571,6,0,P|-1:308|61:384,1,200,4|8,1:3|0:0,0:0:0:0:
136,280,31085,1,2,0:0:0:0:
256,384,31256,1,0,1:0:0:0:
376,280,31428,1,2,0:0:0:0:
256,384,31599,1,8,0:0:0:0:
256,192,31771,1,2,0:0:0:0:
451,384,31942,6,0,P|510:316|510:208,1,200,4|8,1:3|0:0,0:0:0:0:
345,99,32457,1,2,0:0:0:0:
163,101,32628,1,0,1:0:0:0:
165,283,32800,1,2,0:0:0:0:
347,281,32971,1,8,0:0:0:0:
165,283,33143,1,2,0:0:0:0:
120,59,33314,5,0,1:0:0:0:
387,56,33657,1,8,0:0:0:0:
123,325,34000,1,0,1:0:0:0:
389,323,34343,1,8,0:0:0:0:
61,384,34685,6,0,P|2:316|2:208,1,200,4|8,1:3|0:0,0:0:0:0:
108,60,35200,1,2,0:0:0:0:
136,192,35371,1,0,1:0:0:0:
160,288,35542,5,2,0:0:0:0:
256,192,35714,1,8,0:0:0:0:
352,288,35885,1,2,0:0:0:0:
256,192,36400,5,8,0:0:0:0:
451,383,36571,2,0,P|512:308|510:210,1,200,2|0,0:0|0:0,0:0:0:0:
404,60,37086,1,8,0:0:0:0:
376,192,37257,1,2,0:0:0:0:
404,324,37428,6,0,B|243:311|340:291|198:290,1,200,4|8,1:3|0:0,0:0:0:0:
108,60,37942,2,0,B|269:73|172:93|314:94,1,200,2|0,0:0|0:0,0:0:0:0:
256,192,38457,1,8,0:0:0:0:
256,384,38628,1,2,0:0:0:0:
71,318,38800,6,0,P|123:314|177:304,1,100,0|0,1:3|0:0,0:0:0:0:
441,318,39142,2,0,P|389:314|335:304,1,100,8|0,0:0|0:0,0:0:0:0:
71,66,39485,2,0,P|123:70|177:80,1,100,0|0,1:0|0:0,0:0:0:0:
441,66,39828,2,0,P|389:70|335:80,1,100,8|0,0:0|0:0,0:0:0:0:
256,192,40171,5,0,1:3:0:0:
170,305,40342,2,0,P|174:344|182:382,2,75.0000028610231,2|2|2,0:0|1:2|0:0,0:0:0:0:
256,192,40857,1,0,1:3:0:0:
342,305,41028,2,0,P|337:344|330:382,2,75.0000028610231,2|2|2,0:0|1:2|0:0,0:0:0:0:
369,106,41542,6,0,P|408:110|446:118,1,75.0000028610231,0|2,1:3|0:0,0:0:0:0:
143,106,41885,2,0,P|104:110|66:118,1,75.0000028610231,0|2,1:3|0:0,0:0:0:0:
120,256,42228,1,0,1:3:0:0:
256,192,42400,1,2,0:0:0:0:
392,256,42571,1,0,1:3:0:0:
256,328,42743,1,2,0:0:0:0:
256,192,42914,5,0,1:3:0:0:
342,79,43085,2,0,P|337:40|330:2,2,75.0000028610231,2|2|2,0:0|1:2|0:0,0:0:0:0:
256,192,43600,1,0,1:3:0:0:
170,79,43771,2,0,P|174:40|182:2,2,75.0000028610231,2|2|2,0:0|1:2|0:0,0:0:0:0:
256,192,44285,6,1,B|267:213|267:213|256:223|256:223|246:234|246:234|256:244|256:244|267:255|267:255|256:265|256:265|246:276|246:276|256:286|256:286|267:297|267:297|256:307|256:307|246:318|246:318|256:328,1,185.99999262085,14|0,1:3|0:0,0:0:0:0:
256,344,44971,6,0,L|256:356,3,10,2|0|2|0,0:0|0:0|0:0|0:0,0:0:0:0:
96,352,45657,5,4,1:0:0:0:
96,352,46000,1,8,1:0:0:0:
256,192,46171,1,2,0:0:0:0:
416,352,46342,2,0,B|499:274|499:274|486:158,1,230.000004386902,0|8,1:0|1:0,0:0:0:0:
25,158,46857,2,0,B|12:274|12:274|96:352,1,230.000004386902,2|0,0:0|0:0,0:0:0:0:
416,352,47371,5,8,1:0:0:0:
256,192,47542,1,2,0:0:0:0:
96,352,47714,2,0,P|79:296|75:239,1,115.000002193451,0|0,1:0|0:0,0:0:0:0:
416,352,48057,2,0,P|432:296|436:239,1,115.000002193451,8|0,1:0|0:0,0:0:0:0:
256,192,48400,5,0,1:0:0:0:
256,192,48742,1,8,1:0:0:0:
95,32,48914,2,0,P|31:126|28:240,1,230.000004386902,2|2,0:0|0:0,0:0:0:0:
483,240,49428,2,0,P|480:126|416:32,1,230.000004386902,8|0,1:0|1:0,0:0:0:0:
256,192,49942,5,2,0:0:0:0:
256,192,50113,1,8,1:0:0:0:
95,352,50285,6,0,P|31:258|28:144,1,230.000004386902,2|2,0:0|0:0,0:0:0:0:
483,144,50799,2,0,P|480:258|416:352,1,230.000004386902,8|0,1:0|1:0,0:0:0:0:
256,320,51314,5,0,0:0:0:0:
256,64,51485,1,8,1:0:0:0:
256,192,51657,1,2,0:0:0:0:
96,32,51828,2,0,B|13:110|13:110|26:226,1,230.000004386902,0|8,1:0|1:0,0:0:0:0:
487,226,52343,2,0,B|500:110|500:110|416:32,1,230.000004386902,2|0,0:0|0:0,0:0:0:0:
128,144,52857,5,8,1:0:0:0:
384,144,53028,1,2,0:0:0:0:
96,352,53200,2,0,P|79:296|75:239,1,115.000002193451,0|0,1:0|0:0,0:0:0:0:
416,352,53543,2,0,P|432:296|436:239,1,115.000002193451,8|0,1:0|0:0,0:0:0:0:
256,192,53886,5,0,1:0:0:0:
256,192,54228,1,8,1:0:0:0:
417,352,54400,2,0,P|481:258|484:144,1,230.000004386902,2|2,0:0|0:0,0:0:0:0:
29,144,54914,2,0,P|32:258|96:352,1,230.000004386902,8|0,1:0|1:0,0:0:0:0:
256,192,55428,5,2,0:0:0:0:
256,192,55599,1,8,1:0:0:0:
417,32,55771,6,0,P|481:126|484:240,1,230.000004386902,2|2,0:0|0:0,0:0:0:0:
29,240,56285,2,0,P|32:126|96:32,1,230.000004386902,8|6,1:0|1:0,0:0:0:0:
256,384,56971,5,8,1:0:0:0:
483,144,57142,2,0,P|480:258|416:352,1,230.000004386902,2|0,0:1|0:0,0:0:0:0:
95,351,57657,2,0,P|31:257|29:144,1,230.000004386902,10|0,1:0|1:0,0:0:0:0:
432,192,58171,2,0,P|430:249|398:296,2,115.000002193451,2|8|0,0:1|1:0|0:0,0:0:0:0:
310,33,58685,2,0,P|255:17|201:33,1,115.000002193451,2|0,1:0|0:0,0:0:0:0:
80,192,59028,2,0,P|82:249|114:296,1,115.000002193451,10|0,1:0|0:0,0:0:0:0:
483,240,59371,6,0,P|480:126|416:32,1,230.000004386902,2|8,1:0|1:0,0:0:0:0:
95,33,59886,2,0,P|31:127|29:240,1,230.000004386902,2|0,0:1|0:0,0:0:0:0:
321,380,60400,2,0,P|385:286|388:173,1,230.000004386902,10|0,1:0|1:0,0:0:0:0:
124,172,60914,2,0,P|126:286|190:380,1,230.000004386902,2|0,0:1|0:0,0:0:0:0:
462,139,61428,2,0,P|419:101|364:92,1,115.000002193451,2|0,1:0|0:0,0:0:0:0:
49,139,61771,2,0,P|92:101|148:92,1,115.000002193451,10|0,1:0|0:0,0:0:0:0:
256,384,62114,1,0,1:0:0:0:
416,352,62457,5,8,1:0:0:0:
256,192,62628,1,2,0:0:0:0:
96,352,62799,2,0,P|33:258|29:144,1,230.000004386902,0|8,1:0|1:0,0:0:0:0:
486,142,63314,2,0,P|483:255|419:349,1,230.000004386902,2|0,0:0|0:0,0:0:0:0:
96,352,63828,5,8,1:0:0:0:
256,192,63999,1,2,0:0:0:0:
416,352,64171,2,0,P|433:296|437:239,1,115.000002193451,0|0,1:0|0:0,0:0:0:0:
96,352,64514,2,0,P|80:296|76:239,1,115.000002193451,8|0,1:0|0:0,0:0:0:0:
256,192,64857,6,0,L|272:128,1,50,0|0,1:3|0:0,0:0:0:0:
352,0,65200,2,0,L|368:64,1,50,0|0,1:3|0:0,0:0:0:0:
256,192,65542,2,0,L|320:208,1,50,0|0,1:3|0:0,0:0:0:0:
448,288,65885,2,0,L|384:304,1,50,0|0,1:3|0:0,0:0:0:0:
256,192,66228,2,0,L|240:256,1,50,0|0,1:3|0:0,0:0:0:0:
160,384,66571,2,0,L|144:320,1,50,0|0,1:3|0:0,0:0:0:0:
256,192,66913,2,0,L|192:176,1,50,0|0,1:3|0:0,0:0:0:0:
64,96,67256,2,0,L|128:80,1,50,0|0,1:3|0:0,0:0:0:0:
451,0,67600,6,0,P|510:68|510:176,1,200,4|8,1:2|0:0,0:0:0:0:
424,368,68114,1,2,0:0:0:0:
386,277,68285,1,0,1:0:0:0:
256,192,68457,1,2,0:0:0:0:
125,278,68628,1,8,0:0:0:0:
87,367,68799,1,2,0:0:0:0:
0,174,68971,6,0,P|-1:76|61:0,1,200,4|8,1:3|0:0,0:0:0:0:
136,104,69485,1,2,0:0:0:0:
376,104,69656,1,0,1:0:0:0:
136,104,69828,1,2,0:0:0:0:
376,104,69999,1,8,0:0:0:0:
256,192,70171,1,2,0:0:0:0:
451,0,70342,6,0,P|510:68|510:176,1,200,4|8,1:3|0:0,0:0:0:0:
345,285,70857,1,2,0:0:0:0:
347,103,71028,1,0,1:0:0:0:
163,283,71200,1,2,0:0:0:0:
165,101,71371,1,8,0:0:0:0:
345,285,71542,1,2,0:0:0:0:
120,325,71714,5,0,1:0:0:0:
387,328,72057,1,8,0:0:0:0:
123,59,72400,1,0,1:0:0:0:
389,61,72743,1,8,0:0:0:0:
61,0,73085,6,0,P|2:68|2:176,1,200,4|8,1:3|0:0,0:0:0:0:
108,324,73600,1,2,0:0:0:0:
136,192,73771,1,0,1:0:0:0:
160,96,73942,5,2,0:0:0:0:
256,192,74114,1,8,0:0:0:0:
352,96,74285,1,2,0:0:0:0:
61,1,74457,6,0,P|0:76|2:174,1,200,4|8,1:3|0:0,0:0:0:0:
509,175,74971,2,0,P|512:77|451:1,1,200,2|0,0:0|0:0,0:0:0:0:
256,192,75486,1,8,0:0:0:0:
256,192,75657,1,2,0:0:0:0:
61,383,75828,6,0,B|48:222|28:319|27:177,1,200,4|8,1:3|0:0,0:0:0:0:
484,187,76342,2,0,B|484:319|464:222|451:383,1,200,2|0,0:0|0:0,0:0:0:0:
256,192,76857,1,8,0:0:0:0:
256,192,77028,1,2,0:0:0:0:
0,42,77200,5,0,1:3:0:0:
511,42,77542,1,8,0:0:0:0:
9,359,77885,1,0,1:0:0:0:
502,359,78228,1,8,0:0:0:0:
256,82,78571,5,0,1:3:0:0:
334,113,78743,1,2,0:0:0:0:
365,192,78914,1,0,1:3:0:0:
334,269,79086,1,2,0:0:0:0:
256,300,79257,1,0,1:3:0:0:
178,269,79429,1,2,0:0:0:0:
147,192,79600,1,0,1:3:0:0:
178,113,79771,1,2,0:0:0:0:
256,46,79942,5,0,1:3:0:0:
153,88,80114,1,2,0:0:0:0:
111,192,80285,1,0,1:3:0:0:
153,295,80457,1,2,0:0:0:0:
256,337,80628,1,0,1:3:0:0:
360,295,80800,1,2,0:0:0:0:
402,192,80971,1,0,1:3:0:0:
360,88,81142,1,2,0:0:0:0:
256,0,81314,5,0,1:3:0:0:
391,55,81486,1,2,0:0:0:0:
446,192,81657,1,0,1:3:0:0:
391,327,81829,1,2,0:0:0:0:
256,382,82000,1,0,1:3:0:0:
119,327,82172,1,2,0:0:0:0:
64,192,82343,1,0,1:3:0:0:
119,55,82514,1,2,0:0:0:0:
256,0,82685,6,1,B|245:21|245:21|256:31|256:31|266:42|266:42|256:52|256:52|245:63|245:63|256:73|256:73|266:84|266:84|256:94|256:94|245:105|245:105|256:115|256:115|266:126|266:126|256:136,1,185.99999262085,14|0,1:3|0:0,0:0:0:0:
444,384,84057,5,4,1:0:0:0:
444,384,84400,1,8,1:0:0:0:
256,192,84571,1,2,0:0:0:0:
68,384,84742,2,0,B|28:339|28:339|34:279,1,115.000002193451,0|0,1:0|0:0,0:0:0:0:
128,144,85085,1,8,1:0:0:0:
444,384,85257,2,0,B|484:339|484:339|478:284,1,115.000002193451,2|0,0:0|1:0,0:0:0:0:
384,144,85600,1,2,0:0:0:0:
128,240,85771,5,8,1:0:0:0:
384,240,85942,1,2,0:0:0:0:
96,32,86114,2,0,P|79:88|75:145,1,115.000002193451,0|0,1:0|0:0,0:0:0:0:
416,32,86457,2,0,P|432:88|436:145,1,115.000002193451,8|0,1:0|0:0,0:0:0:0:
256,192,86800,5,0,1:0:0:0:
256,192,87142,1,8,1:0:0:0:
417,32,87314,2,0,P|481:126|484:240,1,230.000004386902,2|2,0:0|0:0,0:0:0:0:
29,240,87828,2,0,P|32:126|96:32,1,230.000004386902,8|0,1:0|1:0,0:0:0:0:
256,320,88342,5,2,0:0:0:0:
256,64,88514,1,8,1:0:0:0:
417,352,88685,6,0,P|481:258|484:144,1,230.000004386902,2|2,0:0|0:0,0:0:0:0:
29,144,89199,2,0,P|32:258|96:352,1,230.000004386902,8|0,1:0|1:0,0:0:0:0:
256,320,89714,5,0,0:0:0:0:
256,64,89885,1,8,1:0:0:0:
256,192,90057,1,2,0:0:0:0:
444,0,90228,2,0,B|484:45|484:45|478:105,1,115.000002193451,0|0,1:0|0:0,0:0:0:0:
128,240,90571,1,8,1:0:0:0:
68,0,90743,2,0,B|28:45|28:45|33:99,1,115.000002193451,2|0,0:0|1:0,0:0:0:0:
384,240,91086,1,2,0:0:0:0:
128,144,91257,5,8,1:0:0:0:
384,144,91428,1,2,0:0:0:0:
58,384,91599,2,0,P|41:328|37:271,1,115.000002193451,0|0,1:0|0:0,0:0:0:0:
454,384,91942,2,0,P|471:328|475:271,1,115.000002193451,8|0,1:0|0:0,0:0:0:0:
256,192,92286,5,0,1:0:0:0:
256,192,92628,1,8,1:0:0:0:
25,268,92800,1,2,0:0:0:0:
176,336,92971,1,0,1:0:0:0:
256,192,93142,1,2,0:0:0:0:
487,268,93314,1,8,1:0:0:0:
336,336,93485,1,2,0:0:0:0:
256,384,93657,5,0,1:0:0:0:
256,192,93828,1,2,0:0:0:0:
256,0,94000,1,8,1:0:0:0:
432,191,94171,5,2,0:0:0:0:
458,84,94342,1,0,1:0:0:0:
53,85,94514,1,2,0:0:0:0:
52,142,94599,1,2,0:0:0:0:
80,192,94685,1,8,1:0:0:0:
256,192,94857,1,0,0:0:0:0:
256,0,95028,5,6,1:0:0:0:
256,384,95371,1,8,1:0:0:0:
56,228,95542,2,0,P|58:313|106:383,1,172.500003290176,2|0,0:1|0:0,0:0:0:0:
106,383,95885,1,0,0:0:0:0:
456,228,96057,2,0,P|453:313|405:383,1,172.500003290176,10|0,1:0|0:0,0:0:0:0:
404,383,96400,1,0,1:0:0:0:
160,240,96571,5,2,0:1:0:0:
352,240,96742,1,8,1:0:0:0:
256,80,96914,1,0,0:0:0:0:
58,281,97085,2,0,P|62:338|97:382,1,115.000002193451,2|0,1:0|0:0,0:0:0:0:
415,381,97428,2,0,P|450:337|454:281,1,115.000002193451,10|0,1:0|0:0,0:0:0:0:
106,0,97771,6,0,P|58:70|56:156,1,172.500003290176,2|0,1:0|0:0,0:0:0:0:
55,155,98114,1,8,1:0:0:0:
456,156,98286,2,0,P|453:71|405:1,1,172.500003290176,2|0,0:1|0:0,0:0:0:0:
404,0,98629,1,0,0:0:0:0:
131,198,98800,2,0,P|133:284|181:355,1,172.500003290176,10|0,1:0|0:0,0:0:0:0:
179,353,99142,1,0,1:0:0:0:
381,198,99314,2,0,P|378:284|330:355,1,172.500003290176,2|0,0:1|0:0,0:0:0:0:
331,354,99656,1,0,0:0:0:0:
50,139,99828,6,0,P|93:101|148:92,1,115.000002193451,2|0,1:0|0:0,0:0:0:0:
462,139,100171,2,0,P|419:101|364:92,1,115.000002193451,10|0,1:0|0:0,0:0:0:0:
256,384,100514,1,0,1:0:0:0:
256,384,100685,1,0,3:0:0:0:
444,384,100857,5,8,1:0:0:0:
256,192,101028,1,2,0:0:0:0:
68,384,101200,2,0,B|28:339|28:339|34:279,1,115.000002193451,0|0,1:0|0:0,0:0:0:0:
128,144,101542,1,8,1:0:0:0:
444,384,101715,2,0,B|484:339|484:339|478:284,1,115.000002193451,2|0,0:0|1:0,0:0:0:0:
384,144,102057,1,2,0:0:0:0:
128,240,102228,5,8,1:0:0:0:
384,240,102399,1,2,0:0:0:0:
96,32,102571,2,0,P|79:88|75:145,1,115.000002193451,0|0,1:0|0:0,0:0:0:0:
416,32,102914,2,0,P|432:88|436:145,1,115.000002193451,8|0,1:0|0:0,0:0:0:0:
256,192,103257,5,0,1:3:0:0:
268,240,103428,1,0,0:0:0:0:
352,384,103600,1,2,1:2:0:0:
364,335,103771,1,2,0:0:0:0:
256,192,103942,1,0,1:3:0:0:
304,179,104113,1,2,0:0:0:0:
448,96,104285,1,2,1:2:0:0:
399,83,104456,1,0,0:0:0:0:
256,192,104628,1,0,1:3:0:0:
160,0,104800,1,2,0:0:0:0:
243,143,104971,1,2,1:2:0:0:
147,48,105142,1,2,0:0:0:0:
256,192,105313,1,0,1:3:0:0:
207,204,105484,1,2,0:0:0:0:
64,288,105657,1,2,1:2:0:0:
112,300,105828,1,2,0:0:0:0:
256,384,106000,5,4,1:2:0:0:
400,300,106171,6,0,P|372:286|337:282,1,57.5000010967255,2|2,0:0|0:0,0:0:0:0:
112,300,106342,2,0,P|139:286|174:282,1,57.5000010967255,8|2,0:0|0:0,0:0:0:0:
256,384,106514,1,2,0:0:0:0:
452,362,106685,6,0,P|424:375|389:377,1,57.5000010967255,0|2,1:0|0:0,0:0:0:0:
60,362,106857,2,0,P|88:375|123:377,1,57.5000010967255,0|2,0:0|0:0,0:0:0:0:
256,240,107028,1,10,0:1:0:0:
256,240,107114,1,2,0:0:0:0:
256,240,107200,1,2,0:1:0:0:
115,149,107371,5,4,1:3:0:0:
113,206,107456,1,2,0:0:0:0:
133,260,107542,1,2,0:0:0:0:
397,149,107714,5,8,0:0:0:0:
398,206,107799,1,2,0:0:0:0:
378,260,107885,1,2,0:0:0:0:
128,112,108057,5,0,1:0:0:0:
160,64,108142,1,2,0:0:0:0:
208,32,108228,1,2,0:0:0:0:
256,0,108314,1,2,0:0:0:0:
304,32,108399,1,10,0:1:0:0:
352,64,108485,1,2,0:0:0:0:
384,112,108571,1,2,0:1:0:0:
38,192,108742,5,4,1:3:0:0:
92,219,108827,1,2,0:0:0:0:
147,192,108913,1,2,0:0:0:0:
201,219,108999,1,2,0:0:0:0:
256,192,109084,1,8,0:0:0:0:
310,219,109170,1,2,0:0:0:0:
364,192,109256,1,2,0:0:0:0:
419,219,109342,1,2,0:0:0:0:
473,192,109428,1,0,1:0:0:0:
364,353,109600,5,2,0:0:0:0:
310,381,109686,1,2,0:0:0:0:
256,353,109771,1,10,0:1:0:0:
201,381,109857,1,2,0:0:0:0:
147,353,109943,1,2,0:1:0:0:
128,32,110114,5,0,1:0:0:0:
192,0,110200,1,2,0:0:0:0:
256,32,110285,1,2,0:0:0:0:
320,0,110371,1,2,0:0:0:0:
384,32,110457,1,8,0:0:0:0:
256,352,110628,1,2,0:0:0:0:
448,224,110800,5,0,1:0:0:0:
384,192,110886,1,2,0:0:0:0:
320,224,110972,1,2,0:0:0:0:
256,192,111057,1,2,0:0:0:0:
192,224,111143,1,8,0:0:0:0:
128,192,111229,1,2,0:0:0:0:
64,224,111315,1,2,0:0:0:0:
255,43,111485,5,4,1:3:0:0:
316,56,111571,1,2,0:0:0:0:
366,92,111657,1,2,0:0:0:0:
397,146,111742,1,2,0:0:0:0:
403,207,111828,1,8,0:0:0:0:
384,266,111914,1,2,0:0:0:0:
343,312,112000,1,2,0:0:0:0:
286,337,112085,1,2,0:0:0:0:
225,337,112171,1,0,1:0:0:0:
168,312,112257,1,2,0:0:0:0:
127,266,112342,1,2,0:0:0:0:
108,207,112428,1,2,0:0:0:0:
114,146,112514,1,10,0:1:0:0:
145,92,112600,1,2,0:0:0:0:
195,56,112685,1,2,0:1:0:0:
256,192,112857,5,2,0:0:0:0:
256,384,113200,5,8,0:0:0:0:
256,192,113371,1,2,0:0:0:0:
93,35,113542,5,0,1:0:0:0:
98,92,113627,1,2,0:0:0:0:
103,149,113713,1,2,0:0:0:0:
108,207,113799,1,2,0:0:0:0:
112,264,113884,1,10,0:1:0:0:
117,321,113970,1,2,0:0:0:0:
122,378,114056,1,2,0:1:0:0:
256,384,114228,5,2,0:0:0:0:
256,192,114571,1,8,0:0:0:0:
390,378,114742,5,2,0:0:0:0:
395,321,114828,1,2,0:0:0:0:
400,264,114914,1,0,1:0:0:0:
404,207,114999,1,2,0:0:0:0:
409,149,115085,1,2,0:0:0:0:
414,92,115171,1,2,0:0:0:0:
419,35,115256,1,10,0:1:0:0:
256,192,115428,5,2,0:1:0:0:
177,98,115600,6,0,P|205:85|240:83,1,57.5000010967255,0|2,1:3|0:0,0:0:0:0:
350,113,115771,2,0,P|363:141|365:176,1,57.5000010967255,2|2,0:0|0:0,0:0:0:0:
335,286,115942,2,0,P|307:299|272:301,1,57.5000010967255,8|0,0:0|0:0,0:0:0:0:
162,271,116113,2,0,P|149:243|147:208,1,57.5000010967255,2|2,0:0|0:0,0:0:0:0:
266,69,116285,2,0,P|295:80|321:103,1,57.5000010967255,0|2,1:0|0:0,0:0:0:0:
378,202,116456,2,0,P|367:231|344:257,1,57.5000010967255,2|2,0:0|0:0,0:0:0:0:
245,314,116627,2,0,P|216:303|190:280,1,57.5000010967255,8|0,0:0|0:0,0:0:0:0:
133,181,116800,2,0,P|144:152|167:126,1,57.5000010967255,2|2,0:0|0:0,0:0:0:0:
383,0,116971,6,0,B|372:135|355:53|354:173,1,172.500003290176,4|0,1:3|0:0,0:0:0:0:
157,168,117314,2,0,B|156:53|139:135|129:0,1,172.500003290176,8|0,0:0|0:0,0:0:0:0:
168,249,117657,6,0,P|140:244|113:235,1,57.5000010967255,0|2,1:0|0:0,0:0:0:0:
344,249,117828,2,0,P|373:244|400:235,1,57.5000010967255,2|2,0:0|0:0,0:0:0:0:
256,192,118000,1,10,0:1:0:0:
99,320,118171,6,0,P|71:315|44:306,1,57.5000010967255,2|2,0:1|0:0,0:0:0:0:
413,320,118342,2,0,P|441:315|468:306,1,57.5000010967255,4|2,1:3|0:0,0:0:0:0:
256,320,118514,1,2,0:0:0:0:
256,352,118600,1,2,0:0:0:0:
256,384,118685,1,8,0:0:0:0:
135,192,118857,5,2,0:0:0:0:
152,122,118942,1,2,0:0:0:0:
204,71,119028,1,0,1:0:0:0:
256,19,119114,1,2,0:0:0:0:
307,71,119200,1,2,0:0:0:0:
359,122,119286,1,2,0:0:0:0:
376,192,119371,1,10,0:1:0:0:
255,192,119542,5,2,0:1:0:0:
383,384,119714,2,0,B|372:249|355:331|354:211,1,172.500003290176,4|0,1:3|0:0,0:0:0:0:
157,216,120057,2,0,B|156:331|139:249|129:384,1,172.500003290176,8|0,0:0|0:0,0:0:0:0:
168,135,120400,6,0,P|140:140|113:149,1,57.5000010967255,0|2,1:0|0:0,0:0:0:0:
344,135,120571,2,0,P|373:140|400:149,1,57.5000010967255,2|2,0:0|0:0,0:0:0:0:
256,192,120743,1,10,0:1:0:0:
99,64,120914,6,0,P|71:69|44:78,1,57.5000010967255,2|2,0:1|0:0,0:0:0:0:
413,64,121085,2,0,P|441:69|468:78,1,57.5000010967255,0|2,1:3|0:0,0:0:0:0:
15,192,121257,5,2,0:0:0:0:
15,192,121343,1,2,0:0:0:0:
15,192,121428,2,0,P|22:279|83:359,1,172.500003290176,8|0,0:0|0:0,0:0:0:0:
443,347,121771,2,0,P|490:277|497:192,1,172.500003290176,0|0,1:0|0:0,0:0:0:0:
256,0,122114,2,0,B|268:134|237:57|257:175,1,172.500003290176,8|0,0:0|0:0,0:0:0:0:
256,192,122457,1,4,1:0:0:0:
256,384,122628,1,0,0:0:0:0:
68,384,122800,5,8,1:0:0:0:
256,192,122971,1,2,0:0:0:0:
444,384,123142,2,0,B|482:341|482:341|478:279,1,115.000002193451,0|0,1:0|0:0,0:0:0:0:
384,144,123485,1,8,1:0:0:0:
68,384,123657,2,0,B|30:341|30:341|33:283,1,115.000002193451,2|0,0:0|1:0,0:0:0:0:
128,144,124000,1,2,0:0:0:0:
384,240,124171,1,8,1:0:0:0:
128,240,124342,1,2,0:0:0:0:
464,0,124514,5,0,1:0:0:0:
437,144,124685,1,2,0:3:0:0:
48,0,124857,5,8,1:0:0:0:
75,144,125028,1,2,0:3:0:0:
256,192,125200,5,0,1:0:0:0:
256,192,125542,1,8,1:0:0:0:
95,32,125714,5,2,0:0:0:0:
31,125,125885,1,0,1:0:0:0:
27,239,126056,1,2,0:0:0:0:
483,240,126228,2,0,P|480:126|416:32,1,230.000004386902,8|0,1:0|1:0,0:0:0:0:
256,320,126742,5,2,0:0:0:0:
256,64,126913,1,8,1:0:0:0:
95,352,127085,5,2,0:0:0:0:
31,258,127256,1,0,1:0:0:0:
27,144,127427,1,2,0:0:0:0:
483,144,127599,2,0,P|480:258|416:352,1,230.000004386902,8|0,1:0|1:0,0:0:0:0:
256,320,128114,5,0,0:0:0:0:
256,64,128285,1,8,1:0:0:0:
256,192,128457,1,2,0:0:0:0:
68,0,128628,2,0,B|30:43|30:43|34:105,1,115.000002193451,0|0,1:0|0:0,0:0:0:0:
384,240,128971,1,8,1:0:0:0:
444,0,129143,2,0,B|482:43|482:43|478:100,1,115.000002193451,2|0,0:0|1:0,0:0:0:0:
128,240,129486,1,2,0:0:0:0:
384,144,129657,1,8,1:0:0:0:
128,144,129828,1,2,0:0:0:0:
464,384,130000,5,0,1:0:0:0:
437,240,130171,1,2,0:3:0:0:
48,384,130343,5,8,1:0:0:0:
75,240,130514,1,2,0:3:0:0:
256,192,130686,5,0,1:0:0:0:
256,192,131028,5,8,1:0:0:0:
487,268,131200,1,2,0:0:0:0:
400,144,131371,1,0,1:0:0:0:
256,192,131542,1,2,0:0:0:0:
25,268,131714,1,8,1:0:0:0:
112,144,131885,1,2,0:0:0:0:
256,320,132057,5,0,1:0:0:0:
256,64,132228,1,2,0:0:0:0:
256,192,132400,5,8,1:0:0:0:
487,116,132572,1,2,0:0:0:0:
400,240,132743,1,0,1:0:0:0:
256,192,132914,1,2,0:0:0:0:
25,116,133086,1,8,1:0:0:0:
112,240,133257,1,2,0:0:0:0:
256,0,133428,5,6,1:0:0:0:
256,0,133600,1,0,0:0:0:0:
256,192,133771,1,8,1:0:0:0:
512,192,133942,5,2,0:1:0:0:
512,192,134114,1,0,1:0:0:0:
256,192,134285,1,2,0:0:0:0:
256,384,134457,5,10,1:0:0:0:
256,384,134629,1,0,0:0:0:0:
256,192,134800,1,0,1:0:0:0:
0,192,134971,5,2,0:1:0:0:
0,192,135143,1,8,1:0:0:0:
256,192,135314,1,2,0:0:0:0:
128,320,135485,5,2,1:0:0:0:
384,320,135656,1,2,0:0:0:0:
384,64,135828,1,10,1:0:0:0:
128,64,135999,1,2,0:0:0:0:
462,0,136171,5,2,1:0:0:0:
512,70,136342,1,2,0:0:0:0:
512,156,136514,1,8,1:0:0:0:
0,156,136685,5,2,0:1:0:0:
0,70,136857,1,0,1:0:0:0:
50,0,137028,1,2,0:0:0:0:
381,198,137200,5,10,1:0:0:0:
374,281,137371,1,2,0:0:0:0:
332,353,137542,1,0,1:0:0:0:
180,353,137714,5,2,0:1:0:0:
138,281,137885,1,8,1:0:0:0:
131,198,138056,1,2,0:0:0:0:
352,95,138228,5,2,1:0:0:0:
352,288,138399,1,2,0:0:0:0:
159,95,138571,1,10,1:0:0:0:
159,288,138742,1,2,0:0:0:0:
256,384,138914,5,0,1:0:0:0:
256,192,139085,1,0,3:3:0:0:
256,0,139257,1,8,1:0:0:0:
256,192,139428,1,2,0:0:0:0:
444,384,139599,5,0,1:0:0:0:
479,248,139771,1,2,0:0:0:0:
384,144,139942,1,8,1:0:0:0:
68,384,140114,5,2,0:0:0:0:
33,248,140285,1,0,1:0:0:0:
128,144,140457,1,2,0:0:0:0:
256,192,140628,5,8,1:0:0:0:
256,384,140799,1,2,0:0:0:0:
320,64,140971,5,0,1:0:0:0:
192,64,141142,1,2,0:3:0:0:
120,327,141314,5,8,1:0:0:0:
392,327,141485,1,2,0:3:0:0:
256,383,141657,5,0,1:0:0:0:
120,327,141828,1,2,0:3:0:0:
64,191,142000,1,8,1:0:0:0:
120,56,142171,1,2,0:0:0:0:
256,0,142342,1,0,1:0:0:0:
391,56,142514,1,2,0:0:0:0:
447,192,142685,1,8,1:0:0:0:
391,327,142857,1,2,0:0:0:0:
256,383,143028,5,0,1:0:0:0:
89,287,143200,1,2,0:0:0:0:
89,96,143371,1,8,1:0:0:0:
256,0,143542,1,2,0:0:0:0:
422,96,143714,1,2,1:0:0:0:
422,287,143885,1,2,0:1:0:0:
256,383,144057,1,2,0:0:0:0:
208,128,144400,5,4,1:2:0:0:
304,256,144571,1,2,0:0:0:0:
272,73,144742,1,8,1:0:0:0:
239,310,144913,1,2,0:0:0:0:
320,144,145085,1,0,1:0:0:0:
192,240,145256,1,2,0:1:0:0:
374,208,145427,1,10,1:0:0:0:
137,175,145600,1,2,0:0:0:0:
374,208,145771,1,0,1:0:0:0:
256,384,145942,5,2,0:0:0:0:
103,309,146114,1,8,1:0:0:0:
66,143,146285,1,2,0:0:0:0:
173,10,146457,1,0,1:0:0:0:
344,12,146628,1,2,0:0:0:0:
449,146,146800,1,8,1:0:0:0:
410,312,146971,1,2,0:0:0:0:
256,384,147142,5,2,1:0:0:0:
66,143,147314,1,2,0:0:0:0:
256,384,147485,1,8,1:0:0:0:
446,143,147657,1,2,0:0:0:0:
103,309,147828,5,0,1:0:0:0:
66,143,147999,1,2,0:0:0:0:
446,143,148170,1,8,1:0:0:0:
409,309,148342,1,2,0:0:0:0:
152,347,148514,5,0,1:0:0:0:
372,269,148685,1,2,0:1:0:0:
152,192,148856,1,8,1:0:0:0:
372,114,149027,1,2,0:1:0:0:
80,0,149200,5,0,1:2:0:0:
448,96,149371,1,2,1:2:0:0:
80,192,149542,1,8,1:0:0:0:
448,288,149713,1,2,1:0:0:0:
80,384,149885,1,4,1:2:0:0:
256,0,150228,5,8,1:0:0:0:
448,192,150400,1,2,0:0:0:0:
64,192,150571,2,0,P|62:137|79:80,1,115.000002193451,0|0,1:0|0:0,0:0:0:0:
448,192,150914,2,0,P|450:247|433:304,1,115.000002193451,8|0,1:0|0:0,0:0:0:0:
0,384,151257,1,0,1:0:0:0:
256,0,151600,5,8,1:0:0:0:
64,192,151772,1,2,0:0:0:0:
448,192,151943,2,0,P|450:137|433:80,1,115.000002193451,0|0,1:0|0:0,0:0:0:0:
64,192,152286,2,0,P|62:247|79:304,1,115.000002193451,8|0,1:0|0:0,0:0:0:0:
512,384,152629,1,0,1:0:0:0:
448,192,152800,5,2,0:0:0:0:
64,192,152971,1,8,1:0:0:0:
256,384,153142,1,2,0:0:0:0:
493,256,153314,6,0,P|515:203|512:147,1,115.000002193451,0|0,1:0|0:0,0:0:0:0:
0,146,153657,2,0,P|-3:203|18:256,1,115.000002193451,8|0,1:0|0:0,0:0:0:0:
256,384,154000,1,0,1:0:0:0:
256,384,154171,5,2,0:0:0:0:
256,96,154342,1,8,1:0:0:0:
456,156,154514,6,0,P|454:71|406:1,1,172.500003290176,2|0,0:0|0:0,0:0:0:0:
256,96,154857,1,2,0:0:0:0:
56,156,155028,2,0,P|59:71|107:1,1,172.500003290176,8|4,1:0|0:0,0:0:0:0:
