osu file format v14

[General]
AudioFilename: audio.mp3
AudioLeadIn: 0
PreviewTime: 175678
Countdown: 1
SampleSet: None
StackLeniency: 0.7
Mode: 0
LetterboxInBreaks: 0
WidescreenStoryboard: 1

[Editor]
Bookmarks: 2018,224942
DistanceSpacing: 1.3
BeatDivisor: 4
GridSize: 4
TimelineZoom: 2.3

[Metadata]
Title:Lonely Go!
TitleUnicode:Lonely Go!
Artist:Brian the Sun
ArtistUnicode:Brian the Sun
Creator:Riene
Version:Insane
Source:BORUTO-ボルト-NARUTO NEXT GENERATIONS
Tags:boruto naruto lonely go opening
BeatmapID:1923752
BeatmapSetID:918277

[Difficulty]
HPDrainRate:5
CircleSize:4
OverallDifficulty:8
ApproachRate:9
SliderMultiplier:1.7
SliderTickRate:1

[Events]
//Background and Video events
0,0,"820590.jpg",0,0
//Break Periods
//Storyboard Layer 0 (Background)
//Storyboard Layer 1 (Fail)
//Storyboard Layer 2 (Pass)
//Storyboard Layer 3 (Foreground)
//Storyboard Sound Samples

[TimingPoints]
1871,294.117647058824,4,2,1,60,1,0
2753,-200,4,2,1,60,0,1
2973,-200,4,2,1,5,0,0
3047,-200,4,2,1,60,0,0
7753,-100,4,2,1,60,0,0
14665,-133.333333333333,4,2,1,40,0,0
18341,-133.333333333333,4,2,1,50,0,0
18635,-133.333333333333,4,2,1,55,0,0
18929,-133.333333333333,4,2,1,70,0,0
19297,-100,4,2,1,60,0,0
24076,-133.333333333333,4,2,1,40,0,0
27753,-133.333333333333,4,2,1,50,0,0
28047,-133.333333333333,4,2,1,55,0,0
28341,-133.333333333333,4,2,1,70,0,0
28782,-100,4,2,1,60,0,0
33488,-100,4,2,1,70,0,1
47606,-100,4,2,1,60,0,0
49959,-133.333333333333,4,2,1,60,0,0
50253,-100,4,2,1,60,0,0
52459,-100,4,2,1,75,0,1
55988,-90.9090909090909,4,2,1,75,0,1
56576,-80,4,2,1,75,0,1
56871,-100,4,2,1,75,0,1
69371,-100,4,3,1,75,0,1
70326,-153.846153846153,4,2,1,60,0,1
70988,-100,4,2,1,60,0,0
90400,-133.333333333333,4,2,1,40,0,0
93635,-133.333333333333,4,2,1,50,0,0
93929,-133.333333333333,4,2,1,55,0,0
94223,-133.333333333333,4,2,1,70,0,0
94665,-100,4,2,1,60,0,0
99371,-133.333333333333,4,2,1,60,0,0
113488,-100,4,2,1,60,0,0
118341,-100,4,2,1,70,0,1
121871,-90.9090909090909,4,2,1,70,0,1
122459,-80,4,2,1,70,0,1
122753,-100,4,2,1,70,0,1
130988,-80,4,2,1,70,0,1
131282,-100,4,2,1,70,0,1
137165,-125,4,2,1,60,0,0
144371,-100,4,2,1,60,0,0
145326,-125,4,2,1,60,0,0
155988,618.556701030928,4,2,1,60,1,0
170833,-125,4,2,1,5,0,0
172689,-125,4,2,1,10,0,0
173307,-125,4,2,1,20,0,0
173926,-125,4,2,1,30,0,0
174544,-125,4,2,1,40,0,0
174853,-125,4,2,1,50,0,0
175163,-125,4,2,1,60,0,0
175472,-125,4,2,1,5,0,0
175678,294.117647058824,4,2,1,60,1,0
175678,-83.3333333333333,4,2,1,60,0,0
178030,-83.3333333333333,4,2,1,60,0,0
178325,-100,4,2,1,70,0,1
182148,-80,4,2,1,70,0,1
182442,-100,4,2,1,70,0,1
187736,-66.6666666666667,4,2,1,70,0,1
188030,-100,4,2,1,70,0,1
195898,-80,4,2,1,70,0,1
196266,-100,4,2,1,70,0,1
196854,-100,4,2,1,60,0,0
197148,-80,4,2,1,60,0,0
197442,-100,4,2,1,60,0,0
205972,-200,4,2,1,60,0,0
206266,-100,4,2,1,75,0,1
215678,-100,4,2,1,60,0,0
215972,-80,4,2,1,60,0,0
216266,-100,4,2,1,60,0,0
226119,-90.9090909090909,4,2,1,60,0,0
227296,-83.3333333333333,4,2,1,60,0,0
228472,-76.9230769230769,4,2,1,60,0,0
229648,-100,4,2,1,60,0,0
230825,-90.9090909090909,4,2,1,60,0,0
232002,-83.3333333333333,4,2,1,60,0,0
232590,-76.9230769230769,4,2,1,60,0,0
233178,-71.4285714285714,4,2,1,60,0,0
233766,-66.6666666666667,4,2,1,60,0,0
234501,-66.6666666666667,4,2,1,5,0,0
234795,-66.6666666666667,4,2,1,50,0,0
235089,-66.6666666666667,4,2,1,35,0,0
235383,-66.6666666666667,4,2,1,20,0,0
235678,-66.6666666666667,4,2,1,10,0,0
235825,-66.6666666666667,4,2,1,5,0,0

[HitObjects]
100,96,1871,6,0,L|152:101,1,42.5
232,158,2018,2,0,L|180:163,3,42.5
86,213,2312,2,0,L|138:218,1,42.5
218,275,2459,2,0,L|166:280,3,42.5
71,324,2753,2,0,L|158:339,1,85
144,336,5400,2,0,L|322:368,2,170
144,336,7165,2,0,L|49:318,1,85
281,357,7606,5,0,0:0:0:0:
281,357,7679,1,0,0:0:0:0:
281,357,7753,2,0,L|186:341,1,85
119,232,8047,2,0,L|112:133,1,85
318,217,8341,2,0,L|332:308,1,85
187,104,8635,1,0,0:0:0:0:
226,222,8782,1,0,0:0:0:0:
279,57,8929,5,0,0:0:0:0:
107,146,9076,1,0,0:0:0:0:
316,153,9223,2,0,L|407:152,1,85
429,183,9444,1,0,0:0:0:0:
439,190,9518,5,0,0:0:0:0:
331,290,9665,1,0,0:0:0:0:
279,57,9959,6,0,L|108:41,1,170
364,163,10400,2,0,L|265:152,1,85
377,72,10694,1,0,0:0:0:0:
454,197,10841,1,0,0:0:0:0:
316,252,10988,1,0,0:0:0:0:
122,235,11135,2,0,B|142:149|142:149|226:114,1,170
43,196,11576,2,0,L|18:294,1,85
220,226,11871,5,0,0:0:0:0:
44,119,12018,1,0,0:0:0:0:
195,58,12165,1,0,0:0:0:0:
124,211,12312,2,0,B|115:296|115:296|174:363,1,170
285,241,12753,2,0,L|205:267,1,85
322,322,13047,5,0,0:0:0:0:
326,128,13194,1,0,0:0:0:0:
285,241,13341,1,0,0:0:0:0:
231,28,13488,2,0,B|197:104|197:104|117:138,1,170
326,128,13929,2,0,L|416:127,1,85
313,217,14223,5,0,0:0:0:0:
224,259,14371,1,0,0:0:0:0:
136,216,14518,1,0,0:0:0:0:
108,148,14665,2,0,B|63:192|63:192|66:267,1,127.500004863739
136,216,15106,2,0,L|141:292,1,63.7500024318696
224,259,15400,2,0,L|232:331,2,63.7500024318696
313,217,15841,2,0,B|306:158|306:158|238:131,1,127.500004863739
136,216,16282,6,0,L|62:221,1,63.7500024318696
133,134,16576,2,0,L|135:68,2,63.7500024318696
102,6,17018,2,0,B|65:29|65:29|59:119,1,127.500004863739
136,216,17459,2,0,L|210:219,1,63.7500024318696
277,309,17753,2,0,L|204:306,2,63.7500024318696
51,253,18194,2,0,B|61:293|61:293|154:303,1,127.500004863739
31,121,18635,6,0,L|37:191,1,63.7500024318696
229,231,18929,1,0,0:0:0:0:
51,253,19076,1,0,0:0:0:0:
395,198,19371,6,0,L|211:234,1,170
446,98,19812,2,0,L|353:118,1,85
476,185,20106,1,0,0:0:0:0:
424,283,20253,1,0,0:0:0:0:
391,180,20400,1,0,0:0:0:0:
430,296,20547,2,0,L|341:325,1,85
301,182,20841,2,0,L|392:158,1,85
298,270,21135,1,0,0:0:0:0:
294,92,21282,1,0,0:0:0:0:
206,203,21429,2,0,L|206:291,1,85
21,108,21723,6,0,B|93:98|93:98|132:116|132:116|217:105,1,170
290,190,22165,2,0,L|194:204,1,85
59,219,22459,1,0,0:0:0:0:
205,202,22606,1,0,0:0:0:0:
36,219,22753,1,0,0:0:0:0:
208,217,22900,2,0,L|206:305,1,85
340,182,23194,2,0,L|340:86,2,85
247,121,23635,1,0,0:0:0:0:
137,137,23782,1,0,0:0:0:0:
108,243,23929,1,0,0:0:0:0:
404,236,24076,6,0,B|449:192|449:192|446:117,1,127.500004863739
376,168,24517,2,0,L|371:92,1,63.7500024318696
288,125,24811,2,0,L|280:53,2,63.7500024318696
199,167,25252,2,0,B|206:226|206:226|274:253,1,127.500004863739
376,168,25693,6,0,L|450:163,1,63.7500024318696
379,250,25987,2,0,L|377:316,2,63.7500024318696
410,378,26429,2,0,B|447:355|447:355|453:265,1,127.500004863739
376,168,26870,2,0,L|302:165,1,63.7500024318696
235,75,27164,2,0,L|308:78,2,63.7500024318696
196,152,27606,1,0,0:0:0:0:
327,222,27753,6,0,L|331:302,1,63.7500024318696
169,217,28047,2,0,L|173:303,1,63.7500024318696
168,134,28341,1,0,0:0:0:0:
327,222,28488,1,0,0:0:0:0:
