osu file format v14

[General]
AudioFilename: audio.mp3
AudioLeadIn: 0
PreviewTime: 175678
Countdown: 1
SampleSet: Soft
StackLeniency: 0.7
Mode: 0
LetterboxInBreaks: 0
WidescreenStoryboard: 0

[Editor]
Bookmarks: 207753
DistanceSpacing: 0.5
BeatDivisor: 4
GridSize: 16
TimelineZoom: 3.199999

[Metadata]
Title:Lonely Go!
TitleUnicode:Lonely Go!
Artist:Brian the Sun
ArtistUnicode:Brian the Sun
Creator:Riene
Version:DO NOT PLAY THIS DIFF
Source:BORUTO-ボルト-NARUTO NEXT GENERATIONS
Tags:boruto naruto lonely go opening
BeatmapID:1917592
BeatmapSetID:918277

[Difficulty]
HPDrainRate:6
CircleSize:4
OverallDifficulty:9
ApproachRate:9.5
SliderMultiplier:1.8
SliderTickRate:1

[Events]
//Background and Video events
0,0,"820590.jpg",0,0
//Break Periods
2,81482,84287
2,156041,170757
2,177863,205741
//Storyboard Layer 0 (Background)
//Storyboard Layer 1 (Fail)
//Storyboard Layer 2 (Pass)
//Storyboard Layer 3 (Foreground)
//Storyboard Sound Samples

[TimingPoints]
1871,294.117647058824,4,2,1,60,1,0
2753,-200,4,2,1,60,0,0
2973,-200,4,2,1,5,0,0
3047,-200,4,2,1,60,0,0
7165,-100,4,2,1,60,0,0
14665,-133.333333333333,4,2,1,40,0,0
18341,-133.333333333333,4,2,1,50,0,0
18635,-133.333333333333,4,2,1,55,0,0
18929,-133.333333333333,4,2,1,70,0,0
19371,-100,4,2,1,60,0,0
24076,-133.333333333333,4,2,1,40,0,0
27753,-133.333333333333,4,2,1,50,0,0
28047,-133.333333333333,4,2,1,55,0,0
28341,-133.333333333333,4,2,1,70,0,0
28782,-100,4,2,1,60,0,0
33488,-100,4,2,1,65,0,1
47606,-100,4,2,1,60,0,0
49959,-133.333333333333,4,2,1,60,0,0
50253,-100,4,2,1,60,0,0
52459,-100,4,2,1,75,0,1
55988,-90.9090909090909,4,2,1,75,0,1
56576,-80,4,2,1,75,0,1
56871,-100,4,2,1,75,0,1
70400,-133.333333333333,4,2,1,60,0,1
71282,-100,4,2,1,60,0,0
90400,-133.333333333333,4,2,1,40,0,0
93635,-133.333333333333,4,2,1,50,0,0
93929,-133.333333333333,4,2,1,55,0,0
94223,-133.333333333333,4,2,1,70,0,0
94665,-100,4,2,1,60,0,0
99371,-133.333333333333,4,2,1,60,0,0
113488,-100,4,2,1,60,0,0
118341,-100,4,2,1,70,0,1
121871,-90.9090909090909,4,2,1,70,0,1
122459,-80,4,2,1,70,0,1
122753,-100,4,2,1,70,0,1
130988,-80,4,2,1,70,0,1
131282,-100,4,2,1,70,0,1
137165,-125,4,2,1,60,0,0
144371,-100,4,2,1,60,0,0
145326,-125,4,2,1,60,0,0
170988,-125,4,2,1,5,0,0
172753,-125,4,2,1,10,0,0
173195,-125,4,2,1,20,0,0
173930,-125,4,2,1,30,0,0
174371,-125,4,2,1,40,0,0
174812,-125,4,2,1,50,0,0
175254,-125,4,2,1,60,0,0
175547,-125,4,2,1,5,0,0
175678,294.117647058824,4,2,1,60,1,0
175678,-66.6666666666667,4,2,1,60,0,0
178031,-100,4,2,1,70,0,1
205972,-100,4,2,1,60,0,0
215678,-25,4,2,1,60,0,0

[HitObjects]
166,31,1871,6,0,L|167:107,1,45,8|0,0:0|0:0,0:0:0:0:
162,187,2018,1,0,0:0:0:0:
162,209,2091,1,0,0:0:0:0:
161,231,2165,1,0,0:0:0:0:
160,253,2238,1,0,0:0:0:0:
158,271,2312,6,0,L|155:339,1,45,8|0,0:0|0:0,0:0:0:0:
343,202,2459,2,0,L|343:157,1,45
256,54,2606,1,0,0:0:0:0:
256,77,2679,1,0,0:0:0:0:
255,100,2753,2,0,L|256:177,1,67.5,8|4,0:0|0:0,0:0:0:0:
256,212,3047,6,0,B|255:274|234:324|234:324|282:290|361:316|361:316|379:290|471:335,1,360
105,235,5400,2,0,B|112:177|32:164|32:164|131:146|213:248,1,315
29,243,6576,2,0,B|25:307|88:346|88:345|126:300|126:300|140:314,1,180
370,155,7606,1,0,0:0:0:0:
370,137,7679,1,0,0:0:0:0:
370,118,7753,2,0,P|300:97|235:107,1,135,10|0,0:0|0:0,0:0:0:0:
216,144,8047,5,10,0:0:0:0:
233,264,8194,1,0,0:0:0:0:
146,83,8341,1,10,0:0:0:0:
296,314,8488,1,0,0:0:0:0:
350,31,8635,1,10,0:0:0:0:
172,344,8782,1,0,0:0:0:0:
444,227,8929,6,0,L|459:127,1,90,10|0,0:0|0:0,0:0:0:0:
231,38,9223,1,10,0:0:0:0:
177,253,9371,1,0,0:0:0:0:
171,274,9444,1,0,0:0:0:0:
165,295,9518,1,10,0:0:0:0:
98,110,9665,1,2,0:0:0:0:
333,72,9959,6,0,B|381:95|381:95|396:238,1,180,6|0,0:0|0:0,0:0:0:0:
219,112,10400,2,0,P|215:64|237:20,1,90,10|0,0:0|0:0,0:0:0:0:
298,240,10694,1,2,0:0:0:0:
159,236,10841,1,2,0:0:0:0:
333,72,10988,1,8,0:0:0:0:
302,345,11135,2,0,L|191:363,1,90,2|0,0:0|0:0,0:0:0:0:
281,184,11429,2,0,L|379:167,1,90,2|8,0:0|0:0,0:0:0:0:
213,359,11723,1,0,0:0:0:0:
115,124,11871,5,2,0:0:0:0:
287,260,12018,1,2,0:0:0:0:
267,97,12165,1,8,0:0:0:0:
51,160,12312,2,0,L|74:267,1,90,2|0,0:0|0:0,0:0:0:0:
181,128,12606,2,0,L|158:21,1,90,2|8,0:0|0:0,0:0:0:0:
214,277,12900,1,0,0:0:0:0:
379,93,13047,5,2,0:0:0:0:
196,202,13194,1,2,0:0:0:0:
394,81,13341,1,8,0:0:0:0:
167,59,13488,1,2,0:0:0:0:
357,270,13635,2,0,L|336:162,1,90,0|2,0:0|0:0,0:0:0:0:
221,296,13929,2,0,L|242:404,1,90,8|0,0:0|0:0,0:0:0:0:
320,110,14223,5,10,0:0:0:0:
99,247,14371,1,2,0:0:0:0:
282,221,14518,1,2,0:0:0:0:
134,58,14665,2,0,P|66:94|71:174,1,135.000005149842,4|0,0:0|0:0,0:0:0:0:
226,254,15106,6,0,L|314:264,1,67.5000025749208,2|0,0:0|0:0,0:0:0:0:
286,179,15400,2,0,L|374:189,1,67.5000025749208,2|0,0:0|0:0,0:0:0:0:
341,108,15694,2,0,L|429:118,1,67.5000025749208,2|0,0:0|0:0,0:0:0:0:
187,90,15988,1,2,0:0:0:0:
132,287,16282,6,0,L|126:190,1,67.5000025749208,2|0,0:0|0:0,0:0:0:0:
213,231,16576,2,0,L|207:134,1,67.5000025749208,2|0,0:0|0:0,0:0:0:0:
294,169,16871,2,0,L|288:72,1,67.5000025749208,2|0,0:0|0:0,0:0:0:0:
301,295,17165,1,2,0:0:0:0:
148,99,17459,6,0,L|227:92,1,67.5000025749208,2|0,0:0|0:0,0:0:0:0:
211,175,17753,2,0,L|290:168,1,67.5000025749208,2|0,0:0|0:0,0:0:0:0:
282,248,18047,2,0,L|361:241,1,67.5000025749208,2|0,0:0|0:0,0:0:0:0:
128,186,18341,2,0,L|141:265,1,67.5000025749208,2|0,0:0|0:0,0:0:0:0:
384,186,18635,2,0,L|371:265,1,67.5000025749208,2|0,0:0|0:0,0:0:0:0:
114,112,18929,5,10,0:0:0:0:
400,117,19076,1,10,0:0:0:0:
182,259,19371,6,0,B|132:235|132:235|111:94,1,180,6|0,0:0|0:0,0:0:0:0:
279,263,19812,2,0,P|334:269|369:262,1,90,10|0,0:0|0:0,0:0:0:0:
251,138,20106,1,2,0:0:0:0:
214,331,20253,1,2,0:0:0:0:
146,112,20400,1,8,0:0:0:0:
366,160,20547,2,0,L|454:178,1,90,2|0,0:0|0:0,0:0:0:0:
315,253,20841,2,0,L|226:234,1,90,2|8,0:0|0:0,0:0:0:0:
146,112,21135,1,0,0:0:0:0:
214,331,21282,5,2,0:0:0:0:
286,81,21429,1,2,0:0:0:0:
103,241,21576,1,8,0:0:0:0:
404,261,21723,2,0,P|345:252|282:258,1,90,2|0,0:0|0:0,0:0:0:0:
214,331,22018,1,2,0:0:0:0:
146,112,22165,1,8,0:0:0:0:
304,253,22312,1,0,0:0:0:0:
103,241,22459,5,2,0:0:0:0:
232,49,22606,1,2,0:0:0:0:
219,263,22753,1,8,0:0:0:0:
146,112,22900,2,0,L|54:116,1,90,2|0,0:0|0:0,0:0:0:0:
247,178,23194,2,0,L|339:174,1,90,2|8,0:0|0:0,0:0:0:0:
133,187,23488,1,0,0:0:0:0:
408,170,23635,5,10,0:0:0:0:
219,263,23782,1,2,0:0:0:0:
247,122,23929,1,2,0:0:0:0:
319,286,24076,2,0,L|473:310,1,135.000005149842,4|0,0:0|0:0,0:0:0:0:
141,201,24518,6,0,L|148:277,1,67.5000025749208,2|0,0:0|0:0,0:0:0:0:
228,151,24812,2,0,L|235:227,1,67.5000025749208,2|0,0:0|0:0,0:0:0:0:
313,92,25106,2,0,L|320:168,1,67.5000025749208,2|0,0:0|0:0,0:0:0:0:
332,293,25400,1,2,0:0:0:0:
313,92,25694,6,0,L|237:99,1,67.5000025749208,2|0,0:0|0:0,0:0:0:0:
363,179,25988,2,0,L|287:186,1,67.5000025749208,2|0,0:0|0:0,0:0:0:0:
422,264,26282,2,0,L|346:271,1,67.5000025749208,2|0,0:0|0:0,0:0:0:0:
221,283,26576,1,2,0:0:0:0:
100,147,26871,6,0,L|104:73,1,67.5000025749208,2|0,0:0|0:0,0:0:0:0:
191,232,27165,2,0,L|195:158,1,67.5000025749208,2|0,0:0|0:0,0:0:0:0:
295,305,27459,2,0,L|299:231,1,67.5000025749208,2|0,0:0|0:0,0:0:0:0:
138,202,27753,6,0,L|151:108,1,67.5000025749208,6|0,0:0|0:0,0:0:0:0:
374,202,28047,2,0,L|364:135,1,67.5000025749208,6|0,0:0|0:0,0:0:0:0:
125,280,28341,5,10,0:0:0:0:
385,283,28488,1,10,0:0:0:0:
173,120,28782,6,0,B|133:149|133:149|125:279,1,180,6|0,0:0|0:0,0:0:0:0:
271,141,29223,2,0,P|261:81|232:49,1,90,10|0,0:0|0:0,0:0:0:0:
201,272,29518,1,2,0:0:0:0:
353,111,29665,1,2,0:0:0:0:
344,351,29812,1,8,0:0:0:0:
209,145,29959,2,0,L|109:134,1,90,2|0,0:0|0:0,0:0:0:0:
201,272,30253,2,0,L|301:283,1,90,2|8,0:0|0:0,0:0:0:0:
407,153,30547,1,0,0:0:0:0:
285,353,30694,5,2,0:0:0:0:
279,112,30841,1,2,0:0:0:0:
151,342,30988,1,8,0:0:0:0:
428,309,31135,2,0,L|439:188,1,90,2|0,0:0|0:0,0:0:0:0:
314,97,31429,5,2,0:0:0:0:
328,331,31576,1,8,0:0:0:0:
130,160,31723,1,0,0:0:0:0:
409,121,31871,1,2,0:0:0:0:
111,159,32018,1,2,0:0:0:0:
335,317,32165,1,8,0:0:0:0:
409,121,32312,2,0,L|422:19,1,90,2|0,0:0|0:0,0:0:0:0:
273,246,32606,2,0,L|171:233,1,90,2|8,0:0|0:0,0:0:0:0:
136,78,32900,1,2,0:0:0:0:
107,296,33047,6,0,B|126:324|126:324|212:331,1,90,10|0,0:0|0:0,0:0:0:0:
372,340,33341,1,2,0:0:0:0:
381,57,33488,6,0,B|329:74|329:74|333:210,1,180,4|0,0:0|0:0,0:0:0:0:
372,340,33929,1,8,0:0:0:0:
156,196,34076,1,0,0:0:0:0:
413,241,34223,1,8,0:0:0:0:
120,310,34371,1,0,0:0:0:0:
374,133,34518,1,8,0:0:0:0:
254,359,34665,1,0,0:0:0:0:
216,112,34812,2,0,L|194:21,1,90,8|0,0:0|0:0,0:0:0:0:
372,340,35106,1,8,0:0:0:0:
141,226,35253,2,0,L|36:227,1,90,0|8,0:0|0:0,0:0:0:0:
374,133,35547,2,0,L|471:134,1,90,0|8,0:0|0:0,0:0:0:0:
121,144,35841,6,0,P|172:144|223:269,1,180,12|0,0:0|0:0,0:0:0:0:
51,226,36282,1,8,0:0:0:0:
222,15,36429,1,0,0:0:0:0:
141,226,36576,1,8,0:0:0:0:
60,11,36723,1,0,0:0:0:0:
236,227,36871,1,8,0:0:0:0:
322,16,37018,1,0,0:0:0:0:
344,226,37165,2,0,L|354:330,1,90,8|0,0:0|0:0,0:0:0:0:
236,227,37459,1,8,0:0:0:0:
334,94,37606,2,0,L|447:93,1,90,0|8,0:0|0:0,0:0:0:0:
236,227,37900,2,0,L|143:228,1,90,0|8,0:0|0:0,0:0:0:0:
422,181,38194,6,0,P|440:232|336:320,1,180,4|0,0:0|0:0,0:0:0:0:
235,229,38635,1,8,0:0:0:0:
146,41,38782,1,0,0:0:0:0:
177,292,38929,1,8,0:0:0:0:
280,72,39076,1,0,0:0:0:0:
264,351,39223,1,8,0:0:0:0:
67,181,39371,5,0,0:0:0:0:
312,197,39518,2,0,L|413:211,1,90,8|0,0:0|0:0,0:0:0:0:
177,292,39812,1,8,0:0:0:0:
119,60,39959,1,0,0:0:0:0:
83,251,40106,1,8,0:0:0:0:
221,18,40253,1,0,0:0:0:0:
30,150,40400,1,8,0:0:0:0:
321,30,40547,6,0,P|379:36|410:155,1,180,4|0,0:0|0:0,0:0:0:0:
310,247,40988,1,8,0:0:0:0:
84,304,41135,1,0,0:0:0:0:
273,144,41282,1,8,0:0:0:0:
47,201,41429,1,0,0:0:0:0:
232,47,41576,1,8,0:0:0:0:
6,104,41723,1,0,0:0:0:0:
273,144,41871,2,0,L|392:119,1,90,8|0,0:0|0:0,0:0:0:0:
310,247,42165,2,0,L|191:272,1,90,8|0,0:0|0:0,0:0:0:0:
275,143,42459,6,0,L|324:132,1,45,8|0,0:0|0:0,0:0:0:0:
310,247,42606,2,0,L|252:265,1,45,8|0,0:0|0:0,0:0:0:0:
191,166,42753,1,8,0:0:0:0:
394,122,42900,6,0,P|440:120|455:250,1,180,4|0,0:0|0:0,0:0:0:0:
266,359,43341,1,8,0:0:0:0:
203,92,43488,1,0,0:0:0:0:
196,305,43635,1,8,0:0:0:0:
295,45,43782,1,0,0:0:0:0:
275,265,43929,1,8,0:0:0:0:
192,4,44076,5,0,0:0:0:0:
106,253,44223,2,0,L|101:352,1,90,8|0,0:0|0:0,0:0:0:0:
275,265,44518,1,8,0:0:0:0:
47,162,44665,1,0,0:0:0:0:
356,170,44812,1,8,0:0:0:0:
104,254,44959,1,0,0:0:0:0:
295,71,45106,1,8,0:0:0:0:
215,329,45253,6,0,P|298:357|353:273,1,180,4|0,0:0|0:0,0:0:0:0:
104,254,45694,1,8,0:0:0:0:
295,71,45841,1,0,0:0:0:0:
67,159,45988,1,8,0:0:0:0:
331,165,46135,1,0,0:0:0:0:
108,67,46282,1,8,0:0:0:0:
291,258,46429,5,0,0:0:0:0:
202,30,46576,2,0,L|202:130,1,90,8|0,0:0|0:0,0:0:0:0:
331,165,46871,1,8,0:0:0:0:
90,203,47018,2,0,L|-6:208,1,90,0|8,0:0|0:0,0:0:0:0:
194,289,47312,1,8,0:0:0:0:
499,134,47606,6,0,B|397:102|427:187|322:163,1,180,4|0,0:0|0:0,0:0:0:0:
467,290,48047,2,0,P|471:227|460:187,1,90,2|0,0:0|0:0,0:0:0:0:
348,85,48341,1,0,0:0:0:0:
267,254,48488,1,0,0:0:0:0:
231,83,48635,2,0,L|124:76,1,90,10|0,0:0|0:0,0:0:0:0:
370,187,48929,5,0,0:0:0:0:
166,167,49076,1,0,0:0:0:0:
267,254,49223,2,0,L|270:356,1,90,10|0,0:0|0:0,0:0:0:0:
166,167,49518,2,0,L|165:65,1,90,2|0,0:0|0:0,0:0:0:0:
82,254,49812,1,2,0:0:0:0:
268,166,49959,6,0,B|325:165|325:165|344:176|344:176|415:177,1,135.000005149842,4|2,0:0|0:0,0:0:0:0:
173,310,50400,1,8,0:0:0:0:
141,37,50547,1,2,0:0:0:0:
311,318,50694,1,8,0:0:0:0:
373,42,50841,1,2,0:0:0:0:
222,255,50988,1,8,0:0:0:0:
461,104,51135,1,2,0:0:0:0:
204,149,51282,2,8,L|275:163,1,45
480,211,51429,2,8,L|413:195,1,45
185,221,51576,2,8,L|256:235,1,45
461,283,51723,2,8,L|394:267,1,45
165,288,51871,2,0,L|359:329,1,180,4|0,0:0|0:0,0:0:0:0:
61,122,52459,6,0,B|131:124|131:124|161:142|161:142|244:147,1,180,4|8,0:0|0:0,0:0:0:0:
78,229,52900,1,2,0:0:0:0:
204,64,53047,2,0,L|396:75,1,180,2|10,0:0|0:0,0:0:0:0:
384,197,53488,1,2,0:0:0:0:
167,237,53635,2,0,L|45:225,1,90
294,188,53929,2,0,L|416:200,1,90,8|0,0:0|0:0,0:0:0:0:
267,308,54223,5,2,0:0:0:0:
254,68,54371,1,0,0:0:0:0:
167,237,54518,1,10,0:0:0:0:
367,121,54665,1,0,0:0:0:0:
135,106,54812,2,0,L|34:101,1,90
254,68,55106,1,8,0:0:0:0:
167,237,55253,2,0,L|156:344,2,90,2|0|0,0:0|0:0|0:0,0:0:0:0:
135,106,55694,5,8,0:0:0:0:
264,240,55841,1,0,0:0:0:0:
254,68,55988,2,0,P|340:53|452:83,1,198.000006042481,0|8,0:0|0:0,0:0:0:0:
354,242,56429,1,0,0:0:0:0:
50,232,56576,2,0,B|101:265|101:265|284:236,1,225,0|8,0:0|0:0,0:0:0:0:
135,106,57018,1,0,0:0:0:0:
114,193,57165,6,0,L|114:288,1,90
225,173,57459,2,0,L|225:73,1,90,8|0,0:0|0:0,0:0:0:0:
324,319,57753,2,0,L|223:319,1,90
58,107,58047,6,0,L|161:107,1,90,8|0,0:0|0:0,0:0:0:0:
319,238,58341,2,0,L|316:142,1,90
163,231,58635,2,0,L|163:324,1,90,8|0,0:0|0:0,0:0:0:0:
304,66,58929,2,0,L|417:65,1,90
253,231,59223,2,0,L|154:231,1,90,8|0,0:0|0:0,0:0:0:0:
441,190,59518,6,0,P|469:140|363:75,1,180,0|8,0:0|0:0,0:0:0:0:
349,273,59959,1,0,0:0:0:0:
248,141,60106,2,0,L|253:240,1,90
130,93,60400,1,8,0:0:0:0:
357,176,60547,1,0,0:0:0:0:
131,223,60694,6,0,L|31:225,1,90
321,60,60988,2,0,L|417:61,1,90,8|0,0:0|0:0,0:0:0:0:
260,297,61282,1,0,0:0:0:0:
133,137,61429,6,0,L|128:77,1,45,8|0,0:0|0:0,0:0:0:0:
174,33,61576,1,8,0:0:0:0:
145,275,61723,6,0,L|151:334,1,45,8|0,0:0|0:0,0:0:0:0:
101,381,61871,2,0,L|81:236,1,135,4|0,0:0|0:0,0:0:0:0:
133,137,62165,6,0,B|213:97|209:196|317:144,1,180,12|0,0:0|0:0,0:0:0:0:
143,224,62606,1,0,0:0:0:0:
264,0,62753,2,0,P|269:50|262:93,1,90,8|0,0:0|0:0,0:0:0:0:
143,224,63047,1,0,0:0:0:0:
94,63,63194,1,0,0:0:0:0:
59,248,63341,2,0,P|66:306|112:329,1,90,8|0,0:0|0:0,0:0:0:0:
3,166,63635,1,0,0:0:0:0:
161,139,63782,2,0,P|216:133|275:143,1,90,0|8,0:0|0:0,0:0:0:0:
166,249,64076,5,0,0:0:0:0:
94,63,64223,2,0,P|165:53|226:56,1,90,12|0,0:0|0:0,0:0:0:0:
82,233,64518,1,8,0:0:0:0:
327,157,64665,1,0,0:0:0:0:
70,144,64812,1,0,0:0:0:0:
301,249,65106,6,0,P|382:246|425:160,1,180,4|0,0:0|0:0,0:0:0:0:
159,145,65547,2,0,P|104:141|52:147,1,90,0|8,0:0|0:0,0:0:0:0:
191,234,65841,1,0,0:0:0:0:
269,60,65988,1,0,0:0:0:0:
301,249,66135,1,0,0:0:0:0:
160,146,66282,6,0,P|155:85|168:37,1,90,8|0,0:0|0:0,0:0:0:0:
467,203,66576,2,0,B|361:182|388:263|293:247,1,180,4|8,0:0|0:0,0:0:0:0:
161,147,67018,1,0,0:0:0:0:
315,172,67165,1,0,0:0:0:0:
148,230,67312,1,0,0:0:0:0:
255,110,67459,2,0,P|240:64|197:23,1,90,8|0,0:0|0:0,0:0:0:0:
234,263,67753,2,0,B|305:266|305:266|326:284|326:284|427:291,1,180,4|8,0:0|0:0,0:0:0:0:
255,110,68194,5,0,0:0:0:0:
148,230,68341,1,0,0:0:0:0:
130,46,68488,1,0,0:0:0:0:
246,209,68635,2,0,P|302:220|356:212,1,90,8|0,0:0|0:0,0:0:0:0:
136,147,68929,2,0,P|65:129|35:19,1,180,4|8,0:0|0:0,0:0:0:0:
255,110,69371,5,0,0:0:0:0:
148,243,69518,1,0,0:0:0:0:
145,46,69665,1,0,0:0:0:0:
320,211,69812,1,0,0:0:0:0:
178,165,69959,1,0,0:0:0:0:
268,105,70106,1,0,0:0:0:0:
286,97,70400,2,0,B|371:67|383:160|484:121,1,202.500007724762,4|0,0:0|0:0,0:0:0:0:
434,54,70988,6,8,L|423:8,1,33.7500012874604
334,177,71135,2,8,L|342:234,1,33.7500012874604
286,97,71282,2,0,B|241:84|241:84|126:115,1,135,4|0,0:0|0:0,0:0:0:0:
59,217,71576,2,0,P|58:289|168:306,1,180,12|0,0:0|0:0,0:0:0:0:
226,174,72018,1,0,0:0:0:0:
130,242,72165,1,8,0:0:0:0:
294,257,72312,2,0,L|403:286,1,90,4|0,0:0|0:0,0:0:0:0:
202,331,72606,1,0,0:0:0:0:
226,174,72753,2,0,L|237:74,1,90,8|0,0:0|0:0,0:0:0:0:
130,242,73047,5,0,0:0:0:0:
331,167,73194,1,0,0:0:0:0:
202,331,73341,1,8,0:0:0:0:
161,116,73488,2,0,L|57:114,1,90,4|0,0:0|0:0,0:0:0:0:
130,242,73782,1,0,0:0:0:0:
331,167,73929,2,0,L|333:63,1,90,8|0,0:0|0:0,0:0:0:0:
161,116,74223,5,0,0:0:0:0:
283,261,74371,1,0,0:0:0:0:
279,57,74518,1,8,0:0:0:0:
130,242,74665,2,0,L|128:346,1,90,4|0,0:0|0:0,0:0:0:0:
226,174,74959,1,0,0:0:0:0:
368,58,75106,2,0,L|264:56,1,90,8|0,0:0|0:0,0:0:0:0:
130,242,75400,1,0,0:0:0:0:
146,51,75547,1,2,0:0:0:0:
220,259,75694,1,8,0:0:0:0:
98,136,75841,6,0,P|46:114|74:0,1,180,4|0,0:0|0:0,0:0:0:0:
253,146,76282,2,0,B|308:144|308:144|370:183,1,90,8|0,0:0|0:0,0:0:0:0:
220,259,76576,1,0,0:0:0:0:
173,57,76723,1,2,0:0:0:0:
318,211,76871,1,8,0:0:0:0:
144,217,77018,2,0,L|54:222,1,90,6|0,0:0|0:0,0:0:0:0:
173,57,77312,1,0,0:0:0:0:
318,211,77459,2,0,L|328:319,1,90,8|0,0:0|0:0,0:0:0:0:
394,66,77753,5,0,0:0:0:0:
187,152,77900,1,0,0:0:0:0:
318,211,78047,1,8,0:0:0:0:
271,84,78194,2,0,L|268:-11,1,90,4|0,0:0|0:0,0:0:0:0:
207,241,78488,1,0,0:0:0:0:
104,149,78635,2,0,L|0:151,1,90,8|0,0:0|0:0,0:0:0:0:
180,48,78929,5,0,0:0:0:0:
207,241,79076,1,0,0:0:0:0:
104,150,79223,1,8,0:0:0:0:
276,135,79371,2,0,B|352:131|352:131|376:140|376:140|471:132,1,180,4|0,0:0|0:0,0:0:0:0:
180,48,79812,2,0,L|191:142,1,90,8|0,0:0|0:0,0:0:0:0:
212,309,80106,1,0,0:0:0:0:
276,135,80253,1,0,0:0:0:0:
305,318,80400,1,0,0:0:0:0:
190,137,80547,2,0,L|197:197,1,45,8|0,0:0|0:0,0:0:0:0:
190,137,80988,6,0,B|201:194|201:194|331:225,1,180,12|0,0:0|0:0,0:0:0:0:
111,172,84812,6,0,L|186:172,1,45,8|0,0:0|0:0,0:0:0:0:
383,212,84959,1,8,0:0:0:0:
99,250,85253,2,0,B|46:239|46:239|26:89,1,180,4|0,0:0|0:0,0:0:0:0:
209,211,85694,1,0,0:0:0:0:
112,349,85841,2,0,L|14:354,1,90,0|8,0:0|0:0,0:0:0:0:
229,342,86135,1,0,0:0:0:0:
278,127,86282,1,0,0:0:0:0:
128,266,86429,5,8,0:0:0:0:
329,282,86576,2,0,L|426:291,1,90
278,127,86871,2,0,L|181:118,1,90,8|0,0:0|0:0,0:0:0:0:
249,269,87165,1,0,0:0:0:0:
188,118,87312,2,0,L|91:109,1,90,8|0,0:0|0:0,0:0:0:0:
329,282,87606,6,0,B|384:285|384:285|375:132,1,180
249,269,88047,1,0,0:0:0:0:
264,59,88194,2,0,L|369:53,1,90,8|0,0:0|0:0,0:0:0:0:
138,140,88488,1,0,0:0:0:0:
369,142,88635,2,0,L|376:237,1,90,8|0,0:0|0:0,0:0:0:0:
264,59,88929,5,0,0:0:0:0:
188,260,89076,1,8,0:0:0:0:
371,143,89223,1,0,0:0:0:0:
138,140,89371,1,0,0:0:0:0:
326,279,89518,5,8,0:0:0:0:
264,59,89665,1,0,0:0:0:0:
188,260,89812,1,0,0:0:0:0:
9,207,89959,2,0,B|82:208|82:208|122:189|122:189|218:189,1,180,4|0,0:0|0:0,0:0:0:0:
188,260,90400,6,0,L|191:339,1,67.5000025749208
269,203,90694,2,0,L|272:282,1,67.5000025749208,8|0,0:0|0:0,0:0:0:0:
345,142,90988,2,0,L|348:221,1,67.5000025749208,0|8,0:0|0:0,0:0:0:0:
351,325,91282,1,0,0:0:0:0:
270,203,91429,1,8,0:0:0:0:
252,349,91576,2,0,L|141:353,1,101.250003862381
30,295,91871,2,0,B|89:287|89:287|102:294|102:294|113:284|113:284|176:276,1,135.000005149842,8|0,0:0|0:0,0:0:0:0:
289,153,92312,1,8,0:0:0:0:
288,136,92385,1,8,0:0:0:0:
288,119,92459,1,8,0:0:0:0:
342,271,92606,1,8,0:0:0:0:
186,55,92753,2,0,L|186:185,1,101.250003862381
92,172,93047,6,0,B|109:231|109:231|203:247,1,135.000005149842,8|0,0:0|0:0,0:0:0:0:
342,271,93488,1,0,0:0:0:0:
170,112,93635,6,0,L|183:191,1,67.5000025749208,4|0,0:0|0:0,0:0:0:0:
426,112,93929,2,0,L|413:191,1,67.5000025749208,4|0,0:0|0:0,0:0:0:0:
156,38,94223,5,8,0:0:0:0:
442,43,94370,1,8,0:0:0:0:
212,190,94665,6,0,B|168:168|168:168|154:20,1,180
306,182,95106,2,0,P|289:245|259:271,1,90
217,80,95400,1,0,0:0:0:0:
135,263,95547,1,0,0:0:0:0:
368,287,95694,1,0,0:0:0:0:
131,163,95841,2,0,L|26:169,1,90
239,262,96135,1,0,0:0:0:0:
217,80,96282,2,0,L|112:86,1,90
407,166,96576,5,0,0:0:0:0:
239,262,96723,1,0,0:0:0:0:
217,79,96871,1,0,0:0:0:0:
401,251,97018,2,0,L|398:358,1,90
173,170,97312,1,0,0:0:0:0:
314,49,97459,1,0,0:0:0:0:
239,262,97606,1,0,0:0:0:0:
148,78,97753,2,0,L|54:81,2,90
45,191,98194,2,0,L|44:298,1,90
150,78,98488,1,0,0:0:0:0:
15,108,98635,1,0,0:0:0:0:
152,172,98782,1,0,0:0:0:0:
230,27,98929,2,0,L|331:26,1,90
244,175,99223,1,0,0:0:0:0:
61,297,99371,6,0,L|182:303,1,101.250003862381
216,333,99665,1,0,0:0:0:0:
80,161,99812,2,0,L|-1:158,1,67.5000025749208
222,249,100106,1,0,0:0:0:0:
222,249,100253,1,0,0:0:0:0:
342,85,100547,6,0,L|341:176,1,67.5000025749208
222,249,100841,1,0,0:0:0:0:
207,51,100988,2,0,L|291:51,1,67.5000025749208
157,161,101282,1,0,0:0:0:0:
157,161,101429,1,0,0:0:0:0:
341,152,101576,1,0,0:0:0:0:
222,249,101723,2,0,L|134:249,1,67.5000025749208
341,152,102018,1,0,0:0:0:0:
341,152,102165,1,0,0:0:0:0:
356,294,102459,6,0,L|354:370,1,67.5000025749208
283,218,102900,6,0,L|281:316,1,67.5000025749208
279,377,103194,1,0,0:0:0:0:
354,157,103341,2,0,L|448:159,1,67.5000025749208
281,285,103635,1,0,0:0:0:0:
281,285,103782,1,0,0:0:0:0:
217,95,103929,1,0,0:0:0:0:
178,279,104076,6,0,L|84:281,2,67.5000025749208
266,181,104518,1,0,0:0:0:0:
72,141,104812,5,0,0:0:0:0:
72,141,104959,1,0,0:0:0:0:
263,100,105253,2,0,L|336:102,1,67.5000025749208
201,175,105547,1,0,0:0:0:0:
190,18,105694,2,0,L|187:101,1,67.5000025749208
133,214,105988,1,0,0:0:0:0:
263,100,106135,1,0,0:0:0:0:
122,132,106282,6,0,L|47:133,1,67.5000025749208
222,213,106576,1,0,0:0:0:0:
222,213,106723,1,0,0:0:0:0:
131,288,106871,1,0,0:0:0:0:
223,126,107165,6,0,L|310:126,1,67.5000025749208
222,213,107459,1,0,0:0:0:0:
142,60,107606,2,0,L|141:132,1,67.5000025749208
60,221,107900,1,0,0:0:0:0:
141,127,108047,2,0,L|230:127,1,67.5000025749208
371,257,108341,2,0,L|282:257,1,67.5000025749208
421,142,108635,1,0,0:0:0:0:
203,202,108782,1,0,0:0:0:0:
293,65,108929,5,0,0:0:0:0:
320,189,109076,1,0,0:0:0:0:
182,108,109223,2,0,L|99:107,1,67.5000025749208
293,65,109518,6,0,L|292:-16,2,67.5000025749208
181,108,109959,1,0,0:0:0:0:
399,192,110106,2,0,L|308:192,1,67.5000025749208
356,61,110400,1,0,0:0:0:0:
248,207,110547,1,0,0:0:0:0:
251,46,110694,1,0,0:0:0:0:
398,194,110841,1,0,0:0:0:0:
219,304,110988,2,0,L|138:306,1,67.5000025749208
248,139,111282,6,0,L|248:208,1,67.5000025749208
251,46,111576,1,0,0:0:0:0:
398,194,111871,6,0,L|474:192,1,67.5000025749208
388,276,112312,6,0,L|300:278,1,67.5000025749208
398,194,112606,1,0,0:0:0:0:
328,348,112753,2,0,L|256:350,1,67.5000025749208
252,113,113047,1,0,0:0:0:0:
388,276,113194,1,0,0:0:0:0:
68,253,113488,6,0,B|88:298|88:298|242:269,1,180
56,60,113929,2,0,P|47:120|53:168,1,90
134,213,114223,1,0,0:0:0:0:
219,43,114371,1,0,0:0:0:0:
290,309,114518,2,0,P|296:256|290:209,1,90
144,89,114812,1,0,0:0:0:0:
215,252,114959,1,0,0:0:0:0:
89,151,115106,2,0,L|-8:157,1,90
134,213,115400,5,0,0:0:0:0:
219,43,115547,1,0,0:0:0:0:
215,252,115694,1,0,0:0:0:0:
144,89,115841,2,0,P|78:96|16:202,1,180
215,252,116282,5,0,0:0:0:0:
393,35,116429,1,0,0:0:0:0:
332,326,116576,1,0,0:0:0:0:
233,63,116723,1,0,0:0:0:0:
404,233,116871,1,0,0:0:0:0:
148,117,117018,1,0,0:0:0:0:
390,116,117165,2,0,L|327:140,1,45
127,215,117312,2,0,L|202:189,1,45
416,185,117459,2,0,L|353:209,1,45
153,284,117606,2,0,L|228:258,1,45
450,248,117753,2,0,L|266:325,1,180
454,130,118341,6,0,B|384:132|384:132|354:150|354:150|279:154,1,180
431,211,118782,1,0,0:0:0:0:
310,75,118929,2,0,L|114:78,1,180
279,154,119371,1,0,0:0:0:0:
128,243,119518,2,0,L|127:356,1,90
279,154,119812,2,0,L|280:41,1,90
127,156,120106,5,0,0:0:0:0:
293,267,120253,1,0,0:0:0:0:
128,243,120400,1,0,0:0:0:0:
203,52,120547,1,0,0:0:0:0:
207,267,120694,2,0,L|206:373,1,90
127,156,120988,5,0,0:0:0:0:
288,53,121135,2,0,L|390:55,2,90
255,190,121576,1,0,0:0:0:0:
372,314,121723,1,0,0:0:0:0:
177,282,121871,2,0,B|141:256|141:256|110:171|169:107,1,198.000006042481
338,230,122312,1,0,0:0:0:0:
71,94,122459,2,0,B|39:156|39:156|33:255|89:336,1,225
0,73,122900,1,0,0:0:0:0:
241,124,123047,5,0,0:0:0:0:
162,273,123194,1,0,0:0:0:0:
166,37,123341,1,0,0:0:0:0:
306,242,123488,1,0,0:0:0:0:
79,302,123635,2,0,L|-19:308,1,90
241,124,123929,5,0,0:0:0:0:
298,343,124076,1,0,0:0:0:0:
124,202,124223,1,0,0:0:0:0:
417,197,124371,1,0,0:0:0:0:
203,328,124518,2,0,L|205:222,1,90
309,56,124812,2,0,L|307:162,1,90
124,202,125106,2,0,L|18:200,1,90
235,97,125400,5,0,0:0:0:0:
203,328,125547,1,0,0:0:0:0:
104,88,125694,1,0,0:0:0:0:
42,329,125841,1,0,0:0:0:0:
322,308,125988,1,0,0:0:0:0:
49,181,126135,1,0,0:0:0:0:
235,97,126282,2,0,L|346:97,1,90
189,263,126576,5,0,0:0:0:0:
155,37,126723,1,0,0:0:0:0:
94,285,126871,2,0,P|128:346|202:354,1,135
239,320,127165,1,0,0:0:0:0:
179,184,127312,6,0,L|119:189,1,45
75,143,127459,1,0,0:0:0:0:
364,172,127606,6,0,L|423:166,1,45
470,216,127754,2,0,L|325:236,1,135
239,320,128048,6,0,B|319:280|315:379|423:327,1,180
179,184,128488,1,0,0:0:0:0:
127,328,128635,2,0,P|74:332|28:325,1,90
166,87,128929,5,0,0:0:0:0:
198,282,129076,1,0,0:0:0:0:
342,145,129223,2,0,P|351:79|341:20,1,90
179,184,129518,5,0,0:0:0:0:
353,249,129665,1,0,0:0:0:0:
247,70,129812,1,0,0:0:0:0:
198,282,129959,1,0,0:0:0:0:
342,145,130106,6,0,P|391:142|435:178,1,90
141,192,130400,1,0,0:0:0:0:
118,192,130473,1,0,0:0:0:0:
95,192,130547,1,0,0:0:0:0:
288,71,130694,1,0,0:0:0:0:
198,282,130841,1,0,0:0:0:0:
457,137,130988,2,0,B|368:83|335:213|232:132,1,225
417,297,131429,6,0,P|416:226|410:189,1,90
298,257,131723,1,0,0:0:0:0:
124,179,131870,1,0,0:0:0:0:
313,147,132017,1,0,0:0:0:0:
210,288,132164,6,0,P|149:293|101:280,1,90
78,62,132458,2,0,B|164:116|170:25|256:66,1,180
211,287,132900,1,0,0:0:0:0:
236,133,133047,1,0,0:0:0:0:
294,300,133194,1,0,0:0:0:0:
174,193,133341,2,0,P|128:208|87:251,1,90
327,214,133635,2,0,B|330:143|330:143|348:122|348:122|355:21,1,180
174,193,134076,5,0,0:0:0:0:
294,300,134223,1,0,0:0:0:0:
115,293,134370,1,0,0:0:0:0:
246,120,134517,2,0,P|190:109|136:117,1,90
213,278,134811,2,0,P|195:349|85:379,1,180
246,122,135253,5,0,0:0:0:0:
115,293,135400,1,0,0:0:0:0:
65,47,135547,1,0,0:0:0:0:
205,216,135694,1,0,0:0:0:0:
14,167,135841,1,0,0:0:0:0:
136,112,135988,1,0,0:0:0:0:
150,101,136282,2,0,B|247:72|215:156|334:132,1,180
155,19,136723,1,0,0:0:0:0:
164,199,136871,1,0,0:0:0:0:
375,90,137165,6,0,B|419:86|419:86|405:212,1,144
293,301,137606,1,0,0:0:0:0:
271,110,137753,5,0,0:0:0:0:
415,294,137900,1,0,0:0:0:0:
174,253,138047,2,0,B|113:258|113:258|79:271|79:271|-1:277,1,144
256,141,138635,6,0,L|340:140,1,72
256,330,138929,2,0,L|256:246,1,72
166,141,139223,1,0,0:0:0:0:
343,238,139518,5,0,0:0:0:0:
158,226,139665,2,0,P|101:220|74:124,1,144
166,141,140106,2,0,P|223:147|250:243,1,144
188,318,140547,2,0,L|63:326,1,108
37,289,140841,5,0,0:0:0:0:
166,141,140988,2,0,P|164:78|155:50,1,72
257,219,141282,1,0,0:0:0:0:
66,157,141429,1,0,0:0:0:0:
229,58,141576,1,0,0:0:0:0:
161,251,141723,1,0,0:0:0:0:
351,317,141871,6,0,P|408:296|381:204,1,144
249,337,142312,1,0,0:0:0:0:
139,109,142459,1,0,0:0:0:0:
323,133,142606,1,0,0:0:0:0:
145,244,142753,2,0,P|123:196|149:94,1,144
323,133,143341,6,0,L|327:245,1,108
282,297,143635,1,0,0:0:0:0:
207,102,143782,1,0,0:0:0:0:
181,305,143929,1,0,0:0:0:0:
323,133,144076,1,0,0:0:0:0:
140,137,144223,6,0,L|86:142,1,36
21,150,144371,2,0,B|37:208|93:223|93:223|151:216,1,135
157,238,144665,1,0,0:0:0:0:
310,0,144812,2,0,B|243:16|228:72|228:72|235:130,1,135
243,225,145106,2,0,B|310:207|325:151|325:151|318:93,1,135
313,89,145400,5,0,0:0:0:0:
243,225,145547,1,0,0:0:0:0:
236,269,145620,1,0,0:0:0:0:
252,310,145694,1,0,0:0:0:0:
286,339,145767,1,0,0:0:0:0:
330,347,145841,2,0,P|387:342|426:318,1,72
412,263,146135,2,0,P|453:223|467:179,1,72
421,146,146429,1,0,0:0:0:0:
243,225,146576,6,0,B|209:235|209:235|243:117,1,144
111,242,147018,1,0,0:0:0:0:
33,33,147165,2,0,P|26:81|38:117,1,72
239,130,147459,1,0,0:0:0:0:
111,242,147606,1,0,0:0:0:0:
145,146,147900,6,0,B|119:129|119:129|108:270,1,144
161,61,148341,2,0,P|122:52|65:71,1,72
241,167,148635,1,0,0:0:0:0:
316,18,148782,1,0,0:0:0:0:
411,168,148929,2,0,P|420:237|408:318,1,144
241,167,149371,6,0,P|299:162|345:167,1,72
202,258,149812,2,0,P|155:260|109:255,1,72
312,162,150106,1,0,0:0:0:0:
331,313,150253,2,0,P|278:319|237:311,1,72
205,158,150547,1,0,0:0:0:0:
411,96,150694,2,0,P|414:142|407:185,1,72
290,241,150988,1,0,0:0:0:0:
368,21,151135,1,0,0:0:0:0:
205,158,151282,6,0,B|161:191|161:191|146:251|185:295,1,144
260,317,151723,1,0,0:0:0:0:
152,85,151871,2,0,L|69:127,1,72
301,157,152165,1,0,0:0:0:0:
256,4,152312,1,0,0:0:0:0:
237,233,152606,6,0,P|278:245|382:223,1,144
205,132,153047,1,0,0:0:0:0:
211,324,153194,1,0,0:0:0:0:
113,103,153341,1,0,0:0:0:0:
316,126,153488,1,0,0:0:0:0:
141,226,153635,2,0,P|83:231|20:220,1,108
13,175,153929,5,0,0:0:0:0:
153,318,154076,1,0,0:0:0:0:
235,171,154223,2,0,P|241:117|238:60,1,108
195,27,154518,1,0,0:0:0:0:
141,226,154665,2,0,P|138:277|148:313,1,72
282,149,154959,1,0,0:0:0:0:
289,105,155032,1,0,0:0:0:0:
273,64,155106,1,0,0:0:0:0:
239,35,155179,1,0,0:0:0:0:
195,27,155253,2,0,P|137:31|99:56,1,72
112,110,155547,2,0,P|70:150|57:193,1,72
103,227,155841,1,0,0:0:0:0:
256,192,171282,12,0,175547,0:0:0:0:
58,82,175678,6,0,P|86:71|218:97,1,135.000005149842
291,229,175972,1,0,0:0:0:0:
91,328,176119,6,0,P|83:245|103:174,1,135.000005149842
290,106,176413,1,0,0:0:0:0:
398,310,176560,6,0,P|353:313|307:308,1,67.5000025749208
155,300,176707,1,0,0:0:0:0:
134,235,176780,1,0,0:0:0:0:
132,168,176854,1,0,0:0:0:0:
148,103,176927,1,0,0:0:0:0:
182,45,177002,2,0,P|223:23|266:13,1,67.5000025749208
335,231,177149,1,0,0:0:0:0:
268,244,177222,1,0,0:0:0:0:
201,245,177296,1,0,0:0:0:0:
134,235,177369,1,0,0:0:0:0:
70,214,177443,2,0,P|28:183|6:154,1,67.5000025749208
182,45,177590,2,0,P|224:76|246:105,1,67.5000025749208
8,5,206266,6,0,P|67:-9|150:3,1,135,12|0,0:0|0:0,0:0:0:0:
195,0,206560,5,8,0:0:0:0:
292,367,206707,1,0,0:0:0:0:
274,11,206854,5,8,0:0:0:0:
176,369,207001,1,0,0:0:0:0:
344,13,207148,5,8,0:0:0:0:
451,375,207295,1,0,0:0:0:0:
445,6,207442,5,8,0:0:0:0:
371,383,207589,1,0,0:0:0:0:
274,11,207736,5,8,0:0:0:0:
398,378,207883,1,0,0:0:0:0:
308,11,208030,5,8,0:0:0:0:
233,377,208178,1,0,0:0:0:0:
209,7,208325,5,8,0:0:0:0:
289,378,208472,1,0,0:0:0:0:
342,17,208619,5,8,0:0:0:0:
243,384,208766,1,0,0:0:0:0:
237,11,208913,5,8,0:0:0:0:
335,369,209060,1,0,0:0:0:0:
167,13,209207,5,8,0:0:0:0:
60,375,209354,1,0,0:0:0:0:
66,6,209501,5,8,0:0:0:0:
140,383,209648,1,0,0:0:0:0:
237,11,209795,5,8,0:0:0:0:
113,378,209942,1,0,0:0:0:0:
125,11,210089,5,8,0:0:0:0:
200,377,210237,1,0,0:0:0:0:
225,4,210384,5,8,0:0:0:0:
145,375,210531,1,0,0:0:0:0:
186,0,210678,5,8,0:0:0:0:
292,367,210825,1,0,0:0:0:0:
274,11,210972,5,8,0:0:0:0:
176,369,211119,1,0,0:0:0:0:
309,12,211266,5,8,0:0:0:0:
416,374,211413,1,0,0:0:0:0:
445,6,211560,5,8,0:0:0:0:
371,383,211707,1,0,0:0:0:0:
274,11,211854,5,8,0:0:0:0:
398,378,212001,1,0,0:0:0:0:
308,11,212148,5,8,0:0:0:0:
233,377,212296,1,0,0:0:0:0:
207,0,212443,5,8,0:0:0:0:
289,378,212590,1,0,0:0:0:0:
383,1,212737,5,8,0:0:0:0:
282,368,212884,1,0,0:0:0:0:
235,4,213031,5,8,0:0:0:0:
335,369,213178,1,0,0:0:0:0:
164,6,213325,5,8,0:0:0:0:
60,375,213472,1,0,0:0:0:0:
66,6,213619,5,8,0:0:0:0:
140,383,213766,1,0,0:0:0:0:
237,11,213913,5,8,0:0:0:0:
113,378,214060,1,0,0:0:0:0:
203,11,214207,5,8,0:0:0:0:
278,377,214354,2,0,B|315:311|256:239,1,135
79,122,214648,2,0,B|109:190|206:181,1,135
413,123,214942,2,0,B|342:96|277:170,1,135
168,105,215678,6,0,P|170:137|169:105,1,90
316,103,215678,6,0,P|318:135|317:103,1,90
162,271,215678,2,0,P|238:295|348:260,1,180
