osu file format v14

[General]
AudioFilename: audio.mp3
AudioLeadIn: 0
PreviewTime: 44486
Countdown: 0
SampleSet: Soft
StackLeniency: 0.7
Mode: 0
LetterboxInBreaks: 0
WidescreenStoryboard: 1

[Editor]
Bookmarks: 64259,86835
DistanceSpacing: 1
BeatDivisor: 4
GridSize: 32
TimelineZoom: 1.6

[Metadata]
Title:HEROES (TV Size)
TitleUnicode:HEROES (TV Size)
Artist:Brian the Sun
ArtistUnicode:Brian the Sun
Creator:Xandit
Version:INSANE
Source:僕のヒーローアカデミア
Tags:j-rock anime boku no my hero academia ヒロアカ heroaca ed ending japanese male vocals rock パトスとエートス Pathos And Ethos
BeatmapID:2518265
BeatmapSetID:1209564

[Difficulty]
HPDrainRate:5.5
CircleSize:3.8
OverallDifficulty:8
ApproachRate:9
SliderMultiplier:1.7
SliderTickRate:1

[Events]
//Background and Video events
Video,-949,"Bokunoanime.mp4"
0,0,"cropped-2560-1440-842139(RGB)(noise)(Level3).jpg",0,0
//Break Periods
//Storyboard Layer 0 (Background)
//Storyboard Layer 1 (Fail)
//Storyboard Layer 2 (Pass)
//Storyboard Layer 3 (Foreground)
//Storyboard Layer 4 (Overlay)
//Storyboard Sound Samples

[TimingPoints]
320,303.030303030303,4,2,1,50,1,0
926,-133.333333333333,4,2,1,50,0,0
1532,-250,4,2,1,50,0,0
11229,-100,4,2,1,70,0,0
16077,-117.647058823529,4,2,1,65,0,0
35471,-133.333333333333,4,2,1,65,0,0
40319,-100,4,2,1,65,0,0
45168,-90.9090909090909,4,2,1,85,0,1
59107,-90.9090909090909,4,2,1,85,0,0
59713,-90.9090909090909,4,2,1,85,0,1
75471,-133.333333333333,4,2,1,85,0,0
76683,-90.9090909090909,4,2,1,85,0,0
79107,-117.647058823529,4,2,1,75,0,0

[Colours]
Combo1 : 0,199,221
Combo2 : 255,62,62
Combo3 : 220,162,24
Combo4 : 222,217,12
Combo5 : 141,141,141
Combo6 : 77,105,172

[HitObjects]
303,242,926,6,0,L|315:312,1,63.7500024318696,2|2,0:0|0:0,0:0:0:0:
216,370,1229,2,0,L|228:300,1,63.7500024318696,2|2,0:0|0:0,0:0:0:0:
61,162,1532,6,0,B|245:228|213:45|413:127|413:127|346:184|273:154,1,510,6|2,3:2|0:0,0:0:0:0:
127,44,3956,6,0,B|135:84|158:112|158:112|131:181|131:181|163:216|171:267,1,238,4|2,3:2|0:0,0:0:0:0:
126,328,5168,5,0,0:0:0:0:
314,252,6229,1,2,0:0:0:0:
314,252,6380,6,0,B|340:272|369:350|369:350|419:67|419:67|424:122|475:169,1,510,6|2,3:2|0:0,0:0:0:0:
288,54,8804,6,0,B|311:163|191:226|96:152|96:152|120:111|179:118,1,374,4|0,3:2|0:0,0:0:0:0:
80,272,10623,5,10,0:0:0:0:
80,272,10774,1,10,0:0:0:0:
303,285,11229,6,0,L|319:377,1,85,6|2,3:2|0:0,0:0:0:0:
414,252,11532,2,0,L|398:344,1,85,0|2,3:2|0:0,0:0:0:0:
259,186,11835,2,0,L|275:278,1,85,2|2,3:2|0:0,0:0:0:0:
448,144,12138,2,0,L|432:236,1,85,2|2,3:2|0:0,0:0:0:0:
196,127,12441,6,0,P|246:99|304:110,1,85,2|2,3:2|0:0,0:0:0:0:
342,42,12744,2,0,P|307:18|265:13,1,85,0|2,3:2|0:0,0:0:0:0:
119,155,13047,2,0,P|169:127|227:138,1,85,2|2,3:2|0:0,0:0:0:0:
418,70,13350,2,0,P|383:46|341:41,1,85,2|2,3:2|0:0,0:0:0:0:
260,182,13653,6,0,L|276:342,1,127.5,6|0,3:2|0:0,0:0:0:0:
276,341,13956,2,0,P|216:308|156:315,1,127.5,8|0,0:0|0:0,0:0:0:0:
130,339,14259,1,10,3:0:0:0:
95,356,14335,1,8,3:0:0:0:
57,356,14410,1,10,3:0:0:0:
22,340,14486,1,8,3:0:0:0:
6,304,14562,2,0,L|20:257,3,42.5,10|8|10|8,0:0|0:0|0:0|0:0,0:0:0:0:
82,180,14865,5,2,3:0:0:0:
176,244,15016,1,2,3:0:0:0:
274,125,15168,1,8,0:0:0:0:
379,216,15319,2,0,L|355:390,1,170,6|0,3:2|3:2,0:0:0:0:
243,298,15774,2,0,L|249:341,3,42.5,8|8|8|8,0:0|0:0|0:0|0:0,0:0:0:0:
176,244,16077,6,0,P|168:193|178:160,1,72.2500013780594,6|0,3:2|0:0,0:0:0:0:
248,129,16380,2,0,P|256:180|246:213,1,72.2500013780594,10|2,0:0|0:0,0:0:0:0:
163,99,16683,1,0,3:2:0:0:
163,99,16835,1,0,3:2:0:0:
233,45,16986,2,0,L|325:57,1,72.2500013780594,10|2,0:0|0:0,0:0:0:0:
387,18,17289,6,0,P|350:54|348:146,1,144.500002756119,0|10,3:2|0:0,0:0:0:0:
413,192,17744,1,2,0:0:0:0:
413,192,17895,2,0,L|506:182,1,72.2500013780594,0|0,3:2|3:2,0:0:0:0:
373,277,18198,2,0,L|280:267,1,72.2500013780594,10|2,0:0|0:0,0:0:0:0:
200,341,18501,6,0,B|252:335|252:335|290:356|290:356|358:349,1,144.500002756119,0|8,3:2|0:0,0:0:0:0:
329,205,18956,1,0,0:0:0:0:
329,205,19107,2,0,P|294:249|290:292,1,72.2500013780594,0|0,3:2|3:2,0:0:0:0:
413,192,19410,2,0,L|404:95,1,72.2500013780594,8|2,0:0|0:0,0:0:0:0:
372,35,19713,5,0,3:2:0:0:
451,42,19865,1,0,0:0:0:0:
324,109,20016,2,0,P|290:74|281:40,1,72.2500013780594,10|2,0:0|0:0,0:0:0:0:
406,120,20320,2,0,L|399:191,1,72.2500013780594,0|0,3:2|3:2,0:0:0:0:
288,277,20623,1,10,0:0:0:0:
324,206,20774,1,2,0:0:0:0:
355,327,20926,6,0,P|285:359|226:333,1,144.500002756119,0|8,3:2|0:0,0:0:0:0:
189,256,21380,1,0,0:0:0:0:
189,256,21532,2,0,L|198:174,1,72.2500013780594,0|0,3:2|3:2,0:0:0:0:
105,80,21835,2,0,L|112:151,1,72.2500013780594,8|2,0:0|0:0,0:0:0:0:
208,96,22138,6,0,B|287:94|253:153|347:157,1,144.500002756119,2|10,3:2|0:0,0:0:0:0:
455,232,22592,1,2,0:0:0:0:
455,232,22744,2,0,P|398:231|366:248,1,72.2500013780594,0|0,3:2|3:2,0:0:0:0:
280,328,23047,2,0,P|337:329|369:312,1,72.2500013780594,10|2,0:0|0:0,0:0:0:0:
215,252,23350,6,0,B|182:297|182:297|195:384,2,144.500002756119,0|8|2,3:2|0:0|3:2,0:0:0:0:
292,307,24107,1,2,3:2:0:0:
292,307,24259,2,0,P|310:258|307:223,1,72.2500013780594,10|2,0:0|0:0,0:0:0:0:
267,101,24562,6,0,P|249:150|252:185,1,72.2500013780594,2|2,3:2|3:2,0:0:0:0:
353,104,24865,1,10,0:0:0:0:
311,31,25016,1,2,0:0:0:0:
437,109,25168,2,0,P|446:160|423:224,1,108.375002067089,2|0,3:2|0:0,0:0:0:0:
421,232,25471,2,0,L|465:225,3,36.1250006890297,10|8|10|8,0:0|0:0|0:0|0:0,0:0:0:0:
381,302,25774,6,0,B|341:334|341:334|242:315,1,144.500002756119,6|10,3:2|0:0,0:0:0:0:
193,251,26229,1,2,0:0:0:0:
265,166,26380,2,0,L|275:256,1,72.2500013780594,0|0,3:2|3:2,0:0:0:0:
188,114,26683,2,0,L|195:42,1,72.2500013780594,10|2,0:0|0:0,0:0:0:0:
98,142,26986,6,0,P|62:170|76:280,1,144.500002756119,0|10,3:2|0:0,0:0:0:0:
131,217,27441,1,2,0:0:0:0:
183,281,27592,2,0,P|227:281|255:267,1,72.2500013780594,0|0,3:2|3:2,0:0:0:0:
358,358,27895,2,0,P|324:344|289:346,1,72.2500013780594,10|2,0:0|0:0,0:0:0:0:
431,241,28198,6,0,L|446:402,2,144.500002756119,0|8|0,3:2|0:0|3:2,0:0:0:0:
357,202,28956,1,0,3:2:0:0:
439,84,29107,2,0,B|452:115|452:115|442:171,1,72.2500013780594,8|2,0:0|0:0,0:0:0:0:
367,38,29410,6,0,P|394:11|442:1,1,72.2500013780594,2|0,3:2|0:0,0:0:0:0:
364,121,29713,2,0,L|279:105,1,72.2500013780594,10|2,0:0|0:0,0:0:0:0:
164,64,30016,1,0,3:2:0:0:
244,44,30168,1,0,3:2:0:0:
105,2,30319,2,0,P|81:43|81:85,1,72.2500013780594,10|2,0:0|0:0,0:0:0:0:
123,136,30623,6,0,B|138:190|138:190|110:292,2,144.500002756119,0|8|0,3:2|0:0|3:2,0:0:0:0:
52,190,31380,1,0,3:2:0:0:
114,275,31532,2,0,L|214:261,1,72.2500013780594,8|2,0:0|0:0,0:0:0:0:
330,328,31835,6,0,P|287:362|200:336,2,144.500002756119,2|10|0,3:2|0:0|3:2,0:0:0:0:
263,286,32592,1,0,3:2:0:0:
392,370,32744,2,0,B|371:327|371:327|383:260,1,108.375002067089,10|0,0:0|0:0,0:0:0:0:
388,244,33047,6,0,P|442:255|470:247,1,72.2500013780594,2|0,3:2|0:0,0:0:0:0:
507,172,33350,2,0,P|453:161|425:169,1,72.2500013780594,10|0,0:0|0:0,0:0:0:0:
364,128,33653,1,2,3:2:0:0:
421,9,33804,2,0,L|432:94,1,72.2500013780594,2|0,3:2|0:0,0:0:0:0:
280,156,34107,6,0,P|288:81|352:42,1,144.500002756119,10|2,0:0|3:2,0:0:0:0:
341,210,34562,2,0,L|327:311,1,72.2500013780594,8|2,0:0|0:0,0:0:0:0:
201,373,34865,1,10,0:0:0:0:
249,303,35016,1,10,3:0:0:0:
377,384,35168,1,6,3:0:0:0:
292,377,35320,1,2,3:0:0:0:
445,338,35471,6,0,P|463:253|431:209,1,127.500004863739,6|0,3:2|0:0,0:0:0:0:
369,177,35926,1,8,0:0:0:0:
369,177,36077,2,0,B|327:209|327:209|238:194,1,127.500004863739,2|0,0:0|3:2,0:0:0:0:
172,175,36532,1,2,3:2:0:0:
172,175,36683,2,0,P|170:139|183:110,2,63.7500024318696,2|0|0,0:0|3:2|0:0,0:0:0:0:
175,179,37289,2,0,L|161:252,1,63.7500024318696,2|0,3:2|3:2,0:0:0:0:
78,306,37592,2,0,L|65:243,1,63.7500024318696,10|0,0:0|0:0,0:0:0:0:
161,335,37895,6,0,P|207:356|291:321,1,127.500004863739,2|0,3:2|0:0,0:0:0:0:
320,263,38350,1,8,3:0:0:0:
320,263,38501,2,0,L|309:129,1,127.500004863739,2|0,0:0|3:2,0:0:0:0:
224,97,38956,1,2,3:2:0:0:
224,97,39107,6,0,L|218:170,2,63.7500024318696,2|2|0,0:0|3:2|0:0,0:0:0:0:
228,100,39713,2,0,P|190:86|149:90,1,63.7500024318696,2|2,3:2|3:2,0:0:0:0:
92,127,40016,1,12,0:0:0:0:
92,127,40320,6,0,L|100:214,1,85,4|0,3:2|0:0,0:0:0:0:
190,297,40623,2,0,L|197:212,1,85,10|2,0:0|0:0,0:0:0:0:
116,334,40926,1,0,3:2:0:0:
274,309,41077,2,0,B|323:302|323:302|344:315|344:315|406:306,1,127.5,0|0,3:2|0:0,0:0:0:0:
426,302,41380,6,0,P|389:246|417:145,1,170,10|0,0:0|3:2,0:0:0:0:
482,119,41835,2,0,L|372:102,1,85,10|0,0:0|0:0,0:0:0:0:
294,18,42138,1,2,3:2:0:0:
369,32,42289,1,0,3:2:0:0:
325,185,42441,2,0,L|308:75,1,85,10|0,0:0|0:0,0:0:0:0:
241,206,42744,5,2,3:2:0:0:
407,229,42895,1,2,3:2:0:0:
225,289,43047,2,0,P|179:264|160:216,1,85,14|2,0:0|0:0,0:0:0:0:
325,185,43350,5,2,3:2:0:0:
325,185,43501,1,2,3:2:0:0:
443,300,43653,2,0,L|428:394,1,85,14|2,0:0|0:0,0:0:0:0:
256,245,43956,5,10,3:2:0:0:
241,204,44032,1,8,0:0:0:0:
241,161,44107,1,10,0:0:0:0:
262,124,44183,1,8,0:0:0:0:
299,104,44259,2,0,L|361:113,3,42.5,10|8|10|8,3:2|0:0|0:0|0:0,0:0:0:0:
474,132,44562,5,6,3:2:0:0:
440,343,45168,6,0,B|392:303|392:303|254:327,1,187.000005706787,6|8,3:2|0:0,0:0:0:0:
132,251,45623,1,2,0:0:0:0:
236,161,45774,2,0,L|227:263,1,93.5000028533936,2|0,3:0|3:0,0:0:0:0:
48,354,46077,2,0,L|39:260,1,93.5000028533936,8|0,0:0|0:0,0:0:0:0:
165,108,46380,6,0,P|213:74|320:146,1,187.000005706787,2|8,3:2|0:0,0:0:0:0:
382,227,46835,1,2,0:0:0:0:
382,227,46986,2,0,L|397:123,1,93.5000028533936,2|0,3:0|3:0,0:0:0:0:
485,275,47289,1,10,0:0:0:0:
380,355,47441,6,0,L|276:340,1,93.5000028533936,2|0,0:0|3:0,0:0:0:0:
171,193,47744,1,2,0:0:0:0:
295,263,47895,1,10,0:0:0:0:
124,274,48047,2,0,P|87:234|138:108,1,187.000005706787,2|0,0:0|3:0,0:0:0:0:
171,193,48501,1,10,0:0:0:0:
249,47,48653,1,2,0:0:0:0:
350,176,48804,6,0,B|284:173|284:173|247:197|247:197|165:192,2,187.000005706787,0|8|0,3:0|0:0|3:0,0:0:0:0:
450,72,49562,1,0,3:0:0:0:
512,203,49713,2,0,L|495:308,1,93.5000028533936,8|2,0:0|0:0,0:0:0:0:
333,347,50016,6,0,B|232:327|260:390|144:374,1,187.000005706787,6|8,3:2|0:0,0:0:0:0:
70,270,50471,1,2,0:0:0:0:
249,170,50623,2,0,L|234:282,1,93.5000028533936,2|0,3:0|3:0,0:0:0:0:
110,112,50926,2,0,L|125:224,1,93.5000028533936,8|2,0:0|0:0,0:0:0:0:
171,50,51229,6,0,P|116:26|17:114,1,187.000005706787,2|8,3:0|0:0,0:0:0:0:
193,135,51683,1,2,0:0:0:0:
193,135,51835,2,0,L|288:120,1,93.5000028533936,2|0,3:0|3:0,0:0:0:0:
418,170,52138,1,10,0:0:0:0:
298,238,52289,1,2,0:0:0:0:
475,236,52441,6,0,P|506:198|511:144,1,93.5000028533936,0|0,3:0|0:0,0:0:0:0:
388,254,52744,1,10,0:0:0:0:
471,349,52895,1,2,0:0:0:0:
339,370,53047,2,0,L|239:354,1,93.5000028533936,0|0,3:0|3:0,0:0:0:0:
179,253,53350,2,0,L|279:237,1,93.5000028533936,10|2,0:0|0:0,0:0:0:0:
135,333,53653,6,0,P|86:259|140:172,1,187.000005706787,0|8,3:0|0:0,0:0:0:0:
271,266,54107,1,0,0:0:0:0:
271,266,54259,2,0,L|168:251,1,93.5000028533936,2|2,3:0|3:0,0:0:0:0:
145,102,54562,2,0,L|248:87,1,93.5000028533936,10|2,0:0|0:0,0:0:0:0:
425,269,54865,6,0,B|392:214|392:214|424:80,1,187.000005706787,6|8,3:2|0:0,0:0:0:0:
512,84,55319,1,2,0:0:0:0:
512,84,55471,2,0,P|448:98|389:83,1,93.5000028533936,2|0,3:0|3:0,0:0:0:0:
265,184,55774,2,0,P|329:170|388:185,1,93.5000028533936,8|0,0:0|0:0,0:0:0:0:
512,286,56077,6,0,B|475:298|437:283|437:283|417:306|417:306|378:289|319:309,1,187.000005706787,0|8,3:0|0:0,0:0:0:0:
251,270,56532,1,0,0:0:0:0:
182,384,56683,2,0,P|164:320|185:279,1,93.5000028533936,2|2,3:0|3:0,0:0:0:0:
84,153,56986,2,0,P|102:217|81:258,1,93.5000028533936,10|2,0:0|0:0,0:0:0:0:
0,136,57289,6,0,P|37:82|147:97,1,187.000005706787,2|10,3:0|0:0,0:0:0:0:
216,172,57744,2,0,P|271:175|311:154,1,93.5000028533936,2|0,0:0|3:0,0:0:0:0:
244,77,58047,1,0,3:0:0:0:
386,180,58198,2,0,L|405:76,1,93.5000028533936,10|2,0:0|0:0,0:0:0:0:
303,248,58501,5,0,3:0:0:0:
473,207,58653,1,0,3:0:0:0:
299,152,58804,1,8,0:0:0:0:
432,276,58956,1,0,3:0:0:0:
236,294,59107,5,10,0:0:0:0:
386,180,59259,1,10,0:0:0:0:
386,180,59713,6,0,B|387:44|387:44|376:73|342:93,1,187.000005706787,6|8,3:2|0:0,0:0:0:0:
223,21,60168,1,2,0:0:0:0:
223,21,60319,2,0,P|274:5|320:16,1,93.5000028533936,2|0,3:0|3:0,0:0:0:0:
223,161,60623,2,0,P|172:177|126:166,1,93.5000028533936,8|0,0:0|0:0,0:0:0:0:
77,49,60926,6,0,B|114:106|114:106|82:236,1,187.000005706787,2|8,3:2|0:0,0:0:0:0:
7,345,61380,1,2,0:0:0:0:
151,284,61532,2,0,L|259:296,1,93.5000028533936,2|0,3:0|3:0,0:0:0:0:
386,319,61835,5,10,0:0:0:0:
386,319,61986,2,0,P|414:262|351:168,1,187.000005706787,2|0,0:0|0:0,0:0:0:0:
165,203,62441,1,10,0:0:0:0:
273,101,62592,2,0,P|266:211|263:300,1,187.000005706787,2|0,0:0|3:0,0:0:0:0:
311,355,63047,2,0,P|369:349|406:313,1,93.5000028533936,10|2,0:0|0:0,0:0:0:0:
182,285,63350,6,0,B|111:269|111:269|61:284|61:284|-26:267,2,187.000005706787,0|8|0,3:0|0:0|3:0,0:0:0:0:
356,255,64107,1,0,3:0:0:0:
259,124,64259,2,0,P|247:176|267:226,1,93.5000028533936,8|0,0:0|0:0,0:0:0:0:
397,69,64562,6,0,B|358:43|302:55|305:85|263:95|210:63,1,187.000005706787,6|8,3:2|0:0,0:0:0:0:
106,7,65016,1,2,0:0:0:0:
106,7,65168,2,0,P|81:56|91:98,1,93.5000028533936,2|0,3:0|3:0,0:0:0:0:
178,239,65471,2,0,P|203:190|193:148,1,93.5000028533936,8|0,0:0|0:0,0:0:0:0:
61,270,65774,6,0,P|121:246|210:330,1,187.000005706787,2|8,3:0|0:0,0:0:0:0:
149,370,66229,1,2,0:0:0:0:
149,370,66380,2,0,L|256:356,1,93.5000028533936,2|0,3:0|3:0,0:0:0:0:
312,250,66683,1,10,0:0:0:0:
416,384,66835,6,0,P|432:326|417:287,1,93.5000028533936,2|0,0:0|3:0,0:0:0:0:
312,250,67138,1,0,0:0:0:0:
402,157,67289,1,10,0:0:0:0:
282,76,67441,2,0,L|290:178,1,93.5000028533936,2|0,0:0|3:0,0:0:0:0:
355,24,67744,1,0,3:0:0:0:
196,64,67895,1,10,0:0:0:0:
365,104,68047,1,2,0:0:0:0:
211,151,68198,6,0,P|157:144|115:22,2,187.000005706787,0|8|2,3:0|0:0|3:0,0:0:0:0:
196,64,68956,1,2,3:0:0:0:
300,176,69107,2,0,L|281:284,1,93.5000028533936,10|2,0:0|0:0,0:0:0:0:
204,352,69410,6,0,P|264:304|379:313,1,187.000005706787,6|8,3:2|0:0,0:0:0:0:
482,384,69865,1,2,0:0:0:0:
512,247,70016,2,0,L|502:145,1,93.5000028533936,2|0,3:0|3:0,0:0:0:0:
354,122,70320,2,0,L|344:215,1,93.5000028533936,8|0,0:0|0:0,0:0:0:0:
497,25,70623,6,0,B|454:42|419:27|419:27|401:47|401:47|358:28|317:45,1,187.000005706787,6|8,3:2|0:0,0:0:0:0:
183,115,71077,1,2,0:0:0:0:
183,115,71229,2,0,P|237:127|284:106,1,93.5000028533936,2|0,3:0|3:0,0:0:0:0:
101,40,71532,2,0,L|85:155,1,93.5000028533936,10|2,0:0|0:0,0:0:0:0:
37,224,71835,6,0,B|44:245|70:258|70:258|102:242|135:244|161:256|161:256|183:242|203:210,2,187.000005706787,4|10|0,3:2|0:2|3:2,0:0:0:0:
113,162,72592,1,0,3:2:0:0:
192,225,72744,1,10,0:2:0:0:
88,337,72895,1,2,0:0:0:0:
248,347,73047,6,0,B|301:311|301:311|437:326,1,187.000005706787,4|10,3:2|0:2,0:0:0:0:
495,377,73501,1,2,0:0:0:0:
495,377,73653,2,0,P|510:310|493:264,1,93.5000028533936,0|0,3:2|3:2,0:0:0:0:
420,135,73956,2,0,P|405:202|422:248,1,93.5000028533936,8|0,0:2|0:0,0:0:0:0:
511,132,74259,5,6,3:2:0:0:
366,60,74410,1,0,3:2:0:0:
471,55,74562,1,8,0:2:0:0:
336,140,74713,2,0,L|277:126,2,46.7500014266968,8|8|10,0:2|0:2|0:2,0:0:0:0:
229,69,75016,1,8,3:0:0:0:
174,128,75168,1,6,3:0:0:0:
100,89,75320,1,2,3:0:0:0:
59,160,75471,6,0,L|72:237,1,63.7500024318696,14|0,0:0|3:0,0:0:0:0:
86,340,75774,2,0,B|199:341|145:269|275:271,1,191.250007295609,12|2,0:0|0:0,0:0:0:0:
345,328,76380,2,0,P|348:343|340:379,3,31.8750012159348,10|8|8|8,0:0|0:0|0:0|0:0,0:0:0:0:
396,259,76683,6,0,L|495:270,1,93.5000028533936,6|0,3:2|0:0,0:0:0:0:
405,143,76986,2,0,L|306:154,1,93.5000028533936,10|0,0:0|0:0,0:0:0:0:
150,179,77289,1,2,3:2:0:0:
205,100,77441,2,0,B|235:145|235:145|219:256,1,140.25000428009,2|0,3:2|0:0,0:0:0:0:
218,254,77744,6,0,P|273:304|383:272,1,187.000005706787,10|2,0:0|3:2,0:0:0:0:
446,142,78198,1,14,0:0:0:0:
446,142,78501,1,8,0:0:0:0:
307,214,78653,1,0,3:0:0:0:
449,296,78804,1,8,3:0:0:0:
361,140,78956,1,6,3:0:0:0:
249,300,79107,6,0,B|202:325|202:325|102:304,1,144.500002756119,6|0,3:2|0:0,0:0:0:0:
28,326,79562,2,0,P|64:309|73:193,1,144.500002756119,10|2,0:2|3:2,0:0:0:0:
12,164,80016,6,0,B|130:202|102:114|227:154,1,216.750004134178,14|8,0:0|0:0,0:0:0:0:
301,106,80623,1,0,0:0:0:0:
371,154,80774,1,0,3:2:0:0:
301,106,80926,2,0,L|290:29,1,72.2500013780594,8|8,0:0|0:0,0:0:0:0:
371,154,81229,2,0,L|355:263,1,108.375002067089,8|0,3:0|0:0,0:0:0:0:
353,284,81532,6,0,P|311:244|204:250,1,144.500002756119,6|0,3:2|0:0,0:0:0:0:
146,267,81986,2,0,B|165:273|183:293|183:293|159:168,1,144.500002756119,10|2,0:2|3:2,0:0:0:0:
137,111,82441,6,0,B|174:98|210:110|232:140|232:140|253:100|284:82|325:83,1,216.750004134178,14|8,0:0|0:0,0:0:0:0:
390,128,83047,2,0,L|378:206,1,72.2500013780594,2|2,0:0|3:2,0:0:0:0:
364,290,83350,1,8,0:0:0:0:
451,257,83501,1,10,0:0:0:0:
406,358,83653,2,0,P|364:371|317:354,1,72.2500013780594,10|10,3:0|3:0,0:0:0:0:
271,274,83956,6,0,P|204:251|146:289,1,144.500002756119,6|2,3:2|0:0,0:0:0:0:
104,362,84410,2,0,B|117:308|117:308|101:276|101:276|115:214,1,144.500002756119,10|2,0:2|3:2,0:0:0:0:
50,163,84865,6,0,P|117:184|204:66,1,216.750004134178,14|8,0:0|0:0,0:0:0:0:
111,88,85471,1,4,3:2:0:0:
111,88,85774,2,0,L|100:7,1,72.2500013780594,8|8,0:0|0:0,0:0:0:0:
300,109,86077,2,0,L|290:180,1,72.2500013780594,10|8,3:0|3:0,0:0:0:0:
191,367,86380,6,0,B|165:318|165:318|182:218,1,144.500002756119,6|10,3:2|0:0,0:0:0:0:
364,53,86835,2,0,B|390:102|390:102|373:202,1,144.500002756119,6|10,3:2|0:0,0:0:0:0:
109,81,87289,2,0,L|227:65,1,108.375002067089,6|0,3:2|0:0,0:0:0:0:
243,59,87592,5,0,3:2:0:0:
156,217,87744,1,10,0:0:0:0:
295,131,87895,1,10,0:0:0:0:
305,280,88047,1,10,0:0:0:0:
196,137,88198,5,14,3:2:0:0:
