osu file format v14

[General]
AudioFilename: audio.mp3
AudioLeadIn: 0
PreviewTime: 44486
Countdown: 0
SampleSet: Soft
StackLeniency: 0.7
Mode: 0
LetterboxInBreaks: 0
WidescreenStoryboard: 1

[Editor]
Bookmarks: 64259,86835
DistanceSpacing: 1.5
BeatDivisor: 4
GridSize: 32
TimelineZoom: 1.6

[Metadata]
Title:HEROES (TV Size)
TitleUnicode:HEROES (TV Size)
Artist:Brian the Sun
ArtistUnicode:Brian the Sun
Creator:Xandit
Version:HARD
Source:僕のヒーローアカデミア
Tags:j-rock anime boku no my hero academia ヒロアカ heroaca ed ending japanese male vocals rock パトスとエートス Pathos And Ethos
BeatmapID:2518264
BeatmapSetID:1209564

[Difficulty]
HPDrainRate:5
CircleSize:3.5
OverallDifficulty:7
ApproachRate:8
SliderMultiplier:1.5
SliderTickRate:1

[Events]
//Background and Video events
Video,-949,"Bokunoanime.mp4"
0,0,"cropped-2560-1440-842139(RGB)(noise)(Level3).jpg",0,0
//Break Periods
//Storyboard Layer 0 (Background)
//Storyboard Layer 1 (Fail)
//Storyboard Layer 2 (Pass)
//Storyboard Layer 3 (Foreground)
//Storyboard Layer 4 (Overlay)
//Storyboard Sound Samples

[TimingPoints]
320,303.030303030303,4,2,1,50,1,0
11229,-100,4,2,1,70,0,0
16077,-117.647058823529,4,2,1,65,0,0
35471,-133.333333333333,4,2,1,65,0,0
40319,-100,4,2,1,65,0,0
45168,-100,4,2,1,85,0,1
59107,-100,4,2,1,85,0,0
59713,-100,4,2,1,85,0,1
75471,-133.333333333333,4,2,1,85,0,0
76683,-100,4,2,1,85,0,0
79107,-117.647058823529,4,2,1,75,0,0

[Colours]
Combo1 : 0,199,221
Combo2 : 255,62,62
Combo3 : 220,162,24
Combo4 : 222,217,12
Combo5 : 141,141,141
Combo6 : 77,105,172

[HitObjects]
133,321,1532,5,6,3:2:0:0:
345,163,3956,5,4,3:2:0:0:
102,58,6380,5,6,3:2:0:0:
293,324,8804,5,4,3:2:0:0:
462,143,10623,6,0,L|374:135,1,75,10|10,0:0|0:0,0:0:0:0:
182,41,11229,6,0,P|141:84|164:171,1,150,6|0,3:2|3:2,0:0:0:0:
206,239,11683,1,2,0:0:0:0:
206,239,11835,2,0,L|196:324,1,75,2|2,3:2|0:0,0:0:0:0:
278,329,12138,2,0,L|288:244,1,75,2|2,3:2|0:0,0:0:0:0:
294,172,12441,6,0,B|353:171|353:171|381:195|381:195|456:194,1,150,2|0,3:2|3:2,0:0:0:0:
494,137,12895,1,2,0:0:0:0:
494,137,13047,2,0,P|477:88|485:50,1,75,2|2,3:2|0:0,0:0:0:0:
413,16,13350,2,0,L|323:26,1,75,2|2,3:2|0:0,0:0:0:0:
259,48,13653,6,0,P|207:87|122:58,1,150,6|8,3:2|0:0,0:0:0:0:
65,15,14107,1,2,0:0:0:0:
22,86,14259,2,0,L|33:149,3,37.5,10|8|10|8,3:0|3:0|3:0|3:0,0:0:0:0:
52,156,14562,2,0,L|41:219,3,37.5,10|8|10|8,0:0|0:0|0:0|0:0,0:0:0:0:
34,232,14865,6,0,P|94:215|132:222,1,75,2|2,3:0|3:0,0:0:0:0:
170,267,15168,1,8,0:0:0:0:
118,330,15319,2,0,P|175:349|246:298,1,150,6|0,3:2|3:2,0:0:0:0:
307,247,15774,2,0,L|295:187,3,37.5,8|8|8|8,0:0|0:0|0:0|0:0,0:0:0:0:
292,175,16077,6,0,L|357:161,1,63.7500012159348,6|0,3:2|0:0,0:0:0:0:
432,145,16380,1,10,0:0:0:0:
432,145,16532,2,0,P|445:94|405:20,1,127.50000243187,2|0,0:0|3:2,0:0:0:0:
338,45,16986,1,10,0:0:0:0:
338,45,17138,6,0,L|207:31,1,127.50000243187,2|0,0:0|0:0,0:0:0:0:
132,22,17592,1,10,0:0:0:0:
132,22,17744,2,0,B|93:51|93:51|107:142,1,127.50000243187,2|0,0:0|3:2,0:0:0:0:
154,187,18198,2,0,L|142:266,1,63.7500012159348,10|2,0:0|0:0,0:0:0:0:
131,325,18501,6,0,B|81:318|81:318|45:336|45:336|-4:331,2,127.50000243187,0|8|0,3:2|0:0|3:2,0:0:0:0:
196,365,19259,1,0,3:2:0:0:
252,313,19410,2,0,P|298:305|333:314,1,63.7500012159348,8|2,0:0|0:0,0:0:0:0:
387,329,19713,6,0,L|393:254,1,63.7500012159348,0|0,3:2|0:0,0:0:0:0:
443,208,20016,2,0,L|437:133,1,63.7500012159348,10|2,0:0|0:0,0:0:0:0:
401,76,20320,2,0,P|452:66|478:76,2,63.7500012159348,0|0|10,3:2|3:2|0:0,0:0:0:0:
329,102,20774,1,2,0:0:0:0:
278,44,20926,6,0,P|215:25|141:49,2,127.50000243187,0|8|0,3:2|0:0|3:2,0:0:0:0:
329,102,21683,1,0,3:2:0:0:
272,153,21835,2,0,L|280:232,1,63.7500012159348,8|2,0:0|0:0,0:0:0:0:
234,279,22138,6,0,B|162:257|177:301|98:279,1,127.50000243187,2|10,3:2|0:0,0:0:0:0:
60,340,22592,2,0,P|33:283|69:215,1,127.50000243187,2|0,0:0|3:2,0:0:0:0:
122,189,23047,2,0,L|115:102,1,63.7500012159348,10|2,0:0|0:0,0:0:0:0:
141,52,23350,6,0,P|86:18|12:36,2,127.50000243187,0|8|2,3:2|0:0|3:2,0:0:0:0:
212,26,24107,1,2,3:2:0:0:
262,83,24259,2,0,L|348:74,1,63.7500012159348,10|2,0:0|0:0,0:0:0:0:
386,29,24562,6,0,P|401:66|398:109,1,63.7500012159348,2|2,3:2|3:2,0:0:0:0:
355,150,24865,2,0,P|357:181|370:210,1,63.7500012159348,10|2,0:0|0:0,0:0:0:0:
436,250,25168,2,0,P|371:247|330:285,1,95.6250018239022,2|0,3:2|0:0,0:0:0:0:
326,294,25471,2,0,L|332:350,3,31.8750006079674,10|8|10|8,0:0|0:0|0:0|0:0,0:0:0:0:
329,364,25774,6,0,B|278:356|278:356|251:365|251:365|191:357,1,127.50000243187,6|10,3:2|0:0,0:0:0:0:
128,343,26229,2,0,P|108:286|144:227,1,127.50000243187,2|0,0:0|3:2,0:0:0:0:
194,178,26683,1,10,0:0:0:0:
194,178,26835,6,0,B|156:202|156:202|48:187,1,127.50000243187,2|0,0:0|0:0,0:0:0:0:
22,130,27289,1,10,0:0:0:0:
22,130,27441,2,0,B|60:106|60:106|168:121,1,127.50000243187,2|0,0:0|3:2,0:0:0:0:
195,62,27895,2,0,L|265:54,1,63.7500012159348,10|2,0:0|0:0,0:0:0:0:
310,110,28198,6,0,P|273:154|278:240,2,127.50000243187,0|8|0,3:2|0:0|3:2,0:0:0:0:
383,130,28956,1,0,3:2:0:0:
446,88,29107,2,0,P|458:137|449:169,1,63.7500012159348,8|2,0:0|0:0,0:0:0:0:
403,204,29410,6,0,B|381:239|381:239|398:333,1,127.50000243187,2|10,3:2|0:0,0:0:0:0:
465,357,29865,2,0,P|412:343|318:366,1,127.50000243187,2|0,0:0|3:2,0:0:0:0:
281,305,30319,2,0,P|248:320|199:321,1,63.7500012159348,10|2,0:0|0:0,0:0:0:0:
181,257,30623,6,0,L|170:400,2,127.50000243187,0|8|0,3:2|0:0|3:2,0:0:0:0:
123,206,31380,1,0,3:2:0:0:
123,206,31532,2,0,P|112:161|123:124,1,63.7500012159348,8|2,0:0|0:0,0:0:0:0:
170,91,31835,6,0,P|141:108|51:73,1,127.50000243187,2|10,3:2|0:0,0:0:0:0:
117,35,32289,2,0,P|146:18|236:53,1,127.50000243187,2|0,0:0|3:2,0:0:0:0:
254,116,32744,2,0,L|243:187,1,63.7500012159348,10|2,0:0|0:0,0:0:0:0:
287,242,33047,6,0,B|248:213|248:213|167:228,2,127.50000243187,2|10|2,3:2|0:0|3:2,0:0:0:0:
346,302,33804,1,2,3:2:0:0:
467,206,34107,6,0,P|486:145|463:73,1,127.50000243187,10|2,0:0|3:2,0:0:0:0:
400,54,34562,2,0,L|316:64,1,63.7500012159348,8|2,0:0|0:0,0:0:0:0:
266,23,34865,1,10,0:0:0:0:
266,23,35016,1,10,3:0:0:0:
211,84,35168,1,6,3:0:0:0:
211,84,35320,1,2,3:0:0:0:
122,37,35471,6,0,B|94:74|94:74|121:205,1,168.750006437302,6|8,3:2|0:0,0:0:0:0:
88,266,36077,2,0,P|127:241|248:286,1,168.750006437302,2|2,0:0|3:2,0:0:0:0:
264,351,36683,6,0,P|338:356|380:326,1,112.500004291535,2|0,0:0|0:0,0:0:0:0:
512,384,37289,2,0,L|501:248,1,112.500004291535,2|10,3:2|0:0,0:0:0:0:
456,109,37895,6,0,B|419:121|387:105|387:105|363:124|363:124|333:100|283:112,1,168.750006437302,2|8,3:2|3:0,0:0:0:0:
223,145,38501,2,0,P|182:170|91:100,1,168.750006437302,2|2,0:0|3:2,0:0:0:0:
79,31,39107,1,2,0:0:0:0:
79,31,39259,1,2,3:2:0:0:
39,263,39713,6,0,L|50:340,1,56.2500021457673,2|2,3:2|3:2,0:0:0:0:
111,363,40016,1,12,0:0:0:0:
202,225,40320,6,0,P|126:172|58:181,2,150,4|10|0,3:2|0:0|3:2,0:0:0:0:
238,307,41077,1,0,3:2:0:0:
238,307,41380,6,0,P|303:350|376:325,1,150,10|0,0:0|3:2,0:0:0:0:
449,326,41835,2,0,L|442:233,1,75,10|0,0:0|0:0,0:0:0:0:
377,201,42138,2,0,L|384:108,1,75,2|0,3:2|3:2,0:0:0:0:
454,85,42441,2,0,P|416:49|377:43,1,75,10|0,0:0|0:0,0:0:0:0:
319,76,42744,5,2,3:2:0:0:
319,76,42895,1,2,3:2:0:0:
262,136,43047,2,0,L|176:122,1,75,14|2,0:0|0:0,0:0:0:0:
129,65,43350,5,2,3:2:0:0:
129,65,43501,1,2,3:2:0:0:
51,93,43653,2,0,P|38:138|54:185,1,75,14|2,0:0|0:0,0:0:0:0:
96,227,43956,2,0,L|85:288,3,37.5,10|8|10|8,3:2|0:0|0:0|0:0,0:0:0:0:
58,291,44259,2,0,L|69:352,3,37.5,10|8|10|8,3:2|0:0|0:0|0:0,0:0:0:0:
96,354,44562,1,6,3:2:0:0:
420,296,45168,6,0,B|381:280|363:243|363:243|329:267|290:265,1,150,6|8,3:2|0:0,0:0:0:0:
230,215,45623,1,2,0:0:0:0:
167,268,45774,2,0,P|119:276|82:259,1,75,2|0,3:0|3:0,0:0:0:0:
48,198,46077,2,0,L|61:121,1,75,8|0,0:0|0:0,0:0:0:0:
27,48,46380,6,0,B|75:76|75:76|174:56,1,150,2|8,3:2|0:0,0:0:0:0:
234,106,46835,1,2,0:0:0:0:
234,106,46986,2,0,L|218:195,2,75,2|0|10,3:0|3:0|0:0,0:0:0:0:
298,53,47441,6,0,P|357:47|432:111,1,150,2|2,0:0|0:0,0:0:0:0:
375,163,47895,1,10,0:0:0:0:
432,222,48047,2,0,L|422:305,1,75,2|0,0:0|3:0,0:0:0:0:
361,351,48350,1,0,3:0:0:0:
308,287,48501,2,0,P|248:292|220:321,1,75,10|2,0:0|0:0,0:0:0:0:
178,240,48804,6,0,B|149:294|149:294|168:389,2,150,0|8|0,3:0|0:0|3:0,0:0:0:0:
118,182,49562,1,0,3:0:0:0:
160,111,49713,2,0,L|241:117,1,75,8|2,0:0|0:0,0:0:0:0:
323,32,50016,6,0,P|386:9|465:60,1,150,6|8,3:2|0:0,0:0:0:0:
456,132,50471,1,2,0:0:0:0:
456,132,50623,2,0,L|470:215,1,75,2|0,3:0|3:0,0:0:0:0:
480,287,50926,2,0,P|428:304|382:282,1,75,8|2,0:0|0:0,0:0:0:0:
342,242,51229,6,0,B|249:229|280:280|184:266,1,150,2|8,3:0|0:0,0:0:0:0:
120,243,51683,1,2,0:0:0:0:
120,243,51835,2,0,P|109:191|125:144,1,75,2|0,3:0|3:0,0:0:0:0:
95,84,52138,1,10,0:0:0:0:
95,84,52289,6,0,L|246:98,1,150,2|0,0:0|0:0,0:0:0:0:
294,30,52744,1,10,0:0:0:0:
294,30,52895,2,0,B|374:32|339:83|444:88,1,150,2|0,0:0|3:0,0:0:0:0:
477,153,53350,2,0,P|459:187|460:243,1,75,10|2,0:0|0:0,0:0:0:0:
375,203,53653,6,0,P|406:294|477:304,2,150,0|8|2,3:0|0:0|3:0,0:0:0:0:
309,153,54410,1,2,3:0:0:0:
240,198,54562,2,0,P|190:212|142:197,1,75,10|2,0:0|0:0,0:0:0:0:
56,123,54865,6,0,B|94:167|94:167|69:278,1,150,6|8,3:2|0:0,0:0:0:0:
50,343,55319,1,2,0:0:0:0:
50,343,55471,2,0,P|93:373|146:368,1,75,2|0,3:0|3:0,0:0:0:0:
202,336,55774,2,0,P|245:306|298:311,1,75,8|0,0:0|0:0,0:0:0:0:
341,338,56077,6,0,P|376:275|339:198,1,150,0|8,3:0|0:0,0:0:0:0:
278,164,56532,1,0,0:0:0:0:
278,164,56683,2,0,L|286:81,1,75,2|2,3:0|3:0,0:0:0:0:
203,75,56986,2,0,L|195:158,1,75,10|2,0:0|0:0,0:0:0:0:
116,172,57289,6,0,B|102:209|66:227|66:227|85:267|64:319,1,150,2|10,3:0|0:0,0:0:0:0:
9,355,57744,2,0,B|72:347|72:347|100:364|100:364|168:353,1,150,2|0,0:0|3:0,0:0:0:0:
211,297,58198,2,0,L|291:302,1,75,10|2,0:0|0:0,0:0:0:0:
357,353,58501,5,0,3:0:0:0:
357,353,58653,1,0,3:0:0:0:
425,307,58804,2,0,P|433:263|421:222,1,75,8|0,0:0|3:0,0:0:0:0:
366,185,59107,1,10,0:0:0:0:
366,185,59259,1,10,0:0:0:0:
192,9,59713,6,0,B|195:30|186:61|186:61|209:97|209:97|197:131|199:178,1,150,6|8,3:2|0:0,0:0:0:0:
256,217,60168,1,2,0:0:0:0:
256,217,60319,2,0,P|206:233|172:228,1,75,2|0,3:0|3:0,0:0:0:0:
99,202,60623,2,0,L|110:300,1,75,8|0,0:0|0:0,0:0:0:0:
95,362,60926,6,0,P|138:319|245:329,1,150,2|8,3:2|0:0,0:0:0:0:
291,365,61380,1,2,0:0:0:0:
291,365,61532,2,0,L|369:355,1,75,2|0,3:0|3:0,0:0:0:0:
446,371,61835,5,10,0:0:0:0:
446,371,61986,2,0,B|414:323|414:323|436:201,1,150,2|0,0:0|0:0,0:0:0:0:
386,168,62441,1,10,0:0:0:0:
386,168,62592,2,0,B|418:120|418:120|396:-2,1,150,2|0,0:0|3:0,0:0:0:0:
328,67,63047,2,0,L|247:58,1,75,10|2,0:0|0:0,0:0:0:0:
170,60,63350,6,0,B|151:43|111:38|111:38|70:67|5:55,2,150,0|8|0,3:0|0:0|3:0,0:0:0:0:
129,132,64107,1,0,3:0:0:0:
129,132,64259,2,0,P|144:175|124:225,1,75,8|0,0:0|0:0,0:0:0:0:
55,275,64562,6,0,B|94:258|140:273|119:304|161:311|194:301,1,150,6|8,3:2|0:0,0:0:0:0:
281,267,65016,1,2,0:0:0:0:
281,267,65168,2,0,L|272:359,1,75,2|0,3:0|3:0,0:0:0:0:
358,333,65471,2,0,L|367:241,1,75,8|0,0:0|0:0,0:0:0:0:
444,236,65774,6,0,B|448:174|448:174|434:146|434:146|437:89,1,150,2|8,3:0|0:0,0:0:0:0:
381,28,66229,1,2,0:0:0:0:
381,28,66380,2,0,L|285:35,1,75,2|0,3:0|3:0,0:0:0:0:
262,103,66683,1,10,0:0:0:0:
262,103,66835,6,0,P|211:71|103:88,1,150,2|0,0:0|0:0,0:0:0:0:
67,135,67289,1,10,0:0:0:0:
67,135,67441,2,0,L|80:292,1,150,2|0,0:0|3:0,0:0:0:0:
131,348,67895,2,0,P|172:324|218:327,1,75,10|2,0:0|0:0,0:0:0:0:
269,280,68198,6,0,B|276:318|306:348|306:348|347:350|392:319,2,150,0|8|2,3:0|0:0|3:0,0:0:0:0:
219,213,68956,1,2,3:0:0:0:
219,213,69107,2,0,P|269:197|302:204,1,75,10|2,0:0|0:0,0:0:0:0:
365,94,69410,6,0,B|401:109|409:156|409:156|451:139|488:155,1,150,6|8,3:2|0:0,0:0:0:0:
451,234,69865,1,2,0:0:0:0:
399,300,70016,2,0,P|447:319|475:314,2,75,2|0|8,3:0|3:0|0:0,0:0:0:0:
239,359,70623,6,0,B|195:325|195:325|99:346,1,150,6|8,3:2|0:0,0:0:0:0:
45,288,71077,1,2,0:0:0:0:
45,288,71229,2,0,P|22:330|24:367,2,75,2|0|10,3:0|3:0|0:0,0:0:0:0:
149,230,71683,1,2,0:0:0:0:
149,230,71835,6,0,B|124:179|124:179|138:81,1,150,4|10,3:2|0:2,0:0:0:0:
92,17,72289,2,0,P|137:50|232:28,1,150,2|0,0:0|3:2,0:0:0:0:
287,89,72744,2,0,P|320:70|374:67,1,75,10|2,0:2|0:0,0:0:0:0:
468,31,73047,6,0,B|496:85|496:85|474:197,1,150,4|10,3:2|0:2,0:0:0:0:
413,222,73501,1,2,0:0:0:0:
413,222,73653,2,0,L|424:318,1,75,0|0,3:2|3:2,0:0:0:0:
336,332,73956,2,0,L|325:236,1,75,8|0,0:2|0:0,0:0:0:0:
231,202,74259,5,6,3:2:0:0:
158,240,74410,1,0,3:2:0:0:
88,194,74562,2,0,L|100:102,1,75,8|8,0:2|0:2,0:0:0:0:
105,78,74789,1,8,0:2:0:0:
105,78,74865,2,0,P|145:90|204:79,1,75,10|8,0:2|3:0,0:0:0:0:
243,38,75168,2,0,P|280:36|315:48,1,75,6|2,3:0|3:0,0:0:0:0:
368,106,75471,5,14,0:0:0:0:
503,186,75774,2,0,B|473:201|436:189|436:189|399:210|399:210|368:196|332:209,1,168.750006437302,12|2,0:0|0:0,0:0:0:0:
283,257,76380,2,0,L|290:309,3,28.1250010728836,10|8|8|8,0:0|0:0|0:0|0:0,0:0:0:0:
290,326,76683,6,0,P|344:351|451:305,2,150,6|10|2,3:2|0:0|3:2,0:0:0:0:
212,354,77441,2,0,P|172:337|129:338,1,75,2|0,3:2|0:0,0:0:0:0:
58,346,77744,6,0,B|97:303|97:303|84:198,1,150,10|2,0:0|3:2,0:0:0:0:
29,151,78198,2,0,P|20:90|54:44,1,112.5,14|0,0:0|0:0,0:0:0:0:
84,33,78501,2,0,L|165:49,1,75,8|0,0:0|3:0,0:0:0:0:
220,100,78804,2,0,L|301:84,1,75,8|6,3:0|3:0,0:0:0:0:
413,46,79107,6,0,P|383:75|380:177,1,127.50000243187,6|0,3:2|0:0,0:0:0:0:
428,220,79562,2,0,L|412:358,1,127.50000243187,10|2,0:2|3:2,0:0:0:0:
325,309,80016,6,0,B|291:297|260:306|265:327|229:336|200:329,1,127.50000243187,14|0,0:0|0:0,0:0:0:0:
135,271,80471,1,8,0:0:0:0:
210,147,80774,2,0,L|202:221,2,63.7500012159348,0|8|8,3:2|0:0|0:0,0:0:0:0:
162,78,81229,1,8,3:0:0:0:
324,43,81532,6,0,P|401:27|453:51,1,127.50000243187,6|0,3:2|0:0,0:0:0:0:
478,119,81986,2,0,L|465:258,1,127.50000243187,10|2,0:2|3:2,0:0:0:0:
491,324,82441,6,0,P|451:283|367:285,1,127.50000243187,14|0,0:0|0:0,0:0:0:0:
326,336,82895,1,8,0:0:0:0:
224,205,83198,2,0,L|231:133,2,63.7500012159348,2|8|10,3:2|0:0|0:0,0:0:0:0:
211,287,83653,2,0,P|161:296|129:285,1,63.7500012159348,10|10,3:0|3:0,0:0:0:0:
71,322,83956,6,0,B|96:284|96:284|81:197,1,127.50000243187,6|2,3:2|0:0,0:0:0:0:
23,145,84410,2,0,P|81:176|145:141,1,127.50000243187,10|2,0:2|3:2,0:0:0:0:
179,84,84865,6,0,B|228:72|228:72|258:80|258:80|326:67,1,127.50000243187,14|0,0:0|3:2,0:0:0:0:
374,29,85319,1,8,0:0:0:0:
374,29,85471,2,0,P|447:42|484:99,1,127.50000243187,4|8,3:2|0:0,0:0:0:0:
438,154,85926,1,8,0:0:0:0:
438,154,86077,1,10,3:0:0:0:
483,223,86229,1,8,3:0:0:0:
446,297,86380,6,0,L|316:280,1,127.50000243187,6|10,3:2|0:0,0:0:0:0:
254,332,86835,2,0,P|206:298|113:312,1,127.50000243187,6|10,3:2|0:0,0:0:0:0:
70,343,87289,1,6,3:2:0:0:
150,198,87592,6,0,L|142:127,1,63.7500012159348,0|10,3:2|0:0,0:0:0:0:
224,119,87895,2,0,L|232:190,1,63.7500012159348,10|10,0:0|0:0,0:0:0:0:
302,225,88198,5,14,3:2:0:0:
