osu file format v14

[General]
AudioFilename: audio.mp3
AudioLeadIn: 0
PreviewTime: 148810
Countdown: 0
SampleSet: Soft
StackLeniency: 0.7
Mode: 0
LetterboxInBreaks: 0
WidescreenStoryboard: 1

[Editor]
Bookmarks: 16510,35710,41710,51310,60910,71710,74110,76510,78910,81310,83710,86110,88510,90910,129310,138910,150910,172510,182110,188110
DistanceSpacing: 0.4
BeatDivisor: 8
GridSize: 32
TimelineZoom: 1.7

[Metadata]
Title:Formula 1 Theme
TitleUnicode:Formula 1 Theme
Artist:Brian Tyler
ArtistUnicode:Brian Tyler
Creator:Sylvarus
Version:ratokkoy's Insane
Source:Formula 1
Tags:ratokkoy instrumental classical f1 max verstappen 33 official anthem
BeatmapID:3634652
BeatmapSetID:1747832

[Difficulty]
HPDrainRate:5
CircleSize:3.8
OverallDifficulty:7.5
ApproachRate:9
SliderMultiplier:2.7
SliderTickRate:1

[Events]
//Background and Video events
0,0,"C3DtiDDXgAA6FfN.jpg",0,0
//Break Periods
2,70410,90310
//Storyboard Layer 0 (Background)
//Storyboard Layer 1 (Fail)
//Storyboard Layer 2 (Pass)
//Storyboard Layer 3 (Foreground)
//Storyboard Layer 4 (Overlay)
//Storyboard Sound Samples

[TimingPoints]
-290,600,4,2,1,50,1,0
2110,-75.187969924812,4,2,2,50,0,0
3310,-125,4,2,2,20,0,0
5710,-75.187969924812,4,2,2,50,0,0
5860,-75.187969924812,4,2,1,50,0,0
6910,-75.187969924812,4,2,2,50,0,0
8410,-125,4,2,2,20,0,0
10510,-125,4,2,2,50,0,0
10960,-125,4,2,1,50,0,0
11710,-75.187969924812,4,2,2,50,0,0
13210,-75.187969924812,4,2,2,20,0,0
15910,-75.187969924812,4,2,1,60,0,0
16510,-75.187969924812,4,2,1,80,0,0
35710,-75.187969924812,4,2,2,70,0,0
37060,-75.187969924812,4,2,1,70,0,0
38110,-75.187969924812,4,2,2,70,0,0
39310,-133.333333333333,4,2,2,70,0,0
40810,-133.333333333333,4,2,1,70,0,0
41710,-100,4,2,2,70,0,0
42310,-100,4,2,1,70,0,0
42610,-100,4,2,2,70,0,0
42910,-100,4,2,1,70,0,0
44110,-100,4,2,2,70,0,0
44710,-100,4,2,1,70,0,0
45010,-100,4,2,2,70,0,0
45310,-100,4,2,1,70,0,0
46510,-100,4,2,2,70,0,0
47110,-100,4,2,1,70,0,0
47410,-100,4,2,2,70,0,0
47710,-100,4,2,1,70,0,0
48910,-100,4,2,2,70,0,0
49510,-100,4,2,1,70,0,0
49810,-100,4,2,2,70,0,0
51310,-90.9090909090909,4,2,2,70,0,0
51910,-90.9090909090909,4,2,1,70,0,0
52210,-90.9090909090909,4,2,2,70,0,0
52510,-90.9090909090909,4,2,1,70,0,0
53710,-90.9090909090909,4,2,2,70,0,0
54310,-90.9090909090909,4,2,1,70,0,0
54610,-90.9090909090909,4,2,2,70,0,0
54910,-90.9090909090909,4,2,1,70,0,0
56110,-90.9090909090909,4,2,2,70,0,0
56710,-90.9090909090909,4,2,1,70,0,0
57010,-90.9090909090909,4,2,2,70,0,0
57310,-90.9090909090909,4,2,1,70,0,0
58510,-90.9090909090909,4,2,2,70,0,0
59110,-90.9090909090909,4,2,1,70,0,0
59410,-90.9090909090909,4,2,2,70,0,0
60910,-83.3333333333333,4,2,2,70,0,0
61510,-83.3333333333333,4,2,1,70,0,0
61810,-83.3333333333333,4,2,2,70,0,0
62110,-83.3333333333333,4,2,1,70,0,0
63310,-83.3333333333333,4,2,2,70,0,0
63910,-83.3333333333333,4,2,1,70,0,0
64210,-83.3333333333333,4,2,2,70,0,0
64510,-83.3333333333333,4,2,1,70,0,0
65710,-83.3333333333333,4,2,2,70,0,0
66310,-83.3333333333333,4,2,1,70,0,0
66610,-83.3333333333333,4,2,2,70,0,0
66910,-83.3333333333333,4,2,1,70,0,0
68110,-83.3333333333333,4,2,2,70,0,0
68710,-83.3333333333333,4,2,1,70,0,0
69010,-83.3333333333333,4,2,2,70,0,0
71710,-83.3333333333333,4,2,2,20,0,0
90910,-200,4,2,2,20,0,0
93310,-303.030303030303,4,2,2,20,0,0
95710,-200,4,2,2,20,0,0
98110,-142.857142857143,4,2,2,20,0,0
99910,-250,4,2,2,20,0,0
100510,-166.666666666667,4,2,2,20,0,0
102910,-250,4,2,2,20,0,0
105310,-166.666666666667,4,2,2,20,0,0
107710,-200,4,2,2,20,0,0
110110,-151.515151515152,4,2,2,20,0,0
128110,-151.515151515152,4,2,2,40,0,0
129310,-111.111111111111,4,2,2,50,0,0
137710,-90.9090909090909,4,2,2,50,0,0
138910,-100,4,2,2,50,0,0
147310,-100,4,2,2,80,0,0
150910,-75.187969924812,4,2,1,80,0,0
160510,-69.9300699300699,4,2,1,80,0,0
170110,-100,4,2,1,80,0,0
170147,-100,4,2,2,5,0,0
171310,-75.187969924812,4,2,2,70,0,0
171460,-75.187969924812,4,2,1,70,0,0
172510,-100,4,2,1,70,0,0
182110,-69.9300699300699,4,2,2,70,0,0
183910,-69.9300699300699,4,2,1,70,0,0
184210,-83.3333333333333,4,2,1,70,0,0
184510,-69.9300699300699,4,2,2,70,0,0
186010,-69.9300699300699,4,2,2,60,0,0
186310,-69.9300699300699,4,2,1,60,0,0
187110,-69.9300699300699,4,2,1,65,0,0
187310,-69.9300699300699,4,2,1,70,0,0
187510,-69.9300699300699,4,2,1,75,0,0
187710,-69.9300699300699,4,2,1,80,0,0
187910,-69.9300699300699,4,2,1,85,0,0
188110,-69.9300699300699,4,2,2,90,0,0

[Colours]
Combo1 : 249,218,102
Combo2 : 139,154,254
Combo3 : 239,83,37

[HitObjects]
425,76,2110,6,0,P|338:100|249:115,1,179.549992602768,12|0,0:1|0:0,0:0:0:0:
84,235,2560,2,0,P|170:210|258:196,1,179.549992602768,8|0,0:1|0:0,0:0:0:0:
175,68,3010,1,8,0:1:0:0:
500,212,3610,6,0,B|503:123|402:135|367:204|462:319|462:319|430:328|414:359|414:359|325:292|305:374|212:312|212:312|184:393|125:373,1,648
76,292,5710,5,8,0:2:0:0:
76,292,5785,1,8,0:2:0:0:
76,292,5860,1,8,0:3:0:0:
76,292,5935,1,8,0:3:0:0:
76,292,6009,2,0,P|98:289|119:283,3,44.8874981506921,8|8|8|8,0:3|0:3|0:3|0:3,0:0:0:0:
166,222,6310,2,0,P|180:204|190:184,3,44.8874981506921,12|12|12|12,0:3|0:3|0:3|0:3,0:0:0:0:
155,120,6609,2,0,P|152:97|146:76,3,44.8874981506921,4|4|4|4,0:3|0:3|0:3|0:3,0:0:0:0:
249,110,6910,6,0,P|323:129|454:147,1,179.549992602768,12|0,0:1|0:0,0:0:0:0:
223,199,7360,2,0,P|134:211|47:233,1,179.549992602768,8|0,0:1|0:0,0:0:0:0:
286,268,7810,1,8,0:1:0:0:
286,268,7960,1,12,0:1:0:0:
44,47,8410,6,0,B|74:69|71:126|71:126|97:20|162:4|214:13|214:13|140:33|145:118|263:186|292:52|360:-2|411:40|423:62,1,648
441,255,10510,5,8,0:2:0:0:
476,173,10660,1,8,0:2:0:0:
441,365,10960,5,8,0:3:0:0:
441,365,11110,1,8,0:3:0:0:
353,208,11410,1,4,0:3:0:0:
58,247,11710,6,0,P|126:201|234:237,1,179.549992602768,12|0,0:1|0:0,0:0:0:0:
421,113,12160,2,0,P|353:159|245:123,1,179.549992602768,8|0,0:1|0:0,0:0:0:0:
288,362,12610,1,8,0:1:0:0:
367,315,12760,1,8,0:1:0:0:
304,246,12910,1,12,0:1:0:0:
256,192,13210,12,0,15310,0:0:0:0:
186,190,15910,5,8,0:2:0:0:
186,190,16060,1,8,0:2:0:0:
55,232,16210,1,8,0:2:0:0:
55,232,16360,1,8,0:2:0:0:
200,304,16510,6,0,P|214:221|236:121,1,179.549992602768,14|0,0:1|0:0,0:0:0:0:
303,11,16960,1,10,0:1:0:0:
217,28,17110,2,0,L|129:46,1,89.7749963013841,8|0,0:2|0:0,0:0:0:0:
329,101,17410,1,2,0:0:0:0:
416,42,17560,1,2,0:0:0:0:
470,136,17710,2,0,P|479:231|498:322,1,179.549992602768,10|2,0:1|0:3,0:0:0:0:
495,313,18160,1,0,0:0:0:0:
373,234,18310,2,0,L|195:209,1,179.549992602768,10|0,0:2|0:0,0:0:0:0:
114,202,18760,1,0,0:0:0:0:
12,361,18910,6,0,P|91:358|150:264,1,179.549992602768,10|0,0:1|0:0,0:0:0:0:
114,202,19360,1,0,0:0:0:0:
182,77,19510,2,0,P|141:76|87:64,1,89.7749963013841,10|0,0:2|0:0,0:0:0:0:
228,151,19810,2,0,P|269:152|323:164,1,89.7749963013841
379,20,20110,2,0,P|393:101|422:218,1,179.549992602768,10|2,0:1|0:2,0:0:0:0:
436,287,20560,1,2,0:0:0:0:
497,144,20710,1,8,0:2:0:0:
297,225,21010,5,8,0:2:0:0:
297,225,21160,1,8,0:2:0:0:
347,294,21310,6,0,P|316:150|292:89,1,179.549992602768,14|0,0:1|0:0,0:0:0:0:
368,33,21760,1,10,0:1:0:0:
368,33,21910,2,0,P|312:29|266:21,1,89.7749963013841,8|0,0:2|0:0,0:0:0:0:
97,13,22210,1,2,0:0:0:0:
52,96,22360,1,2,0:0:0:0:
128,144,22510,2,0,P|246:125|308:120,1,179.549992602768,10|2,0:1|0:3,0:0:0:0:
305,120,22960,1,0,0:0:0:0:
178,233,23110,2,0,L|158:334,1,89.7749963013841,10|0,0:2|0:0,0:0:0:0:
225,164,23410,2,0,L|213:72,1,89.7749963013841
244,354,23710,6,0,P|314:301|414:337,1,179.549992602768,10|2,0:1|0:3,0:0:0:0:
397,320,24160,1,2,0:3:0:0:
496,193,24310,2,0,P|426:202|360:217,1,134.662494452076,10|0,0:2|0:0,0:0:0:0:
337,207,24610,2,0,P|332:152|346:117,1,89.7749963013841,2|0,0:3|0:0,0:0:0:0:
268,65,24910,1,10,0:1:0:0:
491,56,25210,2,0,B|401:46,1,89.7749963013841,2|0,0:3|0:0,0:0:0:0:
190,19,25510,5,8,0:2:0:0:
190,19,25660,1,8,0:2:0:0:
242,175,25810,2,0,P|249:125|261:71,1,89.7749963013841,8|4,0:3|0:3,0:0:0:0:
184,296,26110,6,0,P|98:274|0:261,1,179.549992602768,14|0,0:1|0:0,0:0:0:0:
38,346,26560,1,10,0:1:0:0:
75,184,26710,2,0,P|110:144|131:104,1,89.7749963013841,8|0,0:2|0:0,0:0:0:0:
173,280,27010,1,2,0:0:0:0:
234,197,27160,1,2,0:0:0:0:
321,255,27310,2,0,P|407:277|505:290,1,179.549992602768,10|0,0:1|0:0,0:0:0:0:
416,318,27760,1,0,0:0:0:0:
308,160,27910,2,0,P|305:98|351:47,1,134.662494452076,10|0,0:2|0:0,0:0:0:0:
379,34,28210,2,0,P|336:37|282:19,1,89.7749963013841,2|0,0:3|0:0,0:0:0:0:
393,128,28510,6,0,P|407:225|413:307,1,179.549992602768,10|0,0:1|0:0,0:0:0:0:
412,306,28960,1,0,0:0:0:0:
284,244,29110,2,0,L|180:234,1,89.7749963013841,10|0,0:2|0:0,0:0:0:0:
105,227,29410,1,0,0:0:0:0:
105,227,29560,1,0,0:0:0:0:
50,347,29710,2,0,P|138:328|254:317,1,179.549992602768,10|2,0:1|0:0,0:0:0:0:
447,49,30310,6,0,P|359:68|282:78,1,134.662494452076,8|0,0:2|0:0,0:0:0:0:
289,58,30610,1,8,0:2:0:0:
365,148,30760,1,8,0:2:0:0:
221,208,30910,6,0,P|214:114|198:30,1,179.549992602768,14|0,0:1|0:0,0:0:0:0:
221,208,31360,1,10,0:1:0:0:
282,270,31510,2,0,P|338:289|376:310,1,89.7749963013841,8|0,0:2|0:0,0:0:0:0:
130,367,31810,1,2,0:2:0:0:
190,296,31960,1,2,0:0:0:0:
100,270,32110,2,0,B|6:279,1,89.7749963013841,10|0,0:1|0:0,0:0:0:0:
43,175,32410,2,0,B|137:184,1,89.7749963013841,2|0,0:3|0:0,0:0:0:0:
215,26,32710,2,0,P|248:66|233:152,1,134.662494452076,10|0,0:2|0:0,0:0:0:0:
260,173,33010,1,2,0:3:0:0:
260,173,33160,1,0,3:0:0:0:
443,155,33310,6,0,P|373:165|337:166,1,89.7749963013841,10|0,0:1|0:0,0:0:0:0:
443,155,33610,1,0,3:0:0:0:
379,68,33760,1,0,0:0:0:0:
491,67,33910,2,0,P|475:128|461:257,1,179.549992602768,10|2,0:2|0:3,0:0:0:0:
465,345,34360,1,2,0:3:0:0:
256,297,34510,5,10,0:2:0:0:
385,271,34660,2,0,L|358:369,1,89.7749963013841,4|0,0:3|0:0,0:0:0:0:
242,94,34960,2,0,L|216:-21,1,89.7749963013841,8|0,0:2|0:0,0:0:0:0:
147,261,35260,5,8,0:2:0:0:
247,196,35410,1,8,0:2:0:0:
145,139,35560,1,8,0:2:0:0:
256,297,35710,6,0,P|345:302|434:312,1,179.549992602768,8|0,0:1|0:0,0:0:0:0:
242,94,36159,2,0,P|152:104|63:110,1,179.549992602768,8|0,0:1|0:0,0:0:0:0:
350,276,36610,1,8,0:1:0:0:
431,156,36910,5,8,0:2:0:0:
431,156,36985,1,8,0:2:0:0:
431,156,37060,1,8,0:3:0:0:
431,156,37135,1,8,0:3:0:0:
431,156,37210,2,0,P|439:176|443:198,3,44.8874981506921,8|8|8|8,0:3|0:3|0:3|0:3,0:0:0:0:
355,117,37510,2,0,P|333:114|312:106,3,44.8874981506921,12|12|12|12,0:3|0:3|0:3|0:3,0:0:0:0:
428,72,37810,2,0,P|440:54|457:40,3,44.8874981506921,4|4|4|4,0:3|0:3|0:3|0:3,0:0:0:0:
359,209,38110,6,0,P|379:302|408:394,1,179.549992602768,12|0,0:1|0:0,0:0:0:0:
155,175,38560,2,0,P|181:89|199:1,1,179.549992602768,8|0,0:1|0:0,0:0:0:0:
275,245,39010,1,8,0:1:0:0:
251,151,39160,1,8,0:1:0:0:
203,318,39310,6,0,B|162:379|62:384|14:353|-10:283|78:224|115:292,1,303.750011587143,12|0,0:1|0:0,0:0:0:0:
294,311,40510,5,8,0:2:0:0:
294,311,40660,1,8,0:2:0:0:
362,229,40810,5,8,0:3:0:0:
374,267,40960,1,8,0:3:0:0:
404,294,41110,1,12,0:3:0:0:
434,297,41260,1,12,0:3:0:0:
459,280,41410,1,4,0:3:0:0:
468,261,41560,1,4,0:3:0:0:
467,161,41710,6,0,P|453:94|447:13,1,135,14|0,0:1|0:0,0:0:0:0:
328,127,42160,1,10,0:1:0:0:
272,48,42310,1,10,0:1:0:0:
272,48,42460,2,0,P|310:44|339:37,1,67.5,0|10,0:0|0:1,0:0:0:0:
184,131,42760,1,2,0:0:0:0:
128,73,42910,2,0,L|143:5,1,67.5,4|8,0:3|0:3,0:0:0:0:
69,127,43210,2,0,L|88:206,1,67.5,0|12,0:0|0:3,0:0:0:0:
163,276,43510,2,0,P|200:265|253:284,2,67.5,8|0|0,0:1|0:0|0:0,0:0:0:0:
101,342,43960,1,0,0:0:0:0:
229,359,44110,6,0,P|238:289|254:200,1,135,10|0,0:1|0:0,0:0:0:0:
387,152,44560,1,10,0:1:0:0:
410,237,44710,2,0,P|401:303|397:342,1,101.25,10|0,0:1|0:0,0:0:0:0:
400,366,45010,2,0,L|478:355,1,67.5,10|2,0:1|0:0,0:0:0:0:
326,256,45310,1,4,0:3:0:0:
303,172,45460,2,0,L|225:178,1,67.5,8|0,0:3|0:0,0:0:0:0:
146,191,45760,1,12,0:3:0:0:
85,34,45910,2,0,P|76:66|70:99,1,67.5,10|2,0:1|0:0,0:0:0:0:
47,254,46210,2,0,P|55:221|61:188,1,67.5,6|6,0:3|0:3,0:0:0:0:
151,325,46510,6,0,P|145:191|147:165,1,135,10|0,0:1|0:0,0:0:0:0:
209,33,46960,1,10,0:1:0:0:
143,103,47110,2,0,L|213:115,2,67.5,10|0|10,0:1|0:0|0:1,0:0:0:0:
287,171,47560,1,2,0:0:0:0:
361,110,47710,1,4,0:3:0:0:
361,110,47860,2,0,L|353:35,1,67.5,8|0,0:3|0:0,0:0:0:0:
437,158,48160,1,12,0:3:0:0:
511,64,48310,2,0,P|467:81|441:172,1,135,8|0,0:1|0:0,0:0:0:0:
435,361,48910,6,0,P|410:290|383:214,1,135,10|0,0:1|0:0,0:0:0:0:
475,232,49360,1,10,0:1:0:0:
330,329,49510,2,0,P|278:310|227:300,1,101.25,10|0,0:1|0:0,0:0:0:0:
206,315,49810,2,0,P|191:267|173:241,1,67.5,10|0,0:1|0:0,0:0:0:0:
46,174,50110,5,8,0:1:0:0:
140,80,50310,5,8,0:1:0:0:
243,182,50510,5,8,0:1:0:0:
90,253,50710,5,8,0:1:0:0:
230,88,51010,1,8,0:1:0:0:
318,335,51310,6,0,P|333:224|346:177,1,148.50000453186,14|0,0:1|0:0,0:0:0:0:
463,124,51760,1,10,0:1:0:0:
407,55,51910,2,0,P|422:129|430:211,1,148.50000453186,10|10,0:1|0:1,0:0:0:0:
286,258,52360,1,2,0:0:0:0:
210,180,52510,2,0,L|126:157,1,74.2500022659302,4|0,0:3|0:0,0:0:0:0:
267,116,52810,2,0,L|262:38,1,74.2500022659302,0|12,0:0|0:3,0:0:0:0:
248,338,53110,6,0,L|126:366,1,111.375003398895,8|0,0:1|0:0,0:0:0:0:
85,314,53410,5,4,0:3:0:0:
85,314,53485,1,4,0:3:0:0:
85,314,53560,1,4,0:3:0:0:
85,314,53635,1,4,0:3:0:0:
85,314,53710,6,0,P|101:251|114:154,1,148.50000453186,10|0,0:1|0:0,0:0:0:0:
130,30,54160,1,10,0:1:0:0:
0,114,54310,2,0,P|45:101|81:95,1,74.2500022659302,10|0,0:1|0:0,0:0:0:0:
205,77,54610,2,0,P|215:28|223:-1,1,74.2500022659302,10|2,0:1|0:0,0:0:0:0:
267,216,54910,1,4,0:3:0:0:
267,216,55060,1,8,0:3:0:0:
345,147,55210,2,0,P|307:135|263:131,1,74.2500022659302,0|12,0:0|0:3,0:0:0:0:
355,19,55510,6,0,P|404:28|473:51,1,111.375003398895,10|0,0:1|0:0,0:0:0:0:
512,131,55810,5,4,0:3:0:0:
512,131,55885,1,4,0:3:0:0:
512,131,55960,1,4,0:3:0:0:
512,131,56035,1,4,0:3:0:0:
512,131,56110,6,0,L|500:225,2,74.2500022659302,10|0|0,0:1|0:0|0:0,0:0:0:0:
494,284,56560,1,10,0:1:0:0:
382,233,56710,2,0,P|320:253|290:257,1,74.2500022659302,10|0,0:1|0:0,0:0:0:0:
217,248,57010,1,10,0:1:0:0:
323,360,57160,1,2,0:0:0:0:
323,360,57310,2,0,P|279:341|254:325,1,74.2500022659302,4|8,0:3|0:3,0:0:0:0:
264,173,57610,2,0,P|280:131|299:98,1,74.2500022659302,0|12,0:0|0:3,0:0:0:0:
169,328,57910,6,0,P|118:351|59:334,1,111.375003398895,8|0,0:1|0:0,0:0:0:0:
44,261,58210,5,4,0:3:0:0:
44,261,58285,1,4,0:3:0:0:
44,261,58360,1,4,0:3:0:0:
44,261,58435,1,4,0:3:0:0:
44,261,58510,6,0,L|67:159,2,74.2500022659302,10|0|0,0:1|0:0|0:0,0:0:0:0:
153,220,58960,1,10,0:1:0:0:
119,117,59110,2,0,L|106:37,1,74.2500022659302,10|0,0:1|0:0,0:0:0:0:
162,240,59410,2,0,L|250:248,1,74.2500022659302,10|0,0:1|0:0,0:0:0:0:
443,210,59710,5,8,0:1:0:0:
351,302,59910,5,8,0:1:0:0:
315,134,60110,5,8,0:1:0:0:
221,334,60310,5,8,0:1:0:0:
254,92,60610,1,8,0:1:0:0:
48,282,60910,6,0,L|31:375,2,80.9999975280763,14|0|0,0:1|0:0|0:0,0:0:0:0:
54,152,61360,1,10,0:1:0:0:
152,133,61510,2,0,P|209:124|246:123,1,80.9999975280763,10|0,0:1|0:0,0:0:0:0:
329,29,61810,1,10,0:1:0:0:
358,126,61960,1,2,0:0:0:0:
304,215,62110,2,0,P|247:206|210:205,1,80.9999975280763,4|8,0:3|0:3,0:0:0:0:
211,305,62410,2,0,P|251:307|291:315,1,80.9999975280763,0|12,0:0|0:3,0:0:0:0:
481,366,62710,6,0,P|456:299|434:226,1,121.499996292114,8|0,0:1|0:0,0:0:0:0:
373,222,63010,6,0,L|314:212,1,40.4999987640381,4|4,0:3|0:3,0:0:0:0:
420,162,63160,2,0,L|469:152,1,40.4999987640381,4|4,0:3|0:3,0:0:0:0:
345,85,63310,6,0,P|357:42|374:4,1,80.9999975280763,10|2,0:1|0:0,0:0:0:0:
448,69,63610,1,2,0:0:0:0:
339,107,63760,1,10,0:1:0:0:
224,13,63910,2,0,P|237:57|263:172,1,161.999995056153,10|10,0:1|0:1,0:0:0:0:
262,170,64360,1,2,0:0:0:0:
110,243,64510,1,4,0:3:0:0:
187,209,64660,1,8,0:3:0:0:
237,284,64810,2,0,P|229:328|227:369,1,80.9999975280763,0|12,0:0|0:3,0:0:0:0:
29,220,65110,6,0,P|59:129|65:89,1,121.499996292114,10|0,0:1|0:0,0:0:0:0:
127,58,65410,6,0,L|169:51,1,40.4999987640381,4|4,0:3|0:3,0:0:0:0:
60,28,65560,2,0,L|15:9,1,40.4999987640381,4|4,0:3|0:3,0:0:0:0:
149,155,65710,5,10,0:1:0:0:
149,155,65860,2,0,L|237:142,1,80.9999975280763
338,80,66160,1,10,0:1:0:0:
317,268,66310,1,10,0:1:0:0:
311,168,66460,2,0,P|305:230|305:255,1,80.9999975280763,2|10,0:0|0:1,0:0:0:0:
389,362,66760,1,2,0:0:0:0:
298,378,66910,2,0,P|258:363|234:324,1,80.9999975280763,4|8,0:3|0:3,0:0:0:0:
433,292,67210,2,0,P|478:286|520:276,1,80.9999975280763,0|12,0:0|0:3,0:0:0:0:
208,247,67510,6,0,P|118:278|72:249,1,121.499996292114,8|0,0:1|0:0,0:0:0:0:
49,206,67810,6,0,L|-11:192,1,40.4999987640381,4|4,0:3|0:3,0:0:0:0:
80,135,67960,2,0,L|129:121,1,40.4999987640381,4|4,0:3|0:3,0:0:0:0:
29,24,68110,6,0,P|19:67|4:107,1,80.9999975280763,10|2,0:1|0:0,0:0:0:0:
141,201,68410,1,2,0:0:0:0:
247,127,68560,1,10,0:1:0:0:
126,37,68710,2,0,P|189:33|223:26,1,80.9999975280763,10|2,0:1|0:0,0:0:0:0:
440,74,69010,2,0,P|399:68|359:66,1,80.9999975280763,10|2,0:1|0:0,0:0:0:0:
287,233,69310,5,8,0:1:0:0:
277,76,69510,5,8,0:1:0:0:
230,300,69710,5,8,0:1:0:0:
309,0,69910,5,8,0:1:0:0:
364,270,70210,1,8,0:1:0:0:
61,181,90910,6,0,P|129:172|204:156,1,135,2|2,0:0|0:0,0:0:0:0:
295,134,91810,1,2,0:0:0:0:
247,48,92110,2,0,P|318:38|382:173,1,236.25,2|0,0:0|0:0,0:0:0:0:
421,253,93310,2,0,B|242:211|313:329|102:283,1,311.849999048309
65,68,95710,6,0,P|84:125|96:208,1,135,2|2,0:0|0:0,0:0:0:0:
25,302,96610,1,2,0:0:0:0:
117,365,96910,2,0,P|169:375|203:370,1,67.5,2|0,0:0|0:0,0:0:0:0:
255,289,97510,2,0,P|307:279|332:282,1,67.5,2|0,0:0|0:0,0:0:0:0:
470,314,98110,2,0,B|468:366|424:380|424:380|392:314|396:242|557:250|533:88|413:46|345:132|415:162,1,472.499985580445,2|0,0:0|0:0,0:0:0:0:
282,186,99910,6,0,P|246:172|204:162,1,81
172,239,100510,6,0,P|158:159|133:82,1,161.999995056153,2|2,0:0|0:0,0:0:0:0:
208,1,101410,1,2,0:0:0:0:
315,59,101710,2,0,P|331:129|363:347,1,283.499991348267,2|0,0:0|0:0,0:0:0:0:
377,241,102910,6,0,B|414:234|434:211|434:211|458:238|458:238|483:214|522:217,1,162
312,180,104110,2,0,B|276:174|255:150|255:150|231:177|231:177|205:156|167:156,1,162
46,319,105310,6,0,P|121:309|170:220,1,161.999995056153,2|2,0:0|0:0,0:0:0:0:
97,143,106210,1,2,0:0:0:0:
193,46,106510,2,0,P|221:89|313:97,1,121.499996292114,2|0,0:0|0:0,0:0:0:0:
331,45,107110,2,0,P|370:16|449:33,1,121.499996292114,2|0,0:0|0:0,0:0:0:0:
476,94,107710,2,0,B|389:123|399:248|441:339|441:339|393:282|325:291|319:318|308:382|368:380,1,472.5,2|0,0:0|0:0,0:0:0:0:
222,270,110110,6,0,P|160:256|90:245,1,133.649999592133,2|0,0:0|0:0,0:0:0:0:
37,185,110710,1,2,0:0:0:0:
135,98,111010,1,2,0:0:0:0:
31,33,111310,2,0,P|78:65|188:22,1,178.199999456177,2|2,0:0|0:0,0:0:0:0:
184,27,112210,1,2,0:0:0:0:
383,98,112510,2,0,P|297:40|323:151,1,267.299999184265,2|0,0:0|0:0,0:0:0:0:
480,230,113710,2,0,P|388:284|405:179,1,267.299999184265
321,340,114910,6,0,P|252:321|182:310,1,133.649999592133,2|2,0:0|0:0,0:0:0:0:
123,356,115510,1,2,0:0:0:0:
18,288,115810,1,2,0:0:0:0:
124,195,116110,2,0,P|139:143|157:100,1,89.0999997280884,2|0,0:0|0:0,0:0:0:0:
98,42,116710,2,0,L|4:54,1,89.0999997280884,2|0,0:0|0:0,0:0:0:0:
231,81,117310,2,0,P|299:41|454:125,1,267.299999184265,2|0,0:0|0:0,0:0:0:0:
443,139,118510,2,0,P|348:56|225:111,1,267.299999184265
364,181,119710,6,0,P|374:255|391:333,1,133.649999592133,2|2,0:0|0:0,0:0:0:0:
463,307,120310,1,2,0:0:0:0:
339,371,120610,1,2,0:0:0:0:
229,283,120910,2,0,P|168:271|94:259,1,133.649999592133,2|0,0:0|0:0,0:0:0:0:
97,259,121510,2,0,P|106:315|109:366,1,89.0999997280884,2|2,0:0|0:0,0:0:0:0:
195,183,122110,2,0,P|191:109|379:46,1,267.299999184265,2|0,0:0|0:0,0:0:0:0:
371,133,123310,2,0,P|232:109|90:95,1,267.299999184265
23,214,124510,6,0,P|95:203|162:189,1,133.649999592133,2|0,0:0|0:0,0:0:0:0:
227,228,125110,1,2,0:0:0:0:
136,319,125410,1,2,0:0:0:0:
255,378,125710,2,0,P|305:336|358:341,1,89.0999997280884,2|0,0:0|0:0,0:0:0:0:
431,369,126310,2,0,L|439:227,1,133.649999592133,2|0,0:0|0:0,0:0:0:0:
472,156,126910,2,0,P|442:204|264:95,1,311.849999048309,2|0,0:0|0:0,0:0:0:0:
313,59,128110,1,4,0:3:0:0:
313,59,129310,6,0,P|251:68|174:76,1,121.499996292114,10|0,0:1|0:0,0:0:0:0:
92,113,129760,1,10,0:1:0:0:
179,166,129910,2,0,P|269:173|319:183,1,121.499996292114,2|10,0:0|0:1,0:0:0:0:
250,263,130360,1,0,0:0:0:0:
341,312,130510,2,0,P|334:255|334:241,2,60.7499981460572,2|0|2,0:0|0:0|0:0,0:0:0:0:
487,94,131110,6,0,P|475:154|460:277,1,182.249994438172,8|0,0:3|0:0,0:0:0:0:
441,165,131710,6,0,P|395:128|316:125,1,121.499996292114,10|0,0:1|0:0,0:0:0:0:
253,213,132160,1,10,0:1:0:0:
233,297,132310,2,0,P|187:334|108:337,1,121.499996292114,2|10,0:0|0:1,0:0:0:0:
61,250,132760,1,2,0:0:0:0:
138,197,132910,2,0,P|146:230|147:273,2,60.7499981460572,2|8|0,0:0|0:1|0:0,0:0:0:0:
49,39,133360,1,2,0:0:0:0:
124,99,133510,2,0,L|45:126,1,60.7499981460572,10|0,0:3|0:0,0:0:0:0:
167,34,133810,2,0,L|246:61,1,60.7499981460572,2|0,0:0|0:0,0:0:0:0:
319,152,134110,6,0,P|338:71|356:19,1,121.499996292114,10|0,0:1|0:0,0:0:0:0:
319,152,134560,1,10,0:1:0:0:
410,210,134710,2,0,P|359:224|269:249,1,121.499996292114,2|10,0:0|0:1,0:0:0:0:
417,120,135160,1,2,0:0:0:0:
495,177,135310,2,0,L|486:252,2,60.7499981460572,2|0|2,0:0|0:0|0:0,0:0:0:0:
388,315,135910,6,0,P|353:284|222:304,1,182.249994438172,8|0,0:3|0:0,0:0:0:0:
100,265,136510,6,0,P|127:166|132:135,1,121.499996292114,10|0,0:1|0:0,0:0:0:0:
89,55,136960,1,10,0:1:0:0:
89,55,137110,2,0,P|118:61|184:66,1,60.7499981460572,2|2,0:0|0:0,0:0:0:0:
212,159,137410,1,10,0:1:0:0:
407,38,137710,6,0,L|278:56,2,99.0000030212403,8|8|8,0:3|0:3|0:3,0:0:0:0:
371,131,138310,1,8,0:1:0:0:
371,131,138610,1,8,0:3:0:0:
413,284,138910,6,0,P|427:232|462:143,1,135,10|0,0:1|0:0,0:0:0:0:
475,334,139360,1,10,0:1:0:0:
402,364,139510,2,0,L|311:371,2,67.5,2|0|10,0:0|0:0|0:1,0:0:0:0:
298,291,139960,1,2,0:0:0:0:
298,291,140110,2,0,P|292:255|295:208,1,67.5,2|8,0:0|0:1,0:0:0:0:
226,335,140410,2,0,P|196:313|165:278,1,67.5
32,306,140710,1,10,0:3:0:0:
101,256,140860,1,2,0:0:0:0:
110,177,141010,1,2,0:0:0:0:
64,114,141160,1,2,0:0:0:0:
93,33,141310,6,0,L|9:22,2,67.5,10|0|0,0:1|0:0|0:0,0:0:0:0:
203,153,141760,1,10,0:1:0:0:
241,82,141910,2,0,P|254:51|255:6,1,67.5,2|0,0:0|0:0,0:0:0:0:
305,127,142210,2,0,L|400:116,1,67.5,10|2,0:1|0:0,0:0:0:0:
483,44,142510,1,2,0:0:0:0:
457,189,142660,2,0,P|457:145|466:100,2,67.5,8|0|2,0:1|0:0|0:0,0:0:0:0:
492,336,143110,1,10,0:3:0:0:
427,286,143260,1,2,0:0:0:0:
348,275,143410,1,10,0:3:0:0:
278,317,143560,1,10,0:3:0:0:
189,300,143710,5,10,0:1:0:0:
189,300,143860,2,0,P|200:261|206:211,1,67.5
95,349,144160,1,10,0:1:0:0:
71,261,144310,2,0,L|-17:250,2,67.5,2|0|10,0:0|0:0|0:1,0:0:0:0:
161,164,144760,1,2,0:0:0:0:
100,102,144910,2,0,P|83:64|48:29,1,67.5,2|8,0:0|0:1,0:0:0:0:
164,27,145210,2,0,P|226:19|259:20,1,67.5,2|0,0:0|0:0,0:0:0:0:
346,83,145510,2,0,P|351:52|355:3,2,67.5,8|0|8,0:3|0:0|0:3,0:0:0:0:
334,171,145960,1,8,0:3:0:0:
510,161,146110,5,10,0:1:0:0:
416,141,146260,2,0,P|434:197|441:242,1,67.5,2|0,0:0|0:0,0:0:0:0:
375,320,146560,1,10,0:1:0:0:
458,310,146710,2,0,L|378:307,1,67.5,2|0,0:0|0:0,0:0:0:0:
236,287,147010,2,0,L|318:278,1,67.5,10|2,0:1|0:0,0:0:0:0:
155,359,147310,5,8,0:3:0:0:
52,241,147510,5,8,0:3:0:0:
266,186,147710,5,8,0:3:0:0:
41,91,147910,5,8,0:1:0:0:
155,268,148210,1,8,0:3:0:0:
256,192,148810,12,0,150760,0:0:0:0:
358,51,150910,6,0,P|338:104|305:230,1,179.549992602768,14|0,0:1|0:0,0:0:0:0:
340,340,151360,1,10,0:1:0:0:
425,312,151510,2,0,P|481:297|528:293,1,89.7749963013841,8|0,0:2|0:0,0:0:0:0:
306,222,151810,1,2,3:2:0:0:
244,300,151960,1,2,0:0:0:0:
165,230,152110,2,0,P|104:250|78:360,1,179.549992602768,10|0,0:1|3:0,0:0:0:0:
161,324,152560,1,0,0:0:0:0:
69,235,152710,2,0,P|57:195|39:147,1,89.7749963013841,10|0,0:2|0:0,0:0:0:0:
135,16,153010,1,2,0:3:0:0:
135,16,153160,1,2,0:3:0:0:
124,112,153310,6,0,P|183:84|252:60,1,134.662494452076,10|0,0:1|0:0,0:0:0:0:
269,68,153610,2,0,P|281:108|299:156,1,89.7749963013841,0|0,3:0|0:0,0:0:0:0:
453,23,153910,2,0,P|394:53|389:168,1,179.549992602768,10|2,0:2|0:3,0:0:0:0:
426,237,154360,1,0,0:0:0:0:
463,116,154510,1,10,0:1:0:0:
444,333,154810,2,0,L|317:321,1,89.7749963013841,2|2,3:2|0:0,0:0:0:0:
189,218,155110,6,0,P|240:245|261:338,1,134.662494452076,8|0,0:2|0:0,0:0:0:0:
251,343,155410,1,8,0:2:0:0:
321,211,155560,1,8,0:2:0:0:
176,307,155710,6,0,P|59:283|-11:275,1,179.549992602768,14|0,0:1|3:0,0:0:0:0:
101,132,156160,1,10,0:1:0:0:
19,165,156310,2,0,P|94:157|141:147,1,89.7749963013841,8|0,0:2|0:0,0:0:0:0:
281,24,156610,1,2,3:2:0:0:
250,118,156760,1,2,3:2:0:0:
179,48,156910,2,0,P|96:44|-4:34,1,179.549992602768,10|0,0:1|3:0,0:0:0:0:
0,34,157360,1,0,0:0:0:0:
101,132,157510,2,0,P|52:172|52:266,1,134.662494452076,10|0,0:2|0:0,0:0:0:0:
58,257,157810,2,0,P|119:244|171:238,1,89.7749963013841,2|2,0:3|0:3,0:0:0:0:
377,234,158110,6,0,P|332:227|288:217,1,89.7749963013841,10|0,0:1|0:0,0:0:0:0:
278,97,158410,1,0,3:0:0:0:
278,97,158560,1,0,3:0:0:0:
438,160,158710,2,0,P|454:201|467:244,1,89.7749963013841,10|8,0:2|0:2,0:0:0:0:
331,312,159010,1,2,0:3:0:0:
331,312,159160,1,8,0:2:0:0:
353,144,159310,2,0,P|366:101|406:14,1,134.662494452076,10|0,0:1|0:0,0:0:0:0:
419,29,159610,2,0,L|333:53,1,89.7749963013841,2|2,0:3|0:3,0:0:0:0:
276,184,159910,5,8,0:2:0:0:
276,184,160060,1,8,0:2:0:0:
96,128,160210,1,8,0:2:0:0:
96,128,160360,1,8,0:2:0:0:
167,6,160510,6,0,P|179:89|185:206,1,193.050002651138,14|0,0:1|3:0,0:0:0:0:
188,342,160960,1,10,0:1:0:0:
96,362,161110,2,0,P|48:362|15:328,1,96.5250013255692,8|0,0:2|0:0,0:0:0:0:
234,273,161410,1,2,0:2:0:0:
318,317,161560,1,2,0:2:0:0:
388,252,161710,2,0,P|394:184|421:56,1,193.050002651138,10|0,0:1|3:0,0:0:0:0:
419,61,162160,1,0,0:0:0:0:
358,173,162310,2,0,P|314:175|259:191,1,96.5250013255692,10|0,0:2|0:0,0:0:0:0:
222,76,162610,2,0,P|268:89|316:93,1,96.5250013255692,2|0,0:3|0:0,0:0:0:0:
146,207,162910,6,0,P|134:111|33:103,1,193.050002651138,10|0,0:1|3:0,0:0:0:0:
52,92,163360,1,0,0:0:0:0:
18,273,163510,2,0,P|104:285|214:312,1,193.050002651138,10|0,0:2|3:0,0:0:0:0:
278,381,163960,1,0,0:0:0:0:
371,267,164110,2,0,P|384:212|403:154,2,96.5250013255692,10|2|2,0:1|0:0|3:2,0:0:0:0:
387,356,164560,1,2,0:0:0:0:
300,196,164710,1,8,0:2:0:0:
464,19,165010,5,8,0:2:0:0:
464,19,165160,1,8,0:2:0:0:
321,74,165310,6,0,P|404:92|514:126,1,193.050002651138,14|0,0:1|3:0,0:0:0:0:
321,74,165760,1,10,0:1:0:0:
232,115,165910,2,0,P|184:135|142:157,1,96.5250013255692,8|0,0:2|0:0,0:0:0:0:
2,85,166210,1,2,3:2:0:0:
110,49,166360,1,2,0:0:0:0:
61,164,166510,2,0,L|84:346,1,144.787501988354,10|0,0:1|0:0,0:0:0:0:
61,343,166810,1,2,0:3:0:0:
61,343,166960,1,2,0:3:0:0:
179,229,167110,2,0,L|163:335,1,96.5250013255692,10|0,0:2|0:0,0:0:0:0:
349,305,167410,1,0,3:0:0:0:
265,252,167560,1,8,0:2:0:0:
281,368,167710,6,0,P|368:342|481:325,1,193.050002651138,10|0,0:1|3:0,0:0:0:0:
508,224,168160,1,0,3:0:0:0:
374,177,168310,2,0,P|370:121|357:31,1,144.787501988354,10|0,0:2|0:0,0:0:0:0:
367,17,168610,2,0,P|435:14|462:50,1,96.5250013255692,0|2,3:0|0:3,0:0:0:0:
226,177,168910,5,8,0:1:0:0:
258,29,169060,1,8,0:2:0:0:
324,307,169360,5,8,0:3:0:0:
302,214,169510,1,4,0:3:0:0:
261,373,169810,5,8,0:2:0:0:
261,373,169960,1,8,0:2:0:0:
302,214,170110,6,0,B|337:246|308:302|262:294|218:284|223:196|223:196|199:225|172:236|172:236|169:206|156:187|156:187|137:206|108:202|108:202|104:183|91:170|91:170|60:174|33:150,1,472.5,12|0,0:1|0:0,0:0:0:0:
89,86,171310,5,8,0:2:0:0:
89,86,171385,1,8,0:2:0:0:
89,86,171460,1,8,0:3:0:0:
89,86,171535,1,8,0:3:0:0:
89,86,171610,2,0,P|119:76|149:74,3,44.8874981506921,8|8|8|8,0:3|0:3|0:3|0:3,0:0:0:0:
199,18,171910,2,0,P|225:26|264:30,3,44.8874981506921,12|12|12|12,0:3|0:3|0:3|0:3,0:0:0:0:
314,99,172210,2,0,P|289:103|236:120,3,44.8874981506921,4|4|4|4,0:3|0:3|0:3|0:3,0:0:0:0:
384,31,172510,6,0,P|390:93|404:188,1,135,14|0,0:1|0:0,0:0:0:0:
303,320,172960,2,0,P|312:253|319:186,1,135,10|0,0:1|0:0,0:0:0:0:
480,196,173410,1,10,0:2:0:0:
426,363,173710,6,0,P|383:371|353:387,2,67.5,0|0|8,3:0|0:0|0:1,0:0:0:0:
228,360,174310,2,0,P|197:346|163:341,1,67.5,8|8,0:2|0:1,0:0:0:0:
80,368,174610,1,2,0:3:0:0:
80,368,174760,1,2,0:3:0:0:
12,235,174910,6,0,P|49:250|156:199,1,135,10|2,0:1|0:3,0:0:0:0:
319,131,175360,2,0,P|282:116|175:167,1,135,10|0,0:1|0:0,0:0:0:0:
177,306,175810,2,0,P|176:251|159:31,1,270,10|8,0:2|0:1,0:0:0:0:
402,164,176710,5,8,0:2:0:0:
379,70,176861,2,0,P|385:37|395:5,2,67.5,8|2|2,0:1|0:3|0:3,0:0:0:0:
369,256,177310,5,10,0:1:0:0:
254,353,177610,5,0,3:0:0:0:
270,277,177760,1,10,0:1:0:0:
141,222,178060,5,0,0:0:0:0:
146,299,178210,1,10,0:1:0:0:
219,126,178510,5,10,0:1:0:0:
67,62,178810,5,0,3:0:0:0:
153,76,178960,1,10,0:1:0:0:
314,37,179260,5,0,0:0:0:0:
398,26,179410,1,10,0:1:0:0:
501,151,179710,5,10,0:1:0:0:
374,308,180010,5,0,3:0:0:0:
366,211,180160,1,10,0:1:0:0:
246,27,180460,5,0,0:0:0:0:
235,119,180610,1,10,0:1:0:0:
208,323,180910,5,10,0:1:0:0:
25,283,181210,5,0,3:0:0:0:
141,267,181360,1,10,0:1:0:0:
5,94,181660,5,0,0:0:0:0:
114,115,181810,1,10,0:1:0:0:
258,266,182110,6,0,P|361:263|416:361,1,193.050002651138,12|0,0:1|0:0,0:0:0:0:
224,86,182560,2,0,P|121:89|66:-9,1,193.050002651138,8|0,0:1|0:0,0:0:0:0:
331,213,183010,2,0,P|343:117|363:23,1,193.050002651138,12|0,0:1|0:0,0:0:0:0:
326,362,183610,5,8,0:2:0:0:
326,362,183760,1,8,0:2:0:0:
245,177,183910,1,8,0:3:0:0:
245,177,184060,1,8,0:3:0:0:
216,296,184210,2,0,L|109:322,1,80.9999975280763,12|12,0:3|0:3,0:0:0:0:
165,10,184510,6,0,P|157:119|131:215,1,193.050002651138,12|0,0:1|0:0,0:0:0:0:
408,182,184960,2,0,P|317:120|247:50,1,193.050002651138,8|0,0:1|0:0,0:0:0:0:
137,315,185410,2,0,P|235:267|331:241,1,193.050002651138,12|0,0:1|0:0,0:0:0:0:
473,137,186010,5,8,0:2:0:0:
481,151,186085,1,8,0:2:0:0:
489,167,186160,1,8,0:2:0:0:
492,186,186235,1,8,0:2:0:0:
490,204,186310,1,8,0:3:0:0:
484,222,186385,1,8,0:3:0:0:
476,237,186460,1,8,0:3:0:0:
462,249,186535,1,8,0:3:0:0:
450,260,186610,2,0,L|460:322,3,48.2625006627846,12|12|12|12,0:3|0:3|0:3|0:3,0:0:0:0:
409,187,186910,5,12,0:3:0:0:
317,155,187110,1,12,0:3:0:0:
220,114,187310,1,12,0:3:0:0:
193,199,187510,5,12,0:3:0:0:
317,155,187710,1,12,0:3:0:0:
446,108,187910,1,12,0:3:0:0:
250,30,188110,5,8,0:1:0:0:
250,30,188260,1,0,0:0:0:0:
