osu file format v14

[General]
AudioFilename: audio.mp3
AudioLeadIn: 0
PreviewTime: 148810
Countdown: 0
SampleSet: Soft
StackLeniency: 0.7
Mode: 0
LetterboxInBreaks: 0
WidescreenStoryboard: 1

[Editor]
Bookmarks: 16510,35710,41710,51310,60910,71710,74110,76510,78910,81310,83710,86110,88510,90910,129310,138910,150910,172510,182110,188110
DistanceSpacing: 1
BeatDivisor: 8
GridSize: 16
TimelineZoom: 1.7

[Metadata]
Title:Formula 1 Theme
TitleUnicode:Formula 1 Theme
Artist:Brian Tyler
ArtistUnicode:Brian Tyler
Creator:Sylvarus
Version:Hard
Source:Formula 1
Tags:ratokkoy instrumental classical f1 max verstappen 33 official anthem
BeatmapID:3599667
BeatmapSetID:1747832

[Difficulty]
HPDrainRate:4.5
CircleSize:3.6
OverallDifficulty:6.5
ApproachRate:7
SliderMultiplier:2
SliderTickRate:1

[Events]
//Background and Video events
0,0,"98050099_p1.jpg",0,0
//Break Periods
2,71910,90010
//Storyboard Layer 0 (Background)
//Storyboard Layer 1 (Fail)
//Storyboard Layer 2 (Pass)
//Storyboard Layer 3 (Foreground)
//Storyboard Layer 4 (Overlay)
//Storyboard Sound Samples

[TimingPoints]
-290,600,4,2,1,50,1,0
2110,-100,4,2,2,50,0,0
3610,-142.857142857143,4,2,2,30,0,0
5710,-142.857142857143,4,2,2,50,0,0
5859,-142.857142857143,4,2,1,50,0,0
6910,-142.857142857143,4,2,2,50,0,0
8410,-142.857142857143,4,2,2,30,0,0
10510,-142.857142857143,4,2,2,50,0,0
10960,-142.857142857143,4,2,1,50,0,0
11710,-142.857142857143,4,2,2,50,0,0
13060,-142.857142857143,4,2,1,30,0,0
15910,-142.857142857143,4,2,1,60,0,0
16510,-83.3333333333333,4,2,1,80,0,0
35710,-83.3333333333333,4,2,2,70,0,0
36910,-111.111111111111,4,2,2,70,0,0
37059,-111.111111111111,4,2,1,70,0,0
38110,-111.111111111111,4,2,2,70,0,0
40810,-111.111111111111,4,2,1,70,0,0
41710,-111.111111111111,4,2,2,70,0,0
42310,-100,4,2,1,70,0,0
42610,-100,4,2,2,70,0,0
42911,-100,4,2,1,70,0,0
44110,-100,4,2,2,70,0,0
44710,-100,4,2,1,70,0,0
45010,-100,4,2,2,70,0,0
45310,-100,4,2,1,70,0,0
46510,-100,4,2,2,70,0,0
47110,-100,4,2,1,70,0,0
47410,-100,4,2,2,70,0,0
47710,-100,4,2,1,70,0,0
48910,-100,4,2,2,70,0,0
49510,-100,4,2,1,70,0,0
49810,-100,4,2,2,70,0,0
51910,-100,4,2,1,70,0,0
52210,-100,4,2,2,70,0,0
52509,-100,4,2,1,70,0,0
53710,-100,4,2,2,70,0,0
54310,-100,4,2,1,70,0,0
54610,-100,4,2,2,70,0,0
54910,-100,4,2,1,70,0,0
56110,-100,4,2,2,70,0,0
56710,-100,4,2,1,70,0,0
57010,-100,4,2,2,70,0,0
57310,-100,4,2,1,70,0,0
58510,-100,4,2,2,70,0,0
59110,-100,4,2,1,70,0,0
59410,-100,4,2,2,70,0,0
61510,-90.9090909090909,4,2,1,70,0,0
61810,-90.9090909090909,4,2,2,70,0,0
62110,-90.9090909090909,4,2,1,70,0,0
63310,-90.9090909090909,4,2,2,70,0,0
63910,-90.9090909090909,4,2,1,70,0,0
64210,-90.9090909090909,4,2,2,70,0,0
64510,-90.9090909090909,4,2,1,70,0,0
65710,-90.9090909090909,4,2,2,70,0,0
66310,-90.9090909090909,4,2,1,70,0,0
66610,-90.9090909090909,4,2,2,70,0,0
66910,-90.9090909090909,4,2,1,70,0,0
68110,-90.9090909090909,4,2,2,70,0,0
68710,-90.9090909090909,4,2,1,70,0,0
69010,-90.9090909090909,4,2,2,70,0,0
71710,-90.9090909090909,4,2,2,20,0,0
90910,-166.666666666667,4,2,2,20,0,0
110110,-142.857142857143,4,2,2,20,0,0
128110,-142.857142857143,4,2,2,40,0,0
129310,-142.857142857143,4,2,2,50,0,0
130510,-125,4,2,2,50,0,0
138910,-111.111111111111,4,2,2,50,0,0
147310,-111.111111111111,4,2,2,80,0,0
150910,-83.3333333333333,4,2,1,80,0,0
170110,-100,4,2,1,80,0,0
171310,-100,4,2,2,70,0,0
171460,-100,4,2,1,70,0,0
182110,-100,4,2,2,70,0,0
183910,-100,4,2,1,70,0,0
184510,-100,4,2,2,70,0,0
186010,-100,4,2,2,60,0,0
186310,-100,4,2,1,60,0,0
187110,-100,4,2,1,65,0,0
187310,-100,4,2,1,70,0,0
187510,-100,4,2,1,75,0,0
187710,-100,4,2,1,80,0,0
187910,-100,4,2,1,85,0,0
188110,-100,4,2,2,90,0,0

[Colours]
Combo1 : 255,127,0
Combo2 : 0,147,132
Combo3 : 238,29,35
Combo4 : 215,165,190
Combo5 : 177,26,44
Combo6 : 86,188,220
Combo7 : 82,95,121
Combo8 : 191,191,191

[HitObjects]
195,130,2110,5,12,2:1:0:0:
284,202,2560,1,8,2:1:0:0:
259,314,3010,1,8,2:1:0:0:
118,250,3610,2,0,P|54:276|19:305,1,104.999996795654,0|0,2:0|2:0,2:0:0:0:
21,336,4210,2,0,L|31:376,2,34.9999989318848,0|0|0,2:0|2:0|2:0,2:0:0:0:
175,375,5710,6,0,L|180:347,3,17.4999994659424,8|8|8|8,2:0|2:0|2:3|2:3,2:0:0:0:
221,318,6010,2,0,L|215:289,3,17.4999994659424,8|8|8|8,2:3|2:3|2:3|2:3,2:0:0:0:
184,264,6310,2,0,L|190:235,3,17.4999994659424,12|12|12|12,2:3|2:3|2:3|2:3,2:0:0:0:
209,228,6610,2,0,L|203:199,3,17.4999994659424,4|4|4|4,2:3|2:3|2:3|2:3,2:0:0:0:
215,187,6910,5,12,2:1:0:0:
322,144,7360,1,8,2:1:0:0:
416,210,7810,1,8,2:1:0:0:
416,210,7960,1,12,2:1:0:0:
305,243,8410,2,0,B|207:278|245:345|140:385,1,209.999993591309,0|0,2:0|2:0,2:0:0:0:
460,371,10510,5,8,2:0:0:0:
460,371,10660,1,8,2:0:0:0:
501,288,10960,1,8,2:3:0:0:
501,288,11110,1,8,2:3:0:0:
452,217,11410,1,4,2:3:0:0:
496,126,11710,5,12,2:1:0:0:
435,27,12160,1,8,2:1:0:0:
326,66,12610,1,8,2:1:0:0:
326,66,12760,1,8,2:1:0:0:
326,66,12910,2,0,P|176:38|43:9,1,279.999991455078,12|0,2:1|2:0,2:0:0:0:
88,167,15910,5,8,2:0:0:0:
88,167,16060,1,8,2:0:0:0:
166,158,16210,1,8,2:0:0:0:
166,158,16360,1,8,2:0:0:0:
203,224,16510,6,0,P|198:291|190:368,1,119.999996337891,14|0,2:1|2:0,2:0:0:0:
265,384,16960,2,0,P|288:358|394:348,1,119.999996337891,10|0,2:1|2:0,2:0:0:0:
447,322,17410,1,2,2:0:0:0:
485,359,17560,1,2,2:0:0:0:
473,384,17710,2,0,L|445:252,1,119.999996337891,10|2,2:1|2:3,2:0:0:0:
308,231,18310,2,0,L|336:99,1,119.999996337891,10|0,2:0|2:0,2:0:0:0:
477,10,18910,6,0,L|498:147,1,119.999996337891,10|0,2:1|2:0,2:0:0:0:
387,224,19510,2,0,L|366:361,1,119.999996337891,10|0,2:0|2:0,2:0:0:0:
237,384,20110,1,10,2:1:0:0:
237,384,20260,1,2,2:0:0:0:
237,384,20410,2,0,L|220:322,1,59.9999981689454,2|2,2:0|2:0,2:0:0:0:
195,258,20710,1,8,2:0:0:0:
290,119,21010,5,8,2:0:0:0:
214,159,21160,1,8,2:0:0:0:
155,100,21310,6,0,L|20:70,1,119.999996337891,14|0,2:1|2:0,2:0:0:0:
0,153,21760,2,0,P|33:195|1:271,1,119.999996337891,10|0,2:1|2:0,2:0:0:0:
6,337,22210,1,2,2:0:0:0:
58,334,22360,1,2,2:0:0:0:
73,359,22510,2,0,L|194:380,1,119.999996337891,10|2,2:1|2:3,2:0:0:0:
269,258,23110,2,0,L|387:237,1,119.999996337891,10|0,2:0|2:0,2:0:0:0:
452,109,23710,6,0,L|315:80,1,119.999996337891,10|2,2:1|2:3,2:0:0:0:
274,37,24160,1,2,2:3:0:0:
274,37,24310,2,0,L|137:66,1,119.999996337891,10|2,2:0|2:3,2:0:0:0:
89,186,24910,2,0,P|146:181|178:248,1,119.999996337891,10|2,2:1|2:3,2:0:0:0:
233,339,25510,5,8,2:0:0:0:
304,307,25660,1,8,2:0:0:0:
363,350,25810,1,8,2:3:0:0:
355,367,25960,1,4,2:3:0:0:
394,384,26110,6,0,L|372:244,1,119.999996337891,14|0,2:1|2:0,2:0:0:0:
297,211,26560,1,10,2:1:0:0:
299,136,26710,2,0,P|312:97|353:79,1,59.9999981689454,8|0,2:0|2:0,2:0:0:0:
373,19,27010,1,2,2:0:0:0:
418,35,27160,1,2,2:0:0:0:
436,20,27310,2,0,L|459:150,1,119.999996337891,10|0,2:1|2:0,2:0:0:0:
510,271,27910,2,0,L|438:260,1,59.9999981689454,10|0,2:0|2:0,2:0:0:0:
378,252,28210,2,0,L|306:241,1,59.9999981689454,2|0,2:3|2:0,2:0:0:0:
249,303,28510,6,0,P|237:247|207:165,1,119.999996337891,10|0,2:1|2:0,2:0:0:0:
150,158,28960,1,2,2:3:0:0:
150,158,29110,2,0,P|162:102|192:20,1,119.999996337891,10|0,2:0|2:0,2:0:0:0:
40,14,29710,1,10,2:1:0:0:
40,14,29860,1,2,2:0:0:0:
40,14,30010,2,0,P|51:54|55:89,1,59.9999981689454,2|2,2:0|2:0,2:0:0:0:
29,146,30310,1,8,2:0:0:0:
24,306,30610,5,8,2:0:0:0:
84,254,30760,1,8,2:0:0:0:
158,281,30910,2,0,L|285:306,1,119.999996337891,14|0,2:1|2:0,2:0:0:0:
344,381,31360,1,10,2:1:0:0:
407,336,31510,2,0,P|416:298|410:262,1,59.9999981689454,8|0,2:0|2:0,2:0:0:0:
395,195,31810,1,2,2:0:0:0:
344,222,31960,1,2,2:0:0:0:
328,196,32110,2,0,L|208:171,1,119.999996337891,10|2,2:1|2:3,2:0:0:0:
95,84,32710,2,0,L|212:59,1,119.999996337891,10|2,2:0|2:3,2:0:0:0:
259,2,33160,1,0,3:0:0:0:
332,53,33310,6,0,P|378:74|449:99,1,119.999996337891,10|0,2:1|3:0,2:0:0:0:
512,291,33910,2,0,P|455:310|400:335,1,119.999996337891,10|2,2:0|2:3,2:0:0:0:
338,383,34360,1,2,2:3:0:0:
338,383,34510,6,0,L|300:260,1,119.999996337891,10|0,2:0|2:0,2:0:0:0:
269,194,34960,1,8,2:0:0:0:
143,264,35260,5,8,2:0:0:0:
168,193,35410,1,8,2:0:0:0:
126,128,35560,1,8,2:0:0:0:
161,61,35710,5,8,2:1:0:0:
79,200,36160,1,8,2:1:0:0:
161,339,36610,1,8,2:1:0:0:
71,356,36910,5,8,0:2:0:0:
71,356,36985,1,8,0:2:0:0:
71,356,37060,2,0,L|61:327,1,22.4999993133545,8|8,2:3|2:3,2:0:0:0:
18,309,37210,2,0,L|28:280,3,22.4999993133545,8|8|8|8,2:3|2:3|2:3|2:3,2:0:0:0:
49,261,37510,2,0,L|39:232,3,22.4999993133545,12|12|12|12,2:3|2:3|2:3|2:3,2:0:0:0:
22,225,37810,2,0,L|32:196,3,22.4999993133545,4|4|4|4,2:3|2:3|2:3|2:3,2:0:0:0:
37,173,38110,5,12,2:1:0:0:
190,122,38560,1,8,2:1:0:0:
62,78,39010,1,8,2:1:0:0:
25,52,39160,1,8,2:1:0:0:
71,27,39310,6,0,P|96:107|124:215,1,179.999994506836,12|0,2:1|2:0,2:0:0:0:
331,265,40510,5,8,2:0:0:0:
331,265,40660,1,8,2:0:0:0:
395,218,40810,1,8,2:3:0:0:
395,218,40960,1,8,2:3:0:0:
355,148,41110,2,0,L|312:138,1,44.999998626709,12|12,2:3|2:3,2:0:0:0:
266,66,41410,2,0,L|309:56,1,44.999998626709,4|4,2:3|2:3,2:0:0:0:
384,36,41710,5,14,2:1:0:0:
492,213,42160,1,10,2:1:0:0:
492,213,42310,2,0,P|502:144|514:100,1,100,10|10,2:1|2:1,2:0:0:0:
434,102,42760,1,2,2:0:0:0:
434,102,42911,2,0,P|422:150|416:200,1,100,4|2,2:3|2:0,2:0:0:0:
490,288,43510,2,0,P|415:313|348:358,1,150,8|0,2:1|2:0,2:0:0:0:
286,384,44110,5,10,2:1:0:0:
224,214,44560,1,10,2:1:0:0:
224,214,44710,2,0,P|236:146|248:106,1,100,10|10,2:1|2:1,2:0:0:0:
187,62,45160,1,2,2:0:0:0:
187,62,45310,2,0,P|218:82|243:91,2,50,4|8|0,2:3|2:3|2:0,2:0:0:0:
119,8,45760,1,12,2:3:0:0:
119,8,45910,2,0,P|90:29|67:53,1,50,10|2,2:1|2:0,2:0:0:0:
0,72,46210,2,0,P|29:93|52:117,1,50,6|6,2:3|2:3,2:0:0:0:
80,168,46510,5,10,2:1:0:0:
250,224,46960,1,10,2:1:0:0:
250,224,47110,2,0,P|301:205|352:176,1,100,10|10,2:1|2:1,2:0:0:0:
297,115,47560,1,2,2:0:0:0:
297,115,47710,2,0,P|253:138|207:156,1,100,4|2,2:3|2:0,2:0:0:0:
83,150,48310,2,0,P|72:202|24:298,1,150,8|0,2:1|2:0,2:0:0:0:
0,358,48910,5,10,2:1:0:0:
172,305,49360,1,10,2:1:0:0:
172,305,49510,2,0,P|241:320|285:332,1,100,10|10,2:1|2:1,2:0:0:0:
397,380,50110,5,8,2:1:0:0:
439,312,50310,1,8,2:1:0:0:
388,249,50510,1,8,2:1:0:0:
346,317,50710,5,8,2:1:0:0:
242,377,51010,1,8,2:1:0:0:
73,328,51310,5,14,2:1:0:0:
13,163,51760,1,10,2:1:0:0:
13,163,51910,2,0,P|84:136|122:119,1,100,10|10,2:1|2:1,2:0:0:0:
93,44,52360,1,2,2:0:0:0:
93,44,52509,2,0,P|46:63|0:80,1,100,4|2,2:3|2:0,2:0:0:0:
126,134,53110,2,0,P|171:160|213:203,1,100,8|4,2:1|2:3,2:0:0:0:
247,271,53560,1,4,2:3:0:0:
247,271,53635,1,4,2:3:0:0:
247,271,53710,5,10,2:1:0:0:
345,120,54160,1,10,2:1:0:0:
345,120,54310,2,0,P|335:65|316:3,1,100,10|10,2:1|2:1,2:0:0:0:
236,0,54760,1,2,2:0:0:0:
236,0,54910,2,0,P|276:6|300:9,2,50,4|8|0,2:3|2:3|2:0,2:0:0:0:
158,37,55360,1,12,2:3:0:0:
158,37,55510,2,0,P|153:74|149:97,1,50,10|2,2:1|2:0,2:0:0:0:
214,137,55810,2,0,L|220:169,3,25,4|4|4|4,2:3|2:3|2:3|2:3,2:0:0:0:
228,205,56110,5,10,2:1:0:0:
379,365,56560,1,10,2:1:0:0:
379,365,56710,2,0,P|436:354|491:344,1,100,10|10,2:1|2:1,2:0:0:0:
489,264,57160,1,2,2:0:0:0:
489,264,57310,2,0,P|439:273|390:282,1,100,4|2,2:3|2:0,2:0:0:0:
330,233,57760,1,12,2:3:0:0:
360,162,57910,2,0,P|392:126|445:82,1,100,8|4,2:1|2:3,2:0:0:0:
499,49,58360,1,4,2:3:0:0:
499,49,58435,1,4,2:3:0:0:
499,49,58510,5,10,2:1:0:0:
291,0,58960,1,10,2:1:0:0:
291,0,59110,2,0,P|264:37|249:55,1,50,10|0,2:1|2:0,2:0:0:0:
206,91,59410,1,10,2:1:0:0:
263,196,59710,5,8,2:1:0:0:
333,233,59910,1,8,2:1:0:0:
267,278,60110,1,8,2:1:0:0:
197,238,60310,5,8,2:1:0:0:
115,325,60610,1,8,2:1:0:0:
305,384,60910,5,14,2:1:0:0:
481,257,61360,1,10,2:1:0:0:
481,257,61510,2,0,P|423:231|351:193,1,110.000003356934,10|10,2:1|2:1,2:0:0:0:
369,117,61960,1,2,2:0:0:0:
369,117,62110,2,0,P|418:142|469:164,1,110.000003356934,4|2,2:3|2:0,2:0:0:0:
292,193,62710,2,0,P|215:223|133:264,1,165.000005035401,8|0,2:1|2:0,2:0:0:0:
89,320,63310,6,0,L|30:308,2,55.0000016784668,10|2|2,2:1|2:0|2:0,2:0:0:0:
166,347,63760,1,10,2:1:0:0:
166,347,63910,2,0,P|197:358|281:389,1,110.000003356934,10|10,2:1|2:1,2:0:0:0:
377,307,64510,2,0,P|376:261|373:232,2,55.0000016784668,4|8|0,2:3|2:3|2:0,2:0:0:0:
303,309,64960,1,12,2:3:0:0:
303,309,65110,2,0,L|235:296,1,55.0000016784668,10|2,2:1|2:0,2:0:0:0:
204,234,65410,2,0,L|149:244,1,55.0000016784668,6|6,2:3|2:3,2:0:0:0:
66,224,65710,6,0,P|75:261|76:296,2,55.0000016784668,10|0|0,2:1|2:0|2:0,2:0:0:0:
117,161,66160,1,10,2:1:0:0:
117,161,66310,2,0,P|180:188|223:185,1,110.000003356934,10|10,2:1|2:1,2:0:0:0:
238,108,66760,1,2,2:0:0:0:
238,108,66910,2,0,P|174:80|131:83,1,110.000003356934,4|2,2:3|2:0,2:0:0:0:
0,23,67510,2,0,L|198:-5,1,165.000005035401,8|4,2:1|2:3,2:0:0:0:
256,42,68110,6,0,P|246:80|237:105,2,55.0000016784668,10|2|2,2:1|2:0|2:0,2:0:0:0:
329,10,68560,1,10,2:1:0:0:
395,45,68710,1,10,2:1:0:0:
313,156,69010,1,10,2:1:0:0:
437,263,69310,5,8,2:1:0:0:
400,183,69510,1,8,2:1:0:0:
452,112,69710,1,8,2:1:0:0:
493,189,69910,5,8,2:1:0:0:
370,107,70210,1,8,2:1:0:0:
256,192,71710,5,4,2:3:0:0:
74,43,90910,6,0,L|96:182,1,119.999996337891,2|2,2:0|2:0,2:0:0:0:
152,214,91810,1,2,2:0:0:0:
152,214,92110,2,0,B|240:167|317:263|230:329|177:284,1,239.999992675781,2|0,2:0|2:0,2:0:0:0:
0,16,95710,6,0,L|142:-1,1,119.999996337891,2|2,2:0|2:0,2:0:0:0:
182,49,96610,1,2,2:0:0:0:
182,49,96910,2,0,P|230:99|211:144,1,119.999996337891,2|2,2:0|2:0,2:0:0:0:
280,240,98110,2,0,B|403:253|485:148|408:73|343:73|293:133|329:195,1,359.999989013672,2|0,2:0|2:0,2:0:0:0:
442,214,100510,6,0,L|463:345,1,119.999996337891,2|2,2:0|2:0,2:0:0:0:
408,384,101410,1,2,2:0:0:0:
408,384,101710,2,0,B|342:345|343:382|268:341,1,119.999996337891,2|0,2:0|2:0,2:0:0:0:
255,235,102910,2,0,B|248:182|314:143|383:187|391:266|335:287,1,239.999992675781,0|0,2:0|2:0,2:0:0:0:
122,384,105310,6,0,L|104:254,1,119.999996337891,2|2,2:0|2:0,2:0:0:0:
45,221,106210,1,2,2:0:0:0:
45,221,106510,2,0,P|14:256|38:329,1,119.999996337891,2|2,2:0|2:0,2:0:0:0:
140,369,107710,2,0,B|193:422|266:343|210:252|135:321|119:217,1,239.999992675781,2|0,2:0|2:0,2:0:0:0:
8,18,110110,6,0,L|168:37,1,139.999995727539,2|2,2:0|2:0,2:0:0:0:
207,87,111010,1,2,2:0:0:0:
207,87,111310,2,0,P|235:130|197:207,1,139.999995727539,2|2,2:0|2:0,2:0:0:0:
158,268,112210,1,2,2:0:0:0:
158,268,112510,2,0,P|101:246|16:223,1,139.999995727539,2|0,2:0|2:0,2:0:0:0:
140,145,113710,2,0,P|207:126|272:101,1,139.999995727539,0|0,2:0|2:0,2:0:0:0:
368,0,114910,6,0,P|435:18|525:37,1,139.999995727539,2|2,2:0|2:0,2:0:0:0:
504,112,115810,1,2,2:0:0:0:
504,112,116110,2,0,P|468:138|383:93,1,139.999995727539,2|2,2:0|2:0,2:0:0:0:
247,67,117310,2,0,B|342:128|280:147|396:217,1,209.999993591309,2|0,2:0|2:0,2:0:0:0:
466,206,118510,2,0,P|496:225|429:272,1,139.999995727539,0|0,2:0|2:0,2:0:0:0:
337,373,119710,6,0,L|313:227,1,139.999995727539,2|2,2:0|2:0,2:0:0:0:
333,163,120610,1,2,2:0:0:0:
333,163,120910,2,0,P|284:143|244:214,1,139.999995727539,2|2,2:0|2:0,2:0:0:0:
209,277,121810,1,2,2:0:0:0:
209,277,122110,2,0,P|185:204|149:145,1,139.999995727539,2|0,2:0|2:0,2:0:0:0:
292,166,123310,2,0,P|313:99|348:39,1,139.999995727539,0|0,2:0|2:0,2:0:0:0:
211,6,124510,6,0,L|49:37,1,139.999995727539,2|2,2:0|2:0,2:0:0:0:
25,91,125410,1,2,2:0:0:0:
25,91,125710,2,0,P|2:141|54:212,1,139.999995727539,2|2,2:0|2:0,2:0:0:0:
42,348,126910,2,0,P|79:305|264:298,1,244.999992523194,2|0,2:0|2:0,2:0:0:0:
289,333,128110,5,4,2:3:0:0:
196,15,129310,5,10,2:1:0:0:
272,107,129760,1,10,2:1:0:0:
218,214,130210,1,10,2:1:0:0:
279,265,130510,2,0,L|268:359,1,80,2|2,2:0|2:0,2:0:0:0:
196,376,131110,2,0,P|145:343|61:332,1,120,8|0,2:3|2:0,2:0:0:0:
48,340,131710,5,10,2:1:0:0:
104,233,132160,1,10,2:1:0:0:
90,113,132610,1,10,2:1:0:0:
25,66,132910,2,0,L|16:14,2,40,2|8|0,2:0|2:1|2:0,2:0:0:0:
11,144,133510,2,0,L|1:195,1,40,10|0,2:3|2:0,2:0:0:0:
24,216,133810,2,0,L|14:267,1,40,2|0,2:0|2:0,2:0:0:0:
6,293,134110,5,10,2:1:0:0:
103,363,134560,1,10,2:1:0:0:
153,254,135010,1,10,2:1:0:0:
227,282,135310,2,0,L|337:296,1,80,2|2,2:0|2:0,2:0:0:0:
335,217,135910,2,0,P|295:151|274:80,1,120,8|0,2:3|2:0,2:0:0:0:
276,71,136510,5,10,2:1:0:0:
393,47,136960,1,10,2:1:0:0:
490,116,137410,1,10,2:1:0:0:
426,183,137710,5,8,2:3:0:0:
383,242,137910,1,8,2:3:0:0:
429,301,138110,1,8,2:3:0:0:
474,242,138310,5,8,2:1:0:0:
499,342,138610,1,8,2:3:0:0:
356,382,138910,6,0,L|210:360,1,134.999995880127,10|10,2:1|2:1,2:0:0:0:
187,328,139510,1,2,2:0:0:0:
255,255,139810,2,0,P|250:228|244:207,2,44.999998626709,10|2|2,2:1|2:0|2:0,2:0:0:0:
351,276,140410,1,0,2:0:0:0:
397,188,140710,2,0,P|367:121|311:43,1,134.999995880127,8|0,2:3|2:0,2:0:0:0:
326,20,141310,6,0,L|169:3,1,134.999995880127,10|10,2:1|2:1,2:0:0:0:
130,0,141910,1,2,2:0:0:0:
108,96,142210,2,0,L|39:79,1,44.999998626709,10|2,2:1|2:0,2:0:0:0:
25,54,142510,2,0,P|19:21|21:-5,2,44.999998626709,2|8|0,2:0|2:1|2:0,2:0:0:0:
4,151,143110,2,0,L|11:201,1,44.999998626709,10|2,2:3|2:0,2:0:0:0:
55,215,143410,2,0,L|62:265,1,44.999998626709,10|10,2:3|2:3,2:0:0:0:
32,299,143710,6,0,L|200:270,1,134.999995880127,10|10,2:1|2:1,2:0:0:0:
213,266,144310,1,2,2:0:0:0:
288,330,144610,2,0,P|323:342|344:356,2,44.999998626709,10|2|2,2:1|2:0|2:0,2:0:0:0:
199,374,145210,1,2,2:0:0:0:
107,335,145510,1,8,2:3:0:0:
12,364,145810,1,8,2:3:0:0:
29,266,146110,6,0,P|10:236|-10:218,2,44.999998626709,10|2|0,2:1|2:0|2:0,2:0:0:0:
78,262,146560,1,10,2:1:0:0:
78,262,146710,2,0,P|135:248|171:231,1,89.9999972534181,2|10,2:0|2:1,2:0:0:0:
235,121,147310,5,8,2:3:0:0:
268,47,147510,1,8,2:3:0:0:
185,55,147710,1,8,2:3:0:0:
157,133,147910,5,8,2:1:0:0:
287,187,148210,1,8,2:3:0:0:
342,24,150910,6,0,L|475:45,1,119.999996337891,14|0,2:1|2:0,2:0:0:0:
500,112,151360,2,0,P|463:168|481:231,1,119.999996337891,10|0,2:1|2:0,2:0:0:0:
496,292,151810,1,2,3:2:0:0:
452,335,151960,1,2,2:0:0:0:
419,308,152110,2,0,L|282:291,1,119.999996337891,10|0,2:1|3:0,2:0:0:0:
201,188,152710,2,0,L|338:171,1,119.999996337891,10|2,2:0|2:3,2:0:0:0:
368,114,153160,1,2,2:3:0:0:
368,114,153310,6,0,P|327:63|294:-9,1,119.999996337891,10|0,2:1|3:0,2:0:0:0:
169,71,153910,2,0,P|141:124|103:170,1,119.999996337891,10|2,2:0|2:3,2:0:0:0:
27,47,154510,1,10,2:1:0:0:
27,47,154660,1,2,2:0:0:0:
27,47,154810,2,0,P|59:28|89:22,1,59.9999981689454,2|2,3:2|2:0,2:0:0:0:
158,25,155110,1,8,2:0:0:0:
277,166,155410,5,8,2:0:0:0:
210,127,155560,1,8,2:0:0:0:
142,172,155710,6,0,L|103:325,1,119.999996337891,14|0,2:1|3:0,2:0:0:0:
57,337,156160,2,0,P|108:318|194:364,1,119.999996337891,10|0,2:1|2:0,2:0:0:0:
243,379,156610,1,2,3:2:0:0:
292,349,156760,1,2,3:2:0:0:
258,325,156910,2,0,L|238:196,1,119.999996337891,10|0,2:1|3:0,2:0:0:0:
371,148,157510,2,0,L|391:19,1,119.999996337891,10|2,2:0|2:3,2:0:0:0:
512,145,158110,6,0,P|470:207|455:274,1,119.999996337891,10|0,2:1|3:0,2:0:0:0:
451,327,158560,1,0,3:0:0:0:
371,347,158710,1,10,2:0:0:0:
371,347,158860,1,8,2:0:0:0:
371,347,159010,2,0,L|308:339,1,59.9999981689454,2|8,2:3|2:0,2:0:0:0:
240,307,159310,2,0,P|223:241|253:175,1,119.999996337891,10|2,2:1|2:3,2:0:0:0:
305,33,159910,5,8,2:0:0:0:
238,65,160060,1,8,2:0:0:0:
178,22,160210,1,8,2:0:0:0:
105,44,160360,1,8,2:0:0:0:
34,5,160510,6,0,L|3:155,1,119.999996337891,14|0,2:1|3:0,2:0:0:0:
79,169,160960,1,10,2:1:0:0:
112,235,161110,2,0,P|102:267|61:300,1,59.9999981689454,8|0,2:0|2:0,2:0:0:0:
4,325,161410,1,2,2:0:0:0:
34,375,161560,1,2,2:0:0:0:
73,366,161710,2,0,L|206:347,1,119.999996337891,10|0,2:1|3:0,2:0:0:0:
293,247,162310,2,0,L|364:258,1,59.9999981689454,10|0,2:0|2:0,2:0:0:0:
428,266,162610,2,0,L|491:275,1,59.9999981689454,2|0,2:3|2:0,2:0:0:0:
506,351,162910,6,0,P|423:363|354:380,1,119.999996337891,10|0,2:1|3:0,2:0:0:0:
319,338,163360,1,2,2:3:0:0:
319,338,163510,2,0,P|236:326|167:309,1,119.999996337891,10|0,2:0|3:0,2:0:0:0:
108,221,164110,1,10,2:1:0:0:
108,221,164260,1,2,2:0:0:0:
108,221,164410,2,0,P|142:202|168:180,1,59.9999981689454,2|2,3:2|2:0,2:0:0:0:
200,127,164710,1,8,2:0:0:0:
30,10,165010,5,8,2:0:0:0:
89,62,165160,1,8,2:0:0:0:
148,16,165310,6,0,L|304:0,1,119.999996337891,14|0,2:1|3:0,2:0:0:0:
341,55,165760,1,10,2:1:0:0:
406,15,165910,2,0,P|437:9|480:10,1,59.9999981689454,8|0,2:0|2:0,2:0:0:0:
511,73,166210,1,2,3:2:0:0:
478,120,166360,1,2,2:0:0:0:
440,108,166510,2,0,L|376:120,1,59.9999981689454,10|0,2:1|2:0,2:0:0:0:
333,180,166810,2,0,L|269:192,1,59.9999981689454,2|2,2:3|2:3,2:0:0:0:
192,167,167110,2,0,P|241:221|260:296,1,119.999996337891,10|0,2:0|3:0,2:0:0:0:
241,344,167560,1,8,2:0:0:0:
335,352,167710,6,0,L|507:372,1,119.999996337891,10|0,2:1|3:0,2:0:0:0:
512,287,168160,1,0,3:0:0:0:
512,287,168310,2,0,L|392:273,1,119.999996337891,10|0,2:0|3:0,2:0:0:0:
295,166,168910,5,8,2:1:0:0:
295,166,169060,1,8,2:0:0:0:
186,71,169360,5,8,2:3:0:0:
186,71,169510,1,4,2:3:0:0:
42,59,169810,5,8,2:0:0:0:
42,59,169960,1,8,2:0:0:0:
98,3,170110,6,0,P|92:77|70:239,1,200,12|0,2:1|2:0,2:0:0:0:
290,317,171310,5,8,0:2:0:0:
290,317,171385,1,8,0:2:0:0:
290,317,171460,2,0,L|317:312,1,25,8|8,2:3|2:3,2:3:0:0:
356,343,171610,2,0,L|389:337,3,25,8|8|8|8,2:3|2:3|2:3|2:3,2:0:0:0:
402,305,171910,2,0,L|434:295,3,25,12|12|12|12,2:3|2:3|2:3|2:3,2:0:0:0:
447,312,172210,2,0,L|479:302,3,25,4|4|4|4,2:3|2:3|2:3|2:3,2:0:0:0:
490,282,172510,5,14,2:1:0:0:
403,159,172960,1,10,2:1:0:0:
480,30,173410,1,10,2:0:0:0:
500,127,173710,2,0,L|513:188,2,50,0|0|8,3:0|2:0|2:1,2:0:0:0:
412,79,174310,2,0,L|345:92,1,50,8|8,2:0|2:1,2:0:0:0:
313,96,174610,1,2,2:3:0:0:
313,96,174760,1,2,2:3:0:0:
273,64,174910,5,10,2:1:0:0:
198,192,175360,1,10,2:1:0:0:
341,234,175810,1,10,2:0:0:0:
252,280,176110,2,0,L|197:303,2,50,0|2|8,3:0|2:3|2:1,2:0:0:0:
347,308,176710,2,0,L|401:325,1,50,8|8,2:0|2:1,2:0:0:0:
442,338,177010,1,2,2:3:0:0:
442,338,177160,1,2,2:3:0:0:
488,319,177310,5,10,2:1:0:0:
425,188,177760,1,10,2:1:0:0:
291,119,178210,1,10,2:1:0:0:
223,192,178510,5,10,2:1:0:0:
78,232,178960,1,10,2:1:0:0:
9,98,179410,1,10,2:1:0:0:
74,22,179710,5,10,2:1:0:0:
164,141,180160,1,10,2:1:0:0:
18,177,180610,1,10,2:1:0:0:
100,233,180910,5,10,2:1:0:0:
279,276,181360,1,10,2:1:0:0:
452,320,181810,1,10,2:1:0:0:
359,356,182110,5,12,2:1:0:0:
401,154,182560,1,8,2:1:0:0:
206,203,183010,1,12,2:1:0:0:
251,8,183610,5,8,2:0:0:0:
251,8,183760,1,8,2:0:0:0:
317,49,183910,1,8,2:3:0:0:
317,49,184060,1,8,2:3:0:0:
386,16,184210,2,0,L|445:9,1,50,12|12,2:3|2:3,2:0:0:0:
511,0,184510,5,12,2:1:0:0:
454,214,184960,1,8,2:1:0:0:
245,191,185410,2,0,P|205:196|98:231,1,150,12|0,2:1|2:0,2:0:0:0:
26,227,186010,5,8,0:2:0:0:
26,227,186085,1,8,0:2:0:0:
26,227,186160,2,0,L|14:189,1,25,8|8,2:0|2:0,2:0:0:0:
53,166,186310,2,0,L|65:128,3,25,8|8|8|8,2:3|2:3|2:3|2:3,2:0:0:0:
42,123,186610,2,0,L|30:85,3,25,12|12|12|12,2:3|2:3|2:3|2:3,2:0:0:0:
27,65,186910,5,12,2:3:0:0:
74,3,187110,1,12,2:3:0:0:
150,9,187310,1,12,2:3:0:0:
106,77,187510,5,12,2:3:0:0:
197,83,187710,1,12,2:3:0:0:
249,165,187910,1,12,2:3:0:0:
146,185,188110,5,8,2:1:0:0:
