osu file format v14

[General]
AudioFilename: audio.mp3
AudioLeadIn: 0
PreviewTime: 148810
Countdown: 0
SampleSet: Soft
StackLeniency: 0.7
Mode: 0
LetterboxInBreaks: 0
WidescreenStoryboard: 0

[Editor]
Bookmarks: 16510,35710,41710,51310,60910,71710,74110,76510,78910,81310,83710,86110,88510,90910,129310,138910,150910,172510,182110,188110
DistanceSpacing: 0.9
BeatDivisor: 16
GridSize: 16
TimelineZoom: 1.7

[Metadata]
Title:Formula 1 Theme
TitleUnicode:Formula 1 Theme
Artist:Brian Tyler
ArtistUnicode:Brian Tyler
Creator:Sylvarus
Version:Champion
Source:Formula 1
Tags:ratokkoy instrumental classical f1 max verstappen 33 official anthem
BeatmapID:3575106
BeatmapSetID:1747832

[Difficulty]
HPDrainRate:6
CircleSize:4
OverallDifficulty:8
ApproachRate:9
SliderMultiplier:2.4
SliderTickRate:1

[Events]
//Background and Video events
0,0,"c7k3wt40nzu41.png",0,0
//Break Periods
//Storyboard Layer 0 (Background)
//Storyboard Layer 1 (Fail)
//Storyboard Layer 2 (Pass)
//Storyboard Layer 3 (Foreground)
//Storyboard Layer 4 (Overlay)
//Storyboard Sound Samples

[TimingPoints]
-290,600,4,2,1,50,1,0
2035,-100,4,2,1,5,0,0
2110,-100,4,2,2,50,0,0
3610,-100,4,2,2,20,0,0
4435,-100,4,2,2,5,0,0
4510,-142.857142857143,4,2,2,20,0,0
5710,-142.857142857143,4,2,2,50,0,0
5860,-142.857142857143,4,2,1,50,0,0
6310,-100,4,2,1,50,0,0
6910,-100,4,2,2,50,0,0
8410,-90.9090909090909,4,2,2,20,0,0
9235,-90.9090909090909,4,2,2,5,0,0
9310,-142.857142857143,4,2,2,20,0,0
10510,-142.857142857143,4,2,2,50,0,0
10960,-142.857142857143,4,2,1,50,0,0
11710,-142.857142857143,4,2,2,50,0,0
13510,-83.3333333333333,4,2,2,20,0,0
14035,-83.3333333333333,4,2,2,5,0,0
14110,-142.857142857143,4,2,2,20,0,0
14860,-142.857142857143,4,2,2,30,0,0
15910,-142.857142857143,4,2,1,60,0,0
16510,-55.5555555555556,4,2,1,80,0,0
17110,-66.6666666666667,4,2,1,80,0,0
18910,-55.5555555555556,4,2,1,80,0,0
19510,-66.6666666666667,4,2,1,80,0,0
21310,-55.5555555555556,4,2,1,80,0,0
21910,-66.6666666666667,4,2,1,80,0,0
23710,-55.5555555555556,4,2,1,80,0,0
24310,-66.6666666666667,4,2,1,80,0,0
24910,-58.8235294117647,4,2,1,80,0,0
26110,-55.5555555555556,4,2,1,80,0,0
26710,-66.6666666666667,4,2,1,80,0,0
28510,-55.5555555555556,4,2,1,80,0,0
29110,-66.6666666666667,4,2,1,80,0,0
33310,-55.5555555555556,4,2,1,80,0,0
33910,-66.6666666666667,4,2,1,80,0,0
35710,-66.6666666666667,4,2,2,70,0,0
37060,-66.6666666666667,4,2,1,70,0,0
38110,-66.6666666666667,4,2,2,70,0,0
39310,-142.857142857143,4,2,2,70,0,0
40435,-142.857142857143,4,2,2,5,0,0
40510,-142.857142857143,4,2,2,70,0,0
40810,-142.857142857143,4,2,1,70,0,0
41710,-142.857142857143,4,2,2,70,0,0
42160,-76.9230769230769,4,2,2,70,0,0
42310,-76.9230769230769,4,2,1,70,0,0
42610,-76.9230769230769,4,2,2,70,0,0
42910,-76.9230769230769,4,2,1,70,0,0
43510,-58.8235294117647,4,2,1,70,0,0
44035,-58.8235294117647,4,2,1,5,0,0
44110,-76.9230769230769,4,2,2,70,0,0
44710,-76.9230769230769,4,2,1,70,0,0
45010,-76.9230769230769,4,2,2,70,0,0
45310,-76.9230769230769,4,2,1,70,0,0
46510,-71.4285714285714,4,2,2,70,0,0
47110,-71.4285714285714,4,2,1,70,0,0
47410,-71.4285714285714,4,2,2,70,0,0
47710,-71.4285714285714,4,2,1,70,0,0
48310,-58.8235294117647,4,2,1,70,0,0
48835,-58.8235294117647,4,2,1,5,0,0
48910,-66.6666666666667,4,2,2,70,0,0
49510,-66.6666666666667,4,2,1,70,0,0
49810,-66.6666666666667,4,2,2,70,0,0
51910,-62.5,4,2,1,70,0,0
52210,-62.5,4,2,2,70,0,0
52510,-62.5,4,2,1,70,0,0
53335,-62.5,4,2,1,5,0,0
53410,-62.5,4,2,1,70,0,0
53710,-62.5,4,2,2,70,0,0
54310,-62.5,4,2,1,70,0,0
54610,-62.5,4,2,2,70,0,0
54910,-62.5,4,2,1,70,0,0
56110,-62.5,4,2,2,70,0,0
56710,-62.5,4,2,1,70,0,0
57010,-62.5,4,2,2,70,0,0
57310,-62.5,4,2,1,70,0,0
58135,-62.5,4,2,1,5,0,0
58210,-62.5,4,2,1,70,0,0
58510,-62.5,4,2,2,70,0,0
59110,-62.5,4,2,1,70,0,0
59410,-62.5,4,2,2,70,0,0
61510,-62.5,4,2,1,70,0,0
61810,-62.5,4,2,2,70,0,0
62110,-62.5,4,2,1,70,0,0
62710,-55.5555555555556,4,2,1,70,0,0
63235,-55.5555555555556,4,2,1,5,0,0
63310,-55.5555555555556,4,2,2,70,0,0
63910,-62.5,4,2,1,70,0,0
64210,-62.5,4,2,2,70,0,0
64510,-62.5,4,2,1,70,0,0
65710,-62.5,4,2,2,70,0,0
66310,-62.5,4,2,1,70,0,0
66610,-62.5,4,2,2,70,0,0
66910,-62.5,4,2,1,70,0,0
67735,-62.5,4,2,1,5,0,0
67810,-62.5,4,2,1,70,0,0
68110,-62.5,4,2,2,70,0,0
68710,-62.5,4,2,1,70,0,0
69010,-62.5,4,2,2,70,0,0
71710,-125,4,2,2,20,0,0
81310,-125,4,2,2,20,0,0
90910,-250,4,2,2,20,0,0
91435,-250,4,2,2,5,0,0
91510,-250,4,2,2,20,0,0
93235,-250,4,2,2,5,0,0
93310,-250,4,2,2,20,0,0
96235,-250,4,2,2,5,0,0
96310,-250,4,2,2,20,0,0
101035,-250,4,2,2,5,0,0
101110,-250,4,2,2,20,0,0
102835,-250,4,2,2,5,0,0
102910,-250,4,2,2,20,0,0
104035,-250,4,2,2,5,0,0
104110,-250,4,2,2,20,0,0
105835,-250,4,2,2,5,0,0
105910,-250,4,2,2,20,0,0
108835,-250,4,2,2,5,0,0
108910,-250,4,2,2,20,0,0
110110,-200,4,2,2,20,0,0
110635,-200,4,2,2,5,0,0
110710,-200,4,2,2,20,0,0
111835,-200,4,2,2,5,0,0
111910,-200,4,2,2,20,0,0
112510,-250.000000000001,4,2,2,20,0,0
114910,-200,4,2,2,20,0,0
117235,-200,4,2,2,5,0,0
117310,-200,4,2,2,20,0,0
118435,-200,4,2,2,5,0,0
118510,-250.000000000001,4,2,2,20,0,0
119710,-200,4,2,2,20,0,0
121435,-200,4,2,2,5,0,0
121510,-200,4,2,2,20,0,0
122110,-250.000000000001,4,2,2,20,0,0
124510,-200,4,2,2,20,0,0
125035,-200,4,2,2,5,0,0
125110,-200,4,2,2,20,0,0
126235,-200,4,2,2,5,0,0
126310,-166.666666666667,4,2,2,20,0,0
126835,-166.666666666667,4,2,2,5,0,0
126910,-125,4,2,2,20,0,0
128035,-125,4,2,2,5,0,0
128110,-125,4,2,2,40,0,0
129310,-125,4,2,2,50,0,0
131110,-100,4,2,2,50,0,0
131635,-100,4,2,2,5,0,0
131710,-125,4,2,2,50,0,0
135910,-100,4,2,2,50,0,0
136435,-100,4,2,2,5,0,0
136510,-125,4,2,2,50,0,0
138910,-100,4,2,2,50,0,0
140710,-83.3333333333333,4,2,2,50,0,0
141235,-83.3333333333333,4,2,2,5,0,0
141310,-90.9090909090909,4,2,2,50,0,0
143710,-83.3333333333333,4,2,2,50,0,0
146110,-76.9230769230769,4,2,2,50,0,0
147310,-76.9230769230769,4,2,2,80,0,0
150910,-55.5555555555556,4,2,1,80,0,0
151510,-66.6666666666667,4,2,1,80,0,0
153310,-55.5555555555556,4,2,1,80,0,0
153910,-66.6666666666667,4,2,1,80,0,0
155710,-55.5555555555556,4,2,1,80,0,0
156310,-66.6666666666667,4,2,1,80,0,0
158110,-55.5555555555556,4,2,1,80,0,0
158710,-66.6666666666667,4,2,1,80,0,0
159310,-58.8235294117647,4,2,1,80,0,0
160510,-55.5555555555556,4,2,1,80,0,0
161110,-62.5,4,2,1,80,0,0
162910,-55.5555555555556,4,2,1,80,0,0
163510,-66.6666666666667,4,2,1,80,0,0
164710,-62.5,4,2,1,80,0,0
165310,-55.5555555555556,4,2,1,80,0,0
166510,-62.5,4,2,1,80,0,0
167710,-55.5555555555556,4,2,1,80,0,0
168310,-50,4,2,1,80,0,0
170110,-62.5,4,2,1,80,0,0
170147,-62.5,4,2,2,5,0,0
171235,-62.5,4,2,1,5,0,0
171310,-62.5,4,2,2,70,0,0
171460,-62.5,4,2,1,70,0,0
172510,-76.9230769230769,4,2,1,70,0,0
182110,-76.9230769230769,4,2,2,70,0,0
183910,-76.9230769230769,4,2,1,70,0,0
184510,-76.9230769230769,4,2,2,70,0,0
185410,-71.4285714285714,4,2,2,70,0,0
185935,-71.4285714285714,4,2,2,5,0,0
186010,-71.4285714285714,4,2,2,60,0,0
186310,-71.4285714285714,4,2,1,60,0,0
187110,-71.4285714285714,4,2,1,65,0,0
187310,-71.4285714285714,4,2,1,70,0,0
187510,-71.4285714285714,4,2,1,75,0,0
187710,-71.4285714285714,4,2,1,80,0,0
187910,-71.4285714285714,4,2,1,85,0,0
188110,-71.4285714285714,4,2,2,90,0,0

[Colours]
Combo1 : 249,218,102
Combo2 : 139,154,254
Combo3 : 239,83,37

[HitObjects]
256,192,910,12,0,2035,0:0:0:0:
491,252,2110,5,12,0:1:0:0:
327,222,2560,1,8,0:1:0:0:
293,372,3010,1,8,0:1:0:0:
492,20,3610,6,0,P|368:110|190:166,1,330
190,160,4510,2,0,P|205:118|317:116,1,167.999994873047
313,111,5710,5,8,0:2:0:0:
325,97,5785,1,8,0:2:0:0:
333,80,5860,1,8,0:3:0:0:
332,66,5935,1,8,0:3:0:0:
325,58,6010,1,8,0:3:0:0:
317,56,6085,1,8,0:3:0:0:
311,59,6160,1,8,0:3:0:0:
306,62,6235,1,8,0:3:0:0:
303,68,6310,6,0,P|285:80|261:89,3,30,12|12|12|12,0:3|0:3|0:3|0:3,0:0:0:0:
214,119,6610,2,0,P|196:106|172:98,3,30,4|4|4|4,0:3|0:3|0:3|0:3,0:0:0:0:
289,182,6910,5,12,0:1:0:0:
44,150,7360,1,8,0:1:0:0:
219,25,7810,1,8,0:1:0:0:
193,188,7960,5,12,0:1:0:0:
0,28,8410,6,0,P|89:56|136:304,1,363.000011077881
136,296,9310,2,0,P|97:240|169:189,1,167.999994873047
180,8,10510,5,8,0:2:0:0:
111,123,10660,1,8,0:2:0:0:
331,180,10960,5,8,0:3:0:0:
364,268,11110,1,8,0:3:0:0:
224,384,11410,5,4,0:3:0:0:
258,63,11710,5,12,0:1:0:0:
132,234,12160,1,8,0:1:0:0:
32,33,12610,1,8,0:1:0:0:
137,137,12760,5,8,0:1:0:0:
14,273,12910,1,12,0:1:0:0:
10,137,13510,6,0,P|165:103|256:55,1,251.999992309571
250,48,14110,2,0,P|169:79|171:164,1,167.999994873047
241,197,14860,1,0,0:0:0:0:
251,186,15010,2,0,P|259:154|258:132,1,41.9999987182618
173,148,15310,1,0,0:0:0:0:
151,228,15910,5,8,0:2:0:0:
221,79,16060,1,8,0:2:0:0:
162,243,16210,1,8,0:2:0:0:
237,71,16360,1,8,0:2:0:0:
48,329,16510,6,0,P|146:347|289:389,1,215.999993408203,14|0,0:1|0:0,0:0:0:0:
427,316,16960,1,10,0:1:0:0:
495,265,17110,2,0,P|497:206|450:156,1,90.0000034332277,8|0,0:2|0:0,0:0:0:0:
298,216,17410,1,2,0:0:0:0:
194,151,17560,1,2,0:0:0:0:
326,12,17710,6,0,P|317:68|311:135,1,90.0000034332277,10|0,0:1|0:0,0:0:0:0:
385,183,18010,2,0,P|390:129|398:75,1,90.0000034332277,2|0,0:3|0:0,0:0:0:0:
245,5,18310,2,0,B|146:38|183:83|77:112,1,180.000006866455,10|0,0:2|0:0,0:0:0:0:
383,0,18910,6,0,P|463:34|446:159,1,215.999993408203,10|0,0:1|0:0,0:0:0:0:
447,149,19360,1,0,0:0:0:0:
326,273,19510,2,0,P|314:327|301:387,1,90.0000034332277,10|0,0:2|0:0,0:0:0:0:
428,324,19810,2,0,P|416:271|404:218,1,90.0000034332277
254,63,20110,5,10,0:1:0:0:
317,29,20260,1,2,0:0:0:0:
383,77,20410,1,2,0:2:0:0:
442,33,20560,1,2,0:0:0:0:
205,140,20710,6,0,P|135:150|88:158,1,90.0000034332277,8|0,0:2|0:0,0:0:0:0:
319,198,21010,5,8,0:2:0:0:
148,70,21160,1,8,0:2:0:0:
0,248,21310,6,0,P|105:283|150:410,1,215.999993408203,14|0,0:1|0:0,0:0:0:0:
337,384,21760,1,10,0:1:0:0:
365,311,21910,2,0,P|379:255|399:202,1,90.0000034332277,8|0,0:2|0:0,0:0:0:0:
243,131,22210,1,2,0:0:0:0:
274,236,22360,1,2,0:0:0:0:
133,177,22510,6,0,P|66:156|15:145,1,90.0000034332277,10|0,0:1|0:0,0:0:0:0:
3,73,22810,2,0,P|56:80|108:93,1,90.0000034332277,2|0,0:3|0:0,0:0:0:0:
221,309,23110,2,0,P|234:193|246:108,1,180.000006866455,10|0,0:2|0:0,0:0:0:0:
483,13,23710,6,0,P|404:37|413:163,1,215.999993408203,10|2,0:1|0:3,0:0:0:0:
416,160,24160,1,2,0:3:0:0:
391,368,24310,2,0,P|369:310|338:273,1,90.0000034332277,10|0,0:2|0:0,0:0:0:0:
340,211,24610,2,0,P|278:201|231:209,1,90.0000034332277,2|0,0:3|0:0,0:0:0:0:
109,287,24910,6,0,P|148:238|164:193,1,102.000001945496,10|0,0:1|0:0,0:0:0:0:
157,25,25210,2,0,P|178:83|210:119,1,102.000001945496,2|0,0:3|0:0,0:0:0:0:
295,51,25510,5,8,0:2:0:0:
161,203,25660,1,8,0:2:0:0:
285,297,25810,1,8,0:3:0:0:
253,214,25960,1,4,0:3:0:0:
512,213,26110,6,0,P|426:185|268:125,1,215.999993408203,14|0,0:1|0:0,0:0:0:0:
198,37,26560,1,10,0:1:0:0:
114,59,26710,2,0,P|62:69|12:67,1,90.0000034332277,8|0,0:2|0:0,0:0:0:0:
53,218,27010,1,2,0:0:0:0:
172,123,27160,1,2,0:0:0:0:
327,200,27310,6,0,P|329:268|325:391,1,180.000006866455,10|0,0:1|0:0,0:0:0:0:
317,381,27760,1,0,0:0:0:0:
136,257,27910,2,0,B|64:296|83:337|9:387,1,180.000006866455,10|2,0:2|0:3,0:0:0:0:
0,12,28510,6,0,P|46:51|192:23,1,215.999993408203,10|0,0:1|0:0,0:0:0:0:
197,11,28960,1,0,0:0:0:0:
320,142,29110,2,0,P|264:152|231:195,1,90.0000034332277,10|0,0:2|0:0,0:0:0:0:
164,137,29410,2,0,P|144:190|165:240,1,90.0000034332277
330,229,29710,5,10,0:1:0:0:
414,255,29860,1,2,0:0:0:0:
418,338,30010,1,2,0:0:0:0:
349,382,30160,1,2,0:0:0:0:
395,177,30310,6,0,P|412:126|426:83,1,90.0000034332277,8|0,0:2|0:0,0:0:0:0:
246,112,30610,5,8,0:2:0:0:
346,304,30760,1,8,0:2:0:0:
472,18,30910,5,14,0:1:0:0:
228,196,31360,1,10,0:1:0:0:
226,274,31510,2,0,P|232:340|238:391,1,90.0000034332277,8|0,0:2|0:0,0:0:0:0:
80,384,31810,1,2,0:2:0:0:
0,235,31960,1,2,0:0:0:0:
144,86,32110,6,0,P|126:149|107:204,1,90.0000034332277,10|0,0:1|0:0,0:0:0:0:
328,236,32410,2,0,P|314:193|303:149,1,90.0000034332277,2|0,0:3|0:0,0:0:0:0:
71,36,32710,2,0,P|145:-3|218:26,1,135.000005149841,10|0,0:2|0:0,0:0:0:0:
243,57,33010,1,2,0:3:0:0:
356,18,33160,1,0,3:0:0:0:
460,282,33310,6,0,P|496:231|422:106,1,215.999993408203,10|0,0:1|3:0,0:0:0:0:
426,97,33760,1,0,0:0:0:0:
229,120,33910,2,0,P|296:150|397:208,1,180.000006866455,10|2,0:2|0:3,0:0:0:0:
455,292,34360,1,2,0:3:0:0:
239,357,34510,5,10,0:2:0:0:
239,357,34547,2,0,P|226:292|195:195,1,157.500006008148,8|0,0:2|0:0,0:0:0:0:
73,102,34960,2,0,P|126:124|162:143,1,90.0000034332277,8|0,0:2|0:0,0:0:0:0:
299,217,35260,5,8,0:2:0:0:
146,345,35410,1,8,0:2:0:0:
257,86,35560,1,8,0:2:0:0:
354,383,35710,5,8,0:1:0:0:
207,283,36160,1,8,0:1:0:0:
43,359,36610,1,8,0:1:0:0:
157,129,36910,5,8,0:2:0:0:
150,171,36985,1,8,0:2:0:0:
129,204,37060,1,8,0:3:0:0:
101,226,37135,1,8,0:3:0:0:
76,233,37210,1,8,0:3:0:0:
55,231,37285,1,8,0:3:0:0:
39,223,37360,1,8,0:3:0:0:
30,213,37435,1,8,0:3:0:0:
25,203,37510,5,12,0:3:0:0:
34,204,37585,1,12,0:3:0:0:
46,207,37660,1,12,0:3:0:0:
58,206,37735,1,12,0:3:0:0:
67,204,37810,2,0,P|62:183|51:157,3,45.0000017166138,4|4|4|4,0:3|0:3|0:3|0:3,0:0:0:0:
0,296,38110,5,12,0:1:0:0:
183,73,38560,1,8,0:1:0:0:
456,138,39010,1,8,0:1:0:0:
223,0,39160,5,8,0:1:0:0:
305,216,39310,2,0,B|368:251|441:193|400:94|274:110|301:202|273:230|215:255,1,314.999990386963,12|0,0:1|0:0,0:0:0:0:
152,222,40510,5,8,0:2:0:0:
305,367,40660,1,8,0:2:0:0:
402,325,40810,5,8,0:3:0:0:
512,298,40960,1,8,0:3:0:0:
471,383,41110,5,12,0:3:0:0:
421,239,41260,1,12,0:3:0:0:
471,166,41410,5,4,0:3:0:0:
490,92,41560,1,4,0:3:0:0:
406,110,41710,5,14,0:1:0:0:
163,153,42160,1,10,0:1:0:0:
77,129,42310,2,0,L|169:147,1,77.9999964294435,10|0,0:1|0:0,0:0:0:0:
262,202,42610,1,10,0:1:0:0:
316,132,42760,1,2,0:0:0:0:
239,25,42910,2,0,P|191:3|157:0,1,77.9999964294435,4|8,0:3|0:3,0:0:0:0:
51,65,43210,2,0,P|55:117|70:148,1,77.9999964294435,0|12,0:0|0:3,0:0:0:0:
151,292,43510,6,0,P|234:194|460:152,1,357.000006809235,8|0,0:1|0:0,0:0:0:0:
462,163,44110,6,0,P|448:115|435:64,2,77.9999964294435,10|0|0,0:1|0:0|0:0,0:0:0:0:
414,327,44560,1,10,0:1:0:0:
500,373,44710,2,0,P|457:354|412:329,1,77.9999964294435,10|0,0:1|0:0,0:0:0:0:
291,276,45010,1,10,0:1:0:0:
212,344,45160,1,2,0:0:0:0:
122,258,45310,2,0,P|118:201|113:147,1,77.9999964294435,4|8,0:3|0:3,0:0:0:0:
221,117,45610,2,0,P|216:167|212:218,1,77.9999964294435,0|12,0:0|0:3,0:0:0:0:
420,169,45910,5,10,0:1:0:0:
307,198,46060,1,2,0:0:0:0:
374,307,46210,5,6,0:3:0:0:
454,341,46360,1,6,0:3:0:0:
269,384,46510,6,0,P|240:320|217:279,2,83.9999974365235,10|0|0,0:1|0:0|0:0,0:0:0:0:
124,180,46960,1,10,0:1:0:0:
92,90,47110,2,0,P|103:147|119:209,1,83.9999974365235,10|0,0:1|0:0,0:0:0:0:
10,341,47410,1,10,0:1:0:0:
110,259,47560,1,2,0:0:0:0:
257,292,47710,1,4,0:3:0:0:
296,227,47860,2,0,P|308:173|288:124,1,83.9999974365235,8|0,0:3|0:0,0:0:0:0:
289,142,48160,1,12,0:3:0:0:
512,0,48310,6,0,P|321:108|188:149,1,357.000006809235,8|2,0:1|0:0,0:0:0:0:
111,125,48910,6,0,P|49:102|-2:88,1,90.0000034332277,10|0,0:1|0:0,0:0:0:0:
14,96,49210,1,0,0:0:0:0:
218,43,49360,1,10,0:1:0:0:
315,16,49510,2,0,P|248:29|191:46,1,90.0000034332277,10|0,0:1|0:0,0:0:0:0:
1,179,49810,1,10,0:1:0:0:
265,364,50072,5,0,0:0:0:0:
265,364,50110,1,8,0:1:0:0:
223,228,50310,1,8,0:1:0:0:
401,121,50510,1,8,0:1:0:0:
474,310,50710,6,0,L|451:301,1,22.5000008583069,8|8,0:1|0:1,0:0:0:0:
369,269,51010,1,8,0:1:0:0:
0,384,51310,5,14,0:1:0:0:
319,146,51760,1,10,0:1:0:0:
467,233,51910,2,0,P|395:203|341:174,1,96,10|0,0:1|0:0,0:0:0:0:
190,94,52210,1,10,0:1:0:0:
299,44,52360,1,2,0:0:0:0:
96,0,52510,2,0,P|91:68|64:214,1,192,4|0,0:3|0:0,0:0:0:0:
59,199,52960,1,12,0:3:0:0:
343,267,53110,6,0,P|257:292|227:347,1,144,8|0,0:1|0:0,0:0:0:0:
223,351,53410,5,4,0:3:0:0:
248,331,53485,1,4,0:3:0:0:
267,292,53560,1,4,0:3:0:0:
269,235,53635,1,4,0:3:0:0:
225,174,53710,6,0,P|163:164|110:164,2,96,10|0|0,0:1|0:0|0:0,0:0:0:0:
377,33,54160,1,10,0:1:0:0:
512,121,54310,2,0,P|464:116|417:106,1,96,10|0,0:1|0:0,0:0:0:0:
252,8,54610,1,10,0:1:0:0:
331,138,54760,1,2,0:0:0:0:
264,326,54910,2,0,P|244:269|229:236,2,96,4|8|0,0:3|0:3|0:0,0:0:0:0:
504,255,55360,1,12,0:3:0:0:
480,384,55510,1,10,0:1:0:0:
352,210,55660,1,2,0:0:0:0:
213,384,55810,1,4,0:3:0:0:
179,373,55885,1,4,0:3:0:0:
149,366,55960,1,4,0:3:0:0:
120,357,56035,1,4,0:3:0:0:
89,348,56110,6,0,P|71:297|52:253,2,96,10|0|0,0:1|0:0|0:0,0:0:0:0:
225,175,56560,1,10,0:1:0:0:
316,32,56710,2,0,P|272:85|255:116,1,96,10|0,0:1|0:0,0:0:0:0:
307,352,57010,1,10,0:1:0:0:
187,260,57160,1,2,0:0:0:0:
359,192,57310,2,0,P|414:172|465:159,1,96,4|8,0:3|0:3,0:0:0:0:
176,84,57610,2,0,P|121:64|70:51,1,96,0|12,0:0|0:3,0:0:0:0:
352,210,57910,6,0,P|363:141|315:90,1,144,8|0,0:1|0:0,0:0:0:0:
273,93,58210,5,4,0:3:0:0:
231,134,58285,1,4,0:3:0:0:
216,201,58360,1,4,0:3:0:0:
240,270,58435,1,4,0:3:0:0:
309,308,58510,5,10,0:1:0:0:
470,257,58660,2,0,P|410:274|372:291,1,96
137,369,58960,1,10,0:1:0:0:
61,211,59110,2,0,P|86:265|108:317,1,96,10|0,0:1|0:0,0:0:0:0:
294,166,59410,2,0,P|313:121|333:78,1,96,10|0,0:1|0:0,0:0:0:0:
55,27,59710,5,8,0:1:0:0:
55,27,59747,1,8,0:1:0:0:
140,188,59910,1,8,0:1:0:0:
424,57,60110,1,8,0:1:0:0:
207,32,60310,6,0,L|205:9,1,24,8|8,0:1|0:1,0:0:0:0:
216,136,60610,1,8,0:1:0:0:
63,384,60910,5,14,0:1:0:0:
337,127,61360,1,10,0:1:0:0:
386,189,61510,2,0,P|403:246|424:316,1,96,10|0,0:1|0:0,0:0:0:0:
298,369,61810,1,10,0:1:0:0:
174,294,61960,1,2,0:0:0:0:
277,181,62110,6,0,P|269:245|259:303,1,96,4|8,0:3|0:3,0:0:0:0:
485,206,62410,2,0,P|477:158|471:110,1,96,0|12,0:0|0:3,0:0:0:0:
278,1,62710,6,0,P|212:47|23:289,1,377.999988464356,8|0,0:1|0:0,0:0:0:0:
1,348,63310,5,10,0:1:0:0:
37,211,63460,1,2,0:0:0:0:
143,295,63610,1,2,0:0:0:0:
254,150,63760,1,10,0:1:0:0:
137,89,63910,2,0,P|93:68|48:51,1,96,10|0,0:1|0:0,0:0:0:0:
147,204,64210,1,10,0:1:0:0:
258,64,64360,1,2,0:0:0:0:
352,182,64510,5,4,0:3:0:0:
411,134,64660,1,8,0:3:0:0:
339,107,64810,1,0,0:0:0:0:
319,255,64960,1,12,0:3:0:0:
490,152,65110,5,10,0:1:0:0:
248,195,65260,1,2,0:0:0:0:
443,331,65410,1,6,0:3:0:0:
329,368,65560,1,6,0:3:0:0:
131,304,65710,5,10,0:1:0:0:
91,226,65860,2,0,P|71:170|54:129,1,96
217,17,66160,1,10,0:1:0:0:
357,41,66310,1,10,0:1:0:0:
174,89,66460,1,2,0:0:0:0:
417,217,66610,5,10,0:1:0:0:
249,140,66760,1,2,0:0:0:0:
233,234,66910,2,0,P|182:262|122:306,1,96,4|8,0:3|0:3,0:0:0:0:
0,89,67210,2,0,P|51:117|111:161,1,96,0|12,0:0|0:3,0:0:0:0:
268,373,67510,6,0,P|326:341|442:306,1,144,8|0,0:1|0:0,0:0:0:0:
482,306,67810,1,4,0:3:0:0:
451,371,67960,1,4,0:3:0:0:
338,146,68110,5,10,0:1:0:0:
494,204,68260,1,2,0:0:0:0:
466,45,68410,1,2,0:0:0:0:
194,237,68560,5,10,0:1:0:0:
264,27,68710,1,10,0:1:0:0:
41,91,68860,1,2,0:0:0:0:
4,15,69010,5,10,0:1:0:0:
235,167,69160,1,2,0:0:0:0:
24,363,69310,5,8,0:1:0:0:
24,363,69347,1,8,0:1:0:0:
169,44,69510,1,8,0:1:0:0:
406,308,69710,1,8,0:1:0:0:
179,254,69910,6,0,L|184:227,1,24,8|8,0:1|0:1,0:0:0:0:
166,326,70210,1,8,0:1:0:0:
166,326,71710,6,0,B|233:314|233:314|273:342|273:342|375:324|375:324|409:318|437:269|394:233|360:239|360:239|292:251|292:251|252:223|252:223|218:229|218:229|184:235|145:207|173:167|206:161|206:161|240:155|240:155|274:149|314:177|286:217|250:223,1,768,4|0,0:3|0:0,0:0:0:0:
23,130,76510,6,0,B|8:72|8:72|-1:39|33:1|81:16|90:54|90:54|114:145|114:145|49:225|49:225|71:320|71:320|79:354|127:378|158:334|151:302|151:302|132:209|132:209|77:178,1,768
328,134,81310,6,0,B|361:109|361:109|458:126|458:126|492:132|516:175|481:213|446:207|446:207|376:195|376:195|335:224|335:224|226:192|226:192|188:178|181:133|215:102|252:112|252:112|291:124|296:174|266:204|226:192,1,768
26,121,86110,6,0,B|57:66|57:66|73:38|124:25|140:77|124:105|124:105|77:186|77:186|75:221|75:221|36:289|36:289|21:317|37:367|88:356|104:328|104:328|152:247|152:247|154:212|154:212|174:171|145:137|103:141|89:166|89:166,1,768
123,270,90910,6,0,P|135:320|141:360,1,84,2|0,0:0|0:0,0:0:0:0:
132,366,91510,2,0,P|110:349|83:342,1,48,2|2,0:0|0:0,0:0:0:0:
0,383,92110,2,0,L|44:206,1,180,2|0,0:0|0:0,0:0:0:0:
34,175,93310,2,0,P|177:175|141:264,1,288
109,197,95710,6,0,P|147:191|197:176,1,84,2|0,0:0|0:0,0:0:0:0:
205,173,96310,2,0,P|228:199|234:221,1,48,2|2,0:0|0:0,0:0:0:0:
287,267,96910,2,0,L|262:367,1,96,2|2,0:0|0:0,0:0:0:0:
400,312,98110,2,0,P|421:208|307:262,1,288,2|0,0:0|0:0,0:0:0:0:
164,311,100510,6,0,P|205:346|223:374,1,84,2|0,0:0|0:0,0:0:0:0:
235,384,101110,2,0,P|245:353|256:333,1,48,2|2,0:0|0:0,0:0:0:0:
317,291,101710,2,0,L|496:320,1,180,2|0,0:0|0:0,0:0:0:0:
501,333,102910,2,0,P|388:282|394:243,1,180
395,230,104110,2,0,P|461:217|472:191,1,96
398,76,105310,6,0,P|347:90|313:108,1,84,2|0,0:0|0:0,0:0:0:0:
311,117,105910,2,0,P|340:133|359:136,1,48,2|2,0:0|0:0,0:0:0:0:
463,105,106510,2,0,L|473:2,1,96,2|2,0:0|0:0,0:0:0:0:
368,0,107710,2,0,B|269:25|319:81|226:106,1,180,2|0,0:0|0:0,0:0:0:0:
217,113,108910,2,0,P|173:90|218:31,1,144
361,85,110110,6,0,P|349:137|334:190,1,105,2|0,0:0|0:0,0:0:0:0:
327,200,110710,1,2,0:0:0:0:
263,255,111010,1,2,0:0:0:0:
309,307,111310,2,0,P|334:313|413:341,1,105,2|0,0:0|0:0,0:0:0:0:
424,351,111910,2,0,P|432:321|441:294,1,60,2|2,0:0|0:0,0:0:0:0:
500,233,112510,2,0,L|359:191,1,144,2|0,0:0|0:0,0:0:0:0:
373,119,113710,2,0,L|510:158,1,144
429,0,114910,6,0,P|383:17|346:40,1,90,2|2,0:0|0:0,0:0:0:0:
347,66,115510,2,0,P|391:77|409:73,1,60,2|2,0:0|0:0,0:0:0:0:
481,53,116110,1,2,0:0:0:0:
463,159,116710,2,0,P|391:174|358:184,1,105,2|0,0:0|0:0,0:0:0:0:
354,194,117310,2,0,P|321:160|228:262,1,225,2|0,0:0|0:0,0:0:0:0:
234,262,118510,2,0,P|259:235|291:306,1,144
168,382,119710,6,0,P|131:371|80:352,1,90,2|2,0:0|0:0,0:0:0:0:
52,328,120310,1,2,0:0:0:0:
22,250,120610,1,2,0:0:0:0:
85,209,120910,2,0,P|158:204|201:195,1,105,2|0,0:0|0:0,0:0:0:0:
205,187,121510,1,2,0:0:0:0:
297,214,121810,1,2,0:0:0:0:
277,144,122110,2,0,L|252:1,1,144,2|0,0:0|0:0,0:0:0:0:
178,1,123310,2,0,L|202:142,1,144
3,68,124510,6,0,P|90:115|99:124,1,105,2|0,0:0|0:0,0:0:0:0:
109,142,125110,1,2,0:0:0:0:
211,114,125410,1,2,0:0:0:0:
327,228,125710,2,0,P|301:198|297:132,1,105,2|0,0:0|0:0,0:0:0:0:
307,116,126310,2,0,P|294:153|220:217,1,125.999996154785,2|0,0:0|0:0,0:0:0:0:
154,212,126910,6,0,P|248:242|473:379,1,360,2|0,0:0|0:0,0:0:0:0:
480,384,128110,5,4,0:3:0:0:
431,136,129310,6,0,L|452:78,2,48,10|0|0,0:1|0:0|0:0,0:0:0:0:
374,184,129760,1,10,0:1:0:0:
374,184,129910,2,0,L|311:195,1,48,2|0,0:0|0:0,0:0:0:0:
441,210,130210,2,0,L|479:256,1,48,10|0,0:1|0:0,0:0:0:0:
446,331,130510,2,0,L|380:249,1,96,2|2,0:0|0:0,0:0:0:0:
178,256,131110,6,0,P|241:197|295:77,1,210,8|0,0:3|0:0,0:0:0:0:
315,71,131710,6,0,L|300:22,2,48,10|0|0,0:1|0:0|0:0,0:0:0:0:
412,138,132160,1,10,0:1:0:0:
412,138,132310,2,0,L|359:121,1,48,2|0,0:0|0:0,0:0:0:0:
292,142,132610,2,0,L|258:176,1,48,10|2,0:1|0:0,0:0:0:0:
165,266,132910,2,0,L|200:231,2,48,2|8|0,0:0|0:1|0:0,0:0:0:0:
47,200,133360,1,2,0:0:0:0:
47,200,133510,2,0,L|103:217,1,48,10|0,0:3|0:0,0:0:0:0:
156,126,133810,2,0,L|100:143,1,48,2|0,0:0|0:0,0:0:0:0:
264,215,134110,6,0,L|239:160,2,48,10|0|0,0:1|0:0|0:0,0:0:0:0:
230,333,134560,1,10,0:1:0:0:
230,333,134710,2,0,L|257:293,1,48,2|0,0:0|0:0,0:0:0:0:
375,265,135010,2,0,L|327:260,1,48,10|2,0:1|0:0,0:0:0:0:
192,250,135310,2,0,L|76:239,1,96,2|2,0:0|0:0,0:0:0:0:
0,384,135910,6,0,P|84:345|217:350,1,210,8|0,0:3|0:0,0:0:0:0:
210,335,136510,6,0,L|267:325,2,48,10|0|0,0:1|0:0|0:0,0:0:0:0:
329,226,136960,1,10,0:1:0:0:
329,226,137110,2,0,L|309:280,1,48,2|2,0:0|0:0,0:0:0:0:
363,384,137410,2,0,L|325:339,1,48,10|0,0:1|0:0,0:0:0:0:
241,268,137710,5,8,0:3:0:0:
151,215,137910,1,8,0:3:0:0:
189,126,138110,1,8,0:3:0:0:
117,112,138310,5,8,0:1:0:0:
263,142,138610,1,8,0:3:0:0:
61,193,138910,6,0,L|6:147,2,60,10|0|0,0:1|0:0|0:0,0:0:0:0:
69,331,139360,1,10,0:1:0:0:
69,331,139510,2,0,L|79:271,1,60,2|0,0:0|0:0,0:0:0:0:
202,190,139810,1,10,0:1:0:0:
136,218,139960,1,2,0:0:0:0:
215,199,140110,2,0,L|280:213,1,60,2|8,0:0|0:1,0:0:0:0:
258,282,140410,2,0,L|199:269,1,60
308,384,140710,6,0,P|384:250|460:167,1,251.999992309571,8|0,0:3|0:0,0:0:0:0:
455,185,141310,6,0,L|525:211,2,66.0000020141602,10|0|0,0:1|0:0|0:0,0:0:0:0:
394,50,141760,1,10,0:1:0:0:
394,50,141910,2,0,L|409:138,1,66.0000020141602,2|0,0:0|0:0,0:0:0:0:
331,254,142210,1,10,0:1:0:0:
382,201,142360,1,2,0:0:0:0:
314,247,142510,2,0,L|221:237,2,66.0000020141602,2|8|0,0:0|0:1|0:0,0:0:0:0:
376,310,142960,1,2,0:0:0:0:
309,383,143110,5,10,0:3:0:0:
282,315,143260,1,2,0:0:0:0:
148,297,143410,1,10,0:3:0:0:
187,240,143560,1,10,0:3:0:0:
174,383,143710,6,0,L|87:363,2,71.9999978027344,10|0|0,0:1|0:0|0:0,0:0:0:0:
65,167,144160,1,10,0:1:0:0:
30,231,144310,2,0,L|53:312,1,71.9999978027344,2|0,0:0|0:0,0:0:0:0:
187,240,144610,1,10,0:1:0:0:
117,248,144760,1,2,0:0:0:0:
247,288,144910,2,0,L|334:306,1,71.9999978027344,2|8,0:0|0:1,0:0:0:0:
417,208,145210,2,0,L|333:222,1,71.9999978027344,2|0,0:0|0:0,0:0:0:0:
275,177,145510,2,0,L|295:12,1,143.999995605469,8|8,0:3|0:3,0:0:0:0:
365,31,145960,1,8,0:3:0:0:
150,69,146110,5,10,0:1:0:0:
76,84,146260,2,0,L|-35:103,1,77.9999964294435,2|0,0:0|0:0,0:0:0:0:
69,285,146560,1,10,0:1:0:0:
98,215,146710,2,0,L|133:119,1,77.9999964294435,2|0,0:0|0:0,0:0:0:0:
255,215,147010,1,10,0:1:0:0:
164,251,147160,1,2,0:0:0:0:
313,357,147310,5,8,0:3:0:0:
368,167,147510,1,8,0:3:0:0:
213,38,147710,1,8,0:3:0:0:
508,244,147910,5,8,0:1:0:0:
428,230,148210,1,8,0:3:0:0:
498,378,150910,6,0,P|365:296|244:240,1,215.999993408203,14|0,0:1|0:0,0:0:0:0:
111,182,151360,1,10,0:1:0:0:
86,106,151510,2,0,P|96:65|145:33,1,90.0000034332277,8|0,0:2|0:0,0:0:0:0:
333,6,151810,1,2,3:2:0:0:
447,62,151960,1,2,0:0:0:0:
288,102,152110,2,0,P|295:157|295:210,1,90.0000034332277,10|0,0:1|0:0,0:0:0:0:
365,262,152410,2,0,P|366:217|372:172,1,90.0000034332277,0|0,3:0|0:0,0:0:0:0:
466,309,152710,2,0,P|405:364|282:298,1,180.000006866455,10|2,0:2|0:3,0:0:0:0:
269,286,153160,1,2,0:3:0:0:
52,365,153310,6,0,P|32:258|9:153,1,215.999993408203,10|0,0:1|3:0,0:0:0:0:
27,138,153760,1,0,0:0:0:0:
239,84,153910,2,0,P|225:28|210:-24,1,90.0000034332277,10|0,0:2|0:0,0:0:0:0:
129,91,154210,2,0,P|117:134|106:178,1,90.0000034332277,2|0,0:3|0:0,0:0:0:0:
182,349,154510,5,10,0:1:0:0:
136,271,154660,1,2,0:0:0:0:
283,233,154810,1,2,3:2:0:0:
223,278,154960,1,2,0:0:0:0:
402,314,155110,6,0,P|447:333|523:377,1,90.0000034332277,8|0,0:2|0:0,0:0:0:0:
210,188,155410,5,8,0:2:0:0:
344,375,155560,1,8,0:2:0:0:
476,168,155710,6,0,P|504:101|382:13,1,215.999993408203,14|0,0:1|3:0,0:0:0:0:
167,112,156160,1,10,0:1:0:0:
79,84,156310,2,0,P|50:56|24:0,1,90.0000034332277,8|0,0:2|0:0,0:0:0:0:
355,68,156610,1,2,3:2:0:0:
164,21,156760,1,2,3:2:0:0:
253,185,156910,2,0,P|211:195|148:207,1,90.0000034332277,10|0,0:1|0:0,0:0:0:0:
142,300,157210,2,0,P|186:291|229:280,1,90.0000034332277,0|0,3:0|0:0,0:0:0:0:
396,379,157510,2,0,P|409:269|425:158,1,180.000006866455,10|2,0:2|0:3,0:0:0:0:
435,125,157960,1,2,0:3:0:0:
252,0,158110,6,0,P|231:83|295:115,1,161.999995056153,10|0,0:1|0:0,0:0:0:0:
299,111,158410,1,0,3:0:0:0:
341,35,158560,1,0,3:0:0:0:
322,287,158710,5,10,0:2:0:0:
302,366,158860,1,8,0:2:0:0:
148,158,159010,1,2,0:3:0:0:
273,206,159160,1,8,0:2:0:0:
119,342,159310,6,0,P|95:269|46:129,1,204.000003890991,10|2,0:1|0:3,0:0:0:0:
13,44,159760,1,2,0:3:0:0:
252,24,159910,5,8,0:2:0:0:
183,232,160060,1,8,0:2:0:0:
263,10,160210,1,8,0:2:0:0:
185,251,160360,1,8,0:2:0:0:
484,48,160510,6,0,P|404:52|312:180,1,215.999993408203,14|0,0:1|3:0,0:0:0:0:
194,382,160960,1,10,0:1:0:0:
265,334,161110,2,0,P|321:316|401:319,1,96,8|0,0:2|0:0,0:0:0:0:
512,217,161410,1,2,0:2:0:0:
393,148,161560,1,2,0:2:0:0:
248,176,161710,2,0,P|188:184|139:193,1,96,10|0,0:1|0:0,0:0:0:0:
124,118,162010,2,0,P|171:109|218:103,1,96,0|0,3:0|0:0,0:0:0:0:
336,3,162310,2,0,B|430:23|399:82|512:105,1,192,10|2,0:2|0:3,0:0:0:0:
501,19,162760,1,0,0:0:0:0:
324,169,162910,6,0,P|312:262|327:296,1,107.999996704102,10|0,0:1|0:0,0:0:0:0:
221,315,163210,2,0,P|295:371|332:375,1,107.999996704102,0|0,3:0|0:0,0:0:0:0:
512,276,163510,6,0,P|454:227|409:217,1,90.0000034332277,10|0,0:2|0:0,0:0:0:0:
435,117,163810,2,0,P|364:142|348:171,1,90.0000034332277,0|0,3:0|0:0,0:0:0:0:
371,366,164110,5,10,0:1:0:0:
430,233,164260,1,2,0:0:0:0:
352,279,164410,1,2,3:2:0:0:
448,323,164560,1,2,0:0:0:0:
178,384,164710,6,0,P|162:318|135:249,1,96,8|0,0:2|0:0,0:0:0:0:
188,125,165010,5,8,0:2:0:0:
74,313,165160,1,8,0:2:0:0:
14,82,165310,6,0,P|152:60|272:28,1,215.999993408203,14|0,0:1|3:0,0:0:0:0:
437,7,165760,1,10,0:1:0:0:
512,39,165910,2,0,P|513:105|511:164,1,107.999996704102,8|0,0:2|0:0,0:0:0:0:
297,261,166210,1,2,3:2:0:0:
402,125,166360,1,2,0:0:0:0:
220,101,166510,2,0,P|202:49|190:-1,1,96,10|0,0:1|0:0,0:0:0:0:
28,0,166810,1,2,0:3:0:0:
0,74,166960,1,2,0:3:0:0:
131,179,167110,6,0,P|186:212|167:336,1,192,10|0,0:2|3:0,0:0:0:0:
65,284,167560,1,8,0:2:0:0:
307,251,167710,6,0,P|377:278|547:365,1,215.999993408203,10|0,0:1|3:0,0:0:0:0:
269,176,168160,1,0,3:0:0:0:
59,384,168310,2,0,P|36:268|9:83,1,240,10|0,0:2|3:0,0:0:0:0:
12,74,168760,1,2,0:3:0:0:
325,11,168910,5,8,0:1:0:0:
129,146,169060,1,8,0:2:0:0:
392,174,169360,5,8,0:3:0:0:
512,332,169510,1,4,0:3:0:0:
204,286,169810,5,8,0:2:0:0:
139,383,169960,1,8,0:2:0:0:
397,74,170110,6,0,B|497:137|513:204|463:292|379:306|323:283|275:219|285:145|313:86|334:55|312:-19|312:-19|323:53|256:126,1,720,12|0,0:1|0:0,0:0:0:0:
208,145,171310,5,8,0:2:0:0:
170,165,171385,1,8,0:2:0:0:
126,166,171460,1,8,0:3:0:0:
83,157,171535,1,8,0:3:0:0:
46,134,171610,1,8,0:3:0:0:
24,96,171685,1,8,0:3:0:0:
24,52,171760,1,8,0:3:0:0:
52,19,171835,1,8,0:3:0:0:
105,7,171910,5,12,0:3:0:0:
99,39,171985,1,12,0:3:0:0:
86,84,172060,1,12,0:3:0:0:
79,122,172135,1,12,0:3:0:0:
50,147,172210,5,4,0:3:0:0:
53,162,172285,1,4,0:3:0:0:
56,178,172360,1,4,0:3:0:0:
60,195,172435,1,4,0:3:0:0:
10,244,172510,6,0,L|159:198,1,155.999992858887,14|0,0:1|0:0,0:0:0:0:
298,346,172960,2,0,L|148:300,1,155.999992858887,10|0,0:1|0:0,0:0:0:0:
310,364,173410,1,10,0:2:0:0:
328,384,173710,2,0,L|347:304,2,77.9999964294435,0|0|8,3:0|0:0|0:1,0:0:0:0:
481,264,174310,1,8,0:2:0:0:
410,238,174460,2,0,L|331:214,2,77.9999964294435,8|2|2,0:1|0:3|0:3,0:0:0:0:
260,265,174910,6,0,L|232:88,1,155.999992858887,10|2,0:1|0:3,0:0:0:0:
403,0,175360,2,0,L|375:177,1,155.999992858887,10|0,0:1|0:0,0:0:0:0:
227,98,175810,1,10,0:2:0:0:
218,81,176110,2,0,L|127:54,2,77.9999964294435,0|2|8,3:0|0:3|0:1,0:0:0:0:
506,154,176710,1,8,0:2:0:0:
440,191,176860,2,0,L|350:246,2,77.9999964294435,8|2|2,0:1|0:3|0:3,0:0:0:0:
325,280,177310,6,0,L|160:226,1,155.999992858887,10|0,0:1|3:0,0:0:0:0:
63,377,177760,2,0,L|211:328,1,155.999992858887,10|0,0:1|0:0,0:0:0:0:
342,269,178210,2,0,L|236:235,1,77.9999964294435,10|0,0:1|0:0,0:0:0:0:
53,11,178510,6,0,L|76:180,1,155.999992858887,10|0,0:1|3:0,0:0:0:0:
188,251,178960,2,0,L|209:96,1,155.999992858887,10|0,0:1|0:0,0:0:0:0:
67,15,179410,2,0,L|80:110,1,77.9999964294435,10|0,0:1|0:0,0:0:0:0:
281,170,179710,6,0,L|444:220,1,155.999992858887,10|0,0:1|3:0,0:0:0:0:
196,75,180160,2,0,L|345:29,1,155.999992858887,10|0,0:1|0:0,0:0:0:0:
272,182,180610,2,0,L|362:210,1,77.9999964294435,10|0,0:1|0:0,0:0:0:0:
486,384,180910,6,0,L|510:211,1,155.999992858887,10|0,0:1|3:0,0:0:0:0:
223,384,181360,2,0,L|199:211,1,155.999992858887,10|0,0:1|0:0,0:0:0:0:
424,45,181810,2,0,L|411:133,1,77.9999964294435,10|0,0:1|0:0,0:0:0:0:
131,238,182110,6,0,L|118:256,1,19.4999991073609,12|8,0:1|0:1,0:0:0:0:
223,28,182560,2,0,L|220:6,1,19.4999991073609,8|8,0:1|0:1,0:0:0:0:
345,186,183010,2,0,L|369:189,1,19.4999991073609,12|8,0:1|0:1,0:0:0:0:
15,12,183610,5,8,0:2:0:0:
157,79,183760,1,8,0:2:0:0:
61,157,183910,5,8,0:3:0:0:
18,233,184060,1,8,0:3:0:0:
108,301,184210,5,12,0:3:0:0:
143,372,184360,1,12,0:3:0:0:
143,153,184510,6,0,L|166:162,1,19.4999991073609,12|8,0:1|0:1,0:0:0:0:
439,65,184960,6,0,L|423:87,1,19.4999991073609,8|8,0:1|0:1,0:0:0:0:
390,384,185410,6,0,B|465:240|379:171|320:210|306:260|343:301,1,293.999991027832,12|0,0:1|0:0,0:0:0:0:
344,304,186010,5,8,0:2:0:0:
380,277,186085,1,8,0:2:0:0:
413,239,186160,1,8,0:2:0:0:
430,189,186235,1,8,0:2:0:0:
408,134,186310,5,8,0:3:0:0:
380,132,186385,1,8,0:3:0:0:
347,138,186460,1,8,0:3:0:0:
324,154,186535,1,8,0:3:0:0:
306,175,186610,5,12,0:3:0:0:
314,182,186685,1,12,0:3:0:0:
321,186,186760,1,12,0:3:0:0:
329,190,186835,1,12,0:3:0:0:
336,195,186910,5,12,0:3:0:0:
271,105,187110,1,12,0:3:0:0:
205,197,187310,1,12,0:3:0:0:
162,97,187510,5,12,0:3:0:0:
275,252,187710,1,12,0:3:0:0:
6,152,187910,1,12,0:3:0:0:
375,384,188110,5,8,0:1:0:0:
