osu file format v14

[General]
AudioFilename: audio.mp3
AudioLeadIn: 0
PreviewTime: 238326
Countdown: 0
SampleSet: Soft
StackLeniency: 0.7
Mode: 0
LetterboxInBreaks: 0
WidescreenStoryboard: 1

[Editor]
Bookmarks: 1700,26661,61575,100286,143801,210018,252278,262446
DistanceSpacing: 1
BeatDivisor: 4
GridSize: 32
TimelineZoom: 1.6

[Metadata]
Title:Songs Compilation
TitleUnicode:Songs Compilation
Artist:Brian The Sun
ArtistUnicode:Brian The Sun
Creator:Whats Skill
Version:Collab Marathon
Source:
Tags:BORUTO-ボルト-NARUTO NEXT GENERATIONS Sunny Side Up HEROES キャラメルパンケーキ Caramel Pancake 神曲Sunday Lonely Go! (TV Size) シュレディンガーの猫
BeatmapID:1967067
BeatmapSetID:942028

[Difficulty]
HPDrainRate:5.2
CircleSize:3.8
OverallDifficulty:9.4
ApproachRate:9.3
SliderMultiplier:1.93
SliderTickRate:1

[Events]
//Background and Video events
0,0,"ex's awful bg.jpg",0,0
//Break Periods
2,31860,210640
//Storyboard Layer 0 (Background)
//Storyboard Layer 1 (Fail)
//Storyboard Layer 2 (Pass)
//Storyboard Layer 3 (Foreground)
//Storyboard Sound Samples

[TimingPoints]
1700,300,4,2,1,45,1,0
1700,-100,4,2,1,45,0,0
26661,303.030303030303,4,2,1,45,1,0
26661,-100,4,2,1,45,0,0
61575,276.497695852535,4,2,1,45,1,0
61575,-100,4,2,1,45,0,0
100286,312.5,4,2,1,45,1,0
100286,-100,4,2,1,45,0,0
143801,315.789473684211,4,2,1,45,1,0
143801,-100,4,2,1,45,0,0
148661,315.789473684211,4,2,1,45,1,0
154951,315.789473684211,4,2,1,45,1,0
154951,-100,4,2,1,45,0,1
205473,324.324324324324,4,2,1,45,1,0
210018,294.117647058824,4,2,1,45,1,0
210018,-81.3008130081301,4,2,1,45,0,0
211782,-133.333333333333,4,2,1,45,0,0
212370,-81.3008130081301,4,2,1,45,0,1
231194,-100,4,2,1,45,0,0
240459,-133.333333333333,4,2,1,45,0,0
240532,-133.333333333333,4,2,1,5,0,0
240606,-100,4,2,1,45,0,1
249429,-100,4,2,1,45,0,0
252278,317.460317460317,4,2,1,45,1,0
252278,-100,4,2,1,45,0,0
262446,319.148936170213,4,2,1,45,1,0
262446,-100,4,2,1,45,0,0

[HitObjects]
324,54,26661,1,0,0:0:0:0:
152,98,26964,2,0,L|174:205,1,96.5
268,334,27267,1,0,0:0:0:0:
342,149,27418,1,0,0:0:0:0:
342,149,27570,2,0,P|281:118|246:118,1,96.5
116,266,27873,5,0,0:0:0:0:
276,200,28024,1,0,0:0:0:0:
76,116,28176,2,0,P|98:42|136:18,1,96.5
342,149,28479,2,0,P|361:212|336:264,1,96.5
208,276,28782,1,0,0:0:0:0:
251,115,28933,1,0,0:0:0:0:
116,266,29085,6,0,P|124:325|147:356,1,96.5
349,286,29388,1,0,0:0:0:0:
349,286,29539,2,0,P|371:235|371:188,1,96.5
225,207,29842,1,0,0:0:0:0:
385,81,29994,1,0,0:0:0:0:
385,81,30145,2,0,P|427:118|449:166,1,96.5
432,324,30448,5,0,0:0:0:0:
337,163,30600,1,0,0:0:0:0:
309,317,30751,1,0,0:0:0:0:
446,158,30903,1,0,0:0:0:0:
226,60,31054,1,0,0:0:0:0:
80,293,31509,6,0,L|97:180,1,96.5
88,45,211194,5,0,0:0:0:0:
144,30,211267,1,0,0:0:0:0:
203,39,211341,1,0,0:0:0:0:
230,63,211414,1,0,0:0:0:0:
255,73,211488,1,0,0:0:0:0:
279,72,211562,1,0,0:0:0:0:
296,65,211635,1,0,0:0:0:0:
302,55,211709,1,0,0:0:0:0:
300,48,211782,2,0,P|339:19|416:92,1,144.750005521775
175,340,212370,5,0,0:0:0:0:
175,340,212518,2,0,P|184:278|201:203,1,118.695001811142
99,190,212812,1,0,0:0:0:0:
292,212,212959,1,0,0:0:0:0:
66,262,213106,1,0,0:0:0:0:
203,117,213253,1,0,0:0:0:0:
332,318,213400,6,0,P|324:259|288:209,1,118.695001811142
176,212,213694,1,0,0:0:0:0:
358,137,213841,1,0,0:0:0:0:
226,329,213988,1,0,0:0:0:0:
296,73,214135,2,0,P|363:51|429:70,1,118.695001811142
436,134,214429,1,0,0:0:0:0:
276,172,214576,1,0,0:0:0:0:
512,76,214723,6,0,P|502:190|404:249,1,237.390003622284
276,353,215165,1,0,0:0:0:0:
276,353,215312,2,0,P|287:285|328:227,1,118.695001811142
211,238,215606,1,0,0:0:0:0:
362,153,215753,1,0,0:0:0:0:
377,350,215900,5,0,0:0:0:0:
251,148,216047,1,0,0:0:0:0:
462,242,216194,1,0,0:0:0:0:
137,353,216341,1,0,0:0:0:0:
508,101,216488,2,0,B|412:37|394:115|272:13,1,237.390003622284
182,78,216929,1,0,0:0:0:0:
501,6,217076,6,0,P|477:70|560:90,1,118.695001811142
460,298,217370,1,0,0:0:0:0:
460,298,217518,2,0,P|468:230|486:165,1,118.695001811142
382,158,217812,1,0,0:0:0:0:
507,100,217959,1,0,0:0:0:0:
377,242,218106,1,0,0:0:0:0:
432,98,218253,6,0,P|405:52|434:-4,1,118.695001811142
293,92,218547,1,0,0:0:0:0:
506,18,218694,1,0,0:0:0:0:
281,179,218841,2,0,B|157:155|179:239|35:189,1,237.390003622284
85,117,219282,1,0,0:0:0:0:
241,290,219429,6,0,P|338:258|380:108,1,237.390003622284
291,112,219870,1,0,0:0:0:0:
474,183,220018,2,0,P|470:72|344:52,1,237.390003622284
265,30,220459,1,0,0:0:0:0:
506,12,220606,5,0,0:0:0:0:
412,312,220753,1,0,0:0:0:0:
429,7,220900,5,0,0:0:0:0:
496,353,221047,1,0,0:0:0:0:
151,165,221194,2,0,L|225:158,1,59.347500905571
273,278,221341,2,0,L|285:198,1,59.347500905571
261,89,221488,2,0,L|264:29,1,59.347500905571
157,80,221635,1,0,0:0:0:0:
492,81,221782,6,0,B|383:61|379:138|250:84,1,237.390003622284
149,283,222223,1,0,0:0:0:0:
149,283,222370,2,0,L|151:153,1,118.695001811142
76,87,222665,1,0,0:0:0:0:
283,184,222812,1,0,0:0:0:0:
41,174,222959,2,0,L|21:323,1,118.695001811142
220,79,223253,1,0,0:0:0:0:
240,343,223400,1,0,0:0:0:0:
161,19,223547,5,0,0:0:0:0:
131,241,223694,1,0,0:0:0:0:
58,35,223841,5,0,0:0:0:0:
273,256,223988,1,0,0:0:0:0:
40,207,224135,2,0,P|78:160|180:144,1,118.695001811142
250,179,224429,1,0,0:0:0:0:
14,105,224576,1,0,0:0:0:0:
408,116,224723,2,0,B|252:93,1,118.695001811142
460,200,225018,6,0,P|500:140|386:16,1,237.390003622284
291,20,225459,5,0,0:0:0:0:
420,16,225606,1,0,0:0:0:0:
363,177,225753,5,0,0:0:0:0:
364,82,225900,1,0,0:0:0:0:
286,256,226047,5,0,0:0:0:0:
285,149,226194,1,0,0:0:0:0:
205,202,226341,5,0,0:0:0:0:
363,177,226488,2,0,L|362:316,1,118.695001811142
233,356,226782,1,0,0:0:0:0:
233,356,226929,2,0,P|276:262|312:242,1,118.695001811142
205,202,227223,1,0,0:0:0:0:
484,207,227370,1,0,0:0:0:0:
159,282,227518,1,0,0:0:0:0:
159,282,227665,6,0,P|66:341|51:211,1,237.390003622284
109,81,228106,1,0,0:0:0:0:
109,81,228253,2,0,L|99:227,1,118.695001811142
15,174,228547,1,0,0:0:0:0:
210,168,228694,6,0,B|331:154|318:224|481:182,1,237.390003622284
443,71,229135,1,0,0:0:0:0:
443,71,229282,2,0,L|443:203,1,118.695001811142
333,94,229576,1,0,0:0:0:0:
508,115,229723,1,0,0:0:0:0:
341,267,229870,1,0,0:0:0:0:
341,267,230018,6,0,L|350:398,1,118.695001811142
221,273,230312,1,0,0:0:0:0:
487,277,230459,1,0,0:0:0:0:
174,348,230606,5,0,0:0:0:0:
115,351,230679,1,0,0:0:0:0:
69,315,230753,1,0,0:0:0:0:
37,264,230826,1,0,0:0:0:0:
41,244,230900,5,0,0:0:0:0:
62,219,230973,1,0,0:0:0:0:
73,171,231047,1,0,0:0:0:0:
64,113,231120,1,0,0:0:0:0:
31,39,231194,6,0,P|111:19|176:133,1,193
357,151,231635,2,0,L|258:145,1,96.5
188,227,231929,1,0,0:0:0:0:
273,57,232076,1,0,0:0:0:0:
133,296,232223,6,0,P|218:311|275:232,1,193
179,130,232665,1,0,0:0:0:0:
179,130,232812,2,0,L|190:258,1,96.5
57,213,233106,1,0,0:0:0:0:
264,155,233253,1,0,0:0:0:0:
133,296,233400,6,0,B|218:346|227:279|325:326,1,193
354,206,233841,1,0,0:0:0:0:
370,177,233988,2,0,P|411:213|406:288,1,96.5
265,231,234282,1,0,0:0:0:0:
455,108,234429,1,0,0:0:0:0:
318,332,234576,6,0,P|215:339|167:236,1,193
258,134,235018,1,0,0:0:0:0:
258,134,235165,2,0,L|266:250,1,96.5
181,184,235459,1,0,0:0:0:0:
349,165,235606,1,0,0:0:0:0:
167,275,235753,6,0,B|85:240|69:301|-31:252,1,193
21,76,236194,1,0,0:0:0:0:
52,81,236341,2,0,P|86:114|86:178,1,96.5
9,169,236635,1,0,0:0:0:0:
188,65,236782,1,0,0:0:0:0:
66,257,236929,6,0,P|135:268|196:166,1,193
282,46,237370,1,0,0:0:0:0:
282,46,237518,2,0,L|164:69,1,96.5
282,189,237812,1,0,0:0:0:0:
75,134,237959,1,0,0:0:0:0:
341,106,238106,1,0,0:0:0:0:
341,106,238400,6,0,B|451:72|421:151|547:73,1,193
443,323,238841,1,0,0:0:0:0:
443,323,238988,2,0,L|451:199,1,96.5
306,278,239282,1,0,0:0:0:0:
497,111,239429,1,0,0:0:0:0:
502,375,239576,1,0,0:0:0:0:
190,236,239723,1,0,0:0:0:0:
419,20,239870,2,0,L|410:96,3,48.25
349,163,240165,2,0,L|358:83,3,48.25
265,22,240459,6,0,L|263:62,1,36.1875013804436
271,172,240606,5,0,0:0:0:0:
102,106,240753,1,0,0:0:0:0:
383,25,240900,5,0,0:0:0:0:
151,248,241047,1,0,0:0:0:0:
168,12,241194,5,0,0:0:0:0:
245,323,241341,1,0,0:0:0:0:
36,226,241488,5,0,0:0:0:0:
273,4,241635,1,0,0:0:0:0:
140,355,241782,5,0,0:0:0:0:
168,12,241929,1,0,0:0:0:0:
360,366,242076,5,0,0:0:0:0:
81,38,242223,1,0,0:0:0:0:
50,359,242370,5,0,0:0:0:0:
305,24,242518,1,0,0:0:0:0:
200,373,242665,5,0,0:0:0:0:
230,182,242812,2,0,P|317:200|317:312,1,193
102,269,243253,1,0,0:0:0:0:
312,101,243400,2,0,P|193:88|133:171,1,193
190,247,243841,1,0,0:0:0:0:
64,198,243988,6,0,P|53:117|144:44,1,193
422,79,244429,1,0,0:0:0:0:
128,48,244576,2,0,B|232:23|217:96|332:43,1,193
376,187,245018,1,0,0:0:0:0:
72,129,245165,5,0,0:0:0:0:
398,13,245312,1,0,0:0:0:0:
331,369,245459,5,0,0:0:0:0:
398,13,245606,1,0,0:0:0:0:
95,334,245753,5,0,0:0:0:0:
489,165,245900,1,0,0:0:0:0:
36,29,246047,5,0,0:0:0:0:
503,266,246194,1,0,0:0:0:0:
9,237,246341,5,0,0:0:0:0:
342,12,246488,1,0,0:0:0:0:
400,369,246635,5,0,0:0:0:0:
507,10,246782,1,0,0:0:0:0:
224,375,246929,5,0,0:0:0:0:
102,47,247076,1,0,0:0:0:0:
468,167,247223,5,0,0:0:0:0:
100,304,247370,1,0,0:0:0:0:
276,27,247518,5,0,0:0:0:0:
310,323,247665,2,0,P|322:218|376:136,1,193
175,129,248106,5,0,0:0:0:0:
436,42,248253,1,0,0:0:0:0:
399,332,248400,5,0,0:0:0:0:
270,24,248547,1,0,0:0:0:0:
151,348,248694,5,0,0:0:0:0:
174,2,248988,5,0,0:0:0:0:
484,373,249282,6,0,P|433:316|531:321,1,193
