osu file format v14

[General]
AudioFilename: audio.mp3
AudioLeadIn: 0
PreviewTime: 51175
Countdown: 0
SampleSet: Soft
StackLeniency: 0.4
Mode: 2
LetterboxInBreaks: 0
WidescreenStoryboard: 1

[Editor]
DistanceSpacing: 1
BeatDivisor: 2
GridSize: 4
TimelineZoom: 2.4

[Metadata]
Title:Lonely Go! (TV Size)
TitleUnicode:Lonely Go! (TV Size)
Artist:Brian the Sun
ArtistUnicode:Brian the Sun
Creator:Secre
Version:Cup
Source:BORUTO-ボルト-NARUTO NEXT GENERATIONS
Tags:sasuke uchiha naruto sarada uzumaki anime opening op chickenbible japanese
BeatmapID:2124509
BeatmapSetID:1004417

[Difficulty]
HPDrainRate:2
CircleSize:2.5
OverallDifficulty:6
ApproachRate:6
SliderMultiplier:1.20000000596046
SliderTickRate:1

[Events]
//Background and Video events
0,0,"lonely gog googgo.jpg",0,0
//Break Periods
//Storyboard Layer 0 (Background)
//Storyboard Layer 1 (Fail)
//Storyboard Layer 2 (Pass)
//Storyboard Layer 3 (Foreground)
//Storyboard Layer 4 (Overlay)
//Storyboard Sound Samples

[TimingPoints]
1244,294.117647058824,4,2,1,65,1,0
2420,-100,4,2,1,35,0,0
14038,-100,4,2,1,50,0,0
18744,-100,4,2,1,55,0,0
23449,-100,4,2,1,40,0,0
28155,-100,4,2,1,65,0,0
32861,-100,4,2,1,75,0,0
51243,-100,4,2,1,65,0,0
51832,-100,4,2,1,75,0,1
70655,-100,4,2,1,75,0,0
77567,-100,4,2,1,65,0,0
79846,-100,4,2,1,35,0,0
80067,-100,4,2,1,75,0,1
88449,-100,4,2,1,75,0,1
88744,-100,4,2,1,50,0,0
89185,-100,4,2,1,40,0,0

[Colours]
Combo1 : 89,255,255
Combo2 : 255,219,72
Combo3 : 216,216,216
Combo4 : 255,81,81

[HitObjects]
256,192,1244,12,8,2126,0:3:0:0:
294,214,2420,6,0,L|427:206,1,120.000000596046,12|0,3:2|0:0,0:0:0:0:
297,137,3008,2,0,L|155:146,1,120.000000596046,0|0,0:0|0:0,0:0:0:0:
40,136,3596,6,0,L|62:275,1,120.000000596046,2|0,0:0|0:0,0:0:0:0:
196,275,4185,2,0,L|324:268,1,120.000000596046,2|0,0:0|0:0,0:0:0:0:
166,203,4773,6,0,P|163:148|227:124,1,120.000000596046,4|0,3:2|0:0,0:0:0:0:
363,229,5361,2,0,P|365:172|296:148,1,120.000000596046,2|0,0:0|0:0,0:0:0:0:
159,219,5949,6,0,P|108:205|83:129,1,120.000000596046,4|0,3:2|0:0,0:0:0:0:
159,93,6391,1,0,0:0:0:0:
236,136,6538,1,4,3:2:0:0:
236,136,6832,1,0,0:0:0:0:
396,221,7126,5,8,0:2:0:0:
251,201,7420,2,0,L|116:202,2,120.000000596046,8|8|8,0:2|0:2|0:2,0:0:0:0:
398,266,8302,5,8,0:2:0:0:
403,206,8449,1,8,0:2:0:0:
326,140,8596,1,8,0:2:0:0:
170,194,8891,1,8,0:2:0:0:
110,193,9038,1,8,0:2:0:0:
170,194,9185,1,0,0:0:0:0:
246,253,9332,6,0,P|249:198|177:165,1,120.000000596046,4|8,0:2|3:2,0:0:0:0:
131,134,9773,1,8,0:2:0:0:
275,145,10067,2,0,L|409:145,1,120.000000596046,8|8,3:2|0:2,0:0:0:0:
287,234,10655,6,0,L|156:244,1,120.000000596046,8|8,0:2|0:2,0:0:0:0:
286,155,11244,1,8,3:2:0:0:
345,154,11391,1,8,3:2:0:0:
286,155,11538,1,8,0:2:0:0:
212,221,11685,6,0,P|210:168|276:127,1,120.000000596046,8|8,3:2|3:2,0:0:0:0:
331,108,12126,1,8,0:2:0:0:
206,191,12420,2,0,L|73:198,1,120.000000596046,8|8,3:2|0:2,0:0:0:0:
216,115,13008,5,8,0:0:0:0:
276,115,13155,1,8,3:2:0:0:
216,115,13302,1,8,0:2:0:0:
78,284,13596,1,8,0:2:0:0:
67,224,13744,1,8,0:3:0:0:
129,164,13891,1,8,0:3:0:0:
193,210,14038,6,0,L|341:201,1,120.000000596046,12|0,3:2|0:0,0:0:0:0:
247,125,14479,1,8,0:2:0:0:
117,235,14773,1,8,3:2:0:0:
109,175,14920,1,0,0:2:0:0:
239,194,15214,6,0,L|372:189,1,120.000000596046,8|0,0:2|0:0,0:0:0:0:
291,125,15655,1,8,3:2:0:0:
158,266,15949,1,8,3:2:0:0:
218,266,16096,1,0,0:2:0:0:
342,123,16391,6,0,L|465:122,1,120.000000596046,8|0,0:2|0:0,0:0:0:0:
384,50,16832,1,8,3:2:0:0:
261,178,17126,1,8,3:2:0:0:
201,180,17273,1,0,0:2:0:0:
53,128,17567,6,0,L|64:261,1,120.000000596046,8|0,0:2|0:0,0:0:0:0:
128,237,18008,1,8,3:2:0:0:
270,139,18302,1,8,0:2:0:0:
330,139,18449,1,8,3:2:0:0:
185,281,18744,6,0,B|101:281|101:281|101:221,1,120.000000596046,12|0,0:2|3:2,0:0:0:0:
174,231,19185,1,8,0:2:0:0:
312,167,19479,1,8,3:2:0:0:
372,167,19626,1,0,3:2:0:0:
312,167,19773,1,8,0:2:0:0:
228,151,19920,6,0,L|231:297,1,120.000000596046,8|0,3:2|3:2,0:0:0:0:
294,275,20361,1,8,0:2:0:0:
418,241,20655,1,8,3:2:0:0:
477,243,20802,1,0,3:2:0:0:
418,241,20949,1,8,0:2:0:0:
359,167,21096,6,0,B|271:167|271:167|271:111,1,120.000000596046,8|8,3:2|3:2,0:0:0:0:
350,118,21538,1,8,0:0:0:0:
472,276,21832,1,8,3:2:0:0:
474,216,21979,1,0,3:2:0:0:
414,164,22126,1,8,0:2:0:0:
351,205,22273,1,8,3:2:0:0:
231,260,22567,5,8,3:2:0:0:
171,259,22714,1,0,0:2:0:0:
231,260,22861,1,8,3:2:0:0:
294,270,23008,1,8,0:2:0:0:
291,211,23155,1,8,0:3:0:0:
233,218,23302,1,8,0:3:0:0:
168,223,23449,6,0,P|178:166|231:141,1,120.000000596046,12|0,0:2|0:0,0:0:0:0:
307,175,23891,1,8,3:2:0:0:
400,221,24185,1,8,3:2:0:0:
340,220,24332,1,0,0:2:0:0:
184,262,24626,6,0,L|43:261,1,120.000000596046,8|0,0:0|0:0,0:0:0:0:
143,181,25067,1,8,3:2:0:0:
262,191,25361,1,8,3:2:0:0:
321,190,25508,1,0,0:2:0:0:
187,131,25802,1,8,0:2:0:0:
110,150,25949,6,0,P|46:188|40:243,2,120.000000596046,0|8|8,0:0|3:2|3:2,0:0:0:0:
238,239,26832,1,8,3:2:0:0:
376,161,27126,6,0,L|246:171,1,120.000000596046,12|0,3:2|3:2,0:0:0:0:
397,83,27714,1,8,0:3:0:0:
457,83,27861,1,8,0:3:0:0:
314,189,28155,6,0,L|181:198,1,120.000000596046,12|8,0:2|3:2,0:0:0:0:
127,161,28596,1,8,0:2:0:0:
263,130,28891,1,8,3:2:0:0:
322,129,29038,1,0,3:2:0:0:
263,130,29185,1,8,0:2:0:0:
195,198,29332,6,0,L|63:206,1,120.000000596046,8|0,3:2|3:2,0:0:0:0:
154,122,29773,1,8,0:2:0:0:
301,120,30067,1,8,3:2:0:0:
307,179,30214,1,8,3:2:0:0:
235,201,30361,1,0,0:2:0:0:
157,225,30508,6,0,P|153:172|214:137,1,120.000000596046,8|0,3:2|3:2,0:0:0:0:
281,123,30949,1,8,0:2:0:0:
435,215,31244,1,8,3:2:0:0:
495,215,31391,1,0,3:2:0:0:
435,215,31538,1,8,0:2:0:0:
355,209,31685,6,0,L|231:217,1,120.000000596046,8|8,0:2|3:2,0:0:0:0:
289,141,32126,1,8,0:2:0:0:
409,132,32420,1,8,0:2:0:0:
468,133,32567,1,8,0:3:0:0:
409,132,32714,1,8,0:3:0:0:
346,139,32861,6,0,L|226:137,1,120.000000596046,12|8,3:2|3:2,0:0:0:0:
291,65,33302,1,8,0:1:0:0:
418,150,33596,1,8,0:1:0:0:
291,65,33891,1,8,0:1:0:0:
428,208,34185,5,8,0:1:0:0:
368,208,34332,1,8,3:2:0:0:
222,283,34626,2,0,L|214:137,1,120.000000596046,8|8,3:2|3:2,0:0:0:0:
346,194,35214,6,0,L|473:190,1,120.000000596046,12|8,3:2|3:2,0:0:0:0:
391,117,35655,1,8,0:1:0:0:
260,207,35949,1,8,0:1:0:0:
391,117,36244,1,8,0:1:0:0:
260,207,36538,5,8,0:2:0:0:
200,208,36685,1,8,3:2:0:0:
64,135,36979,2,0,L|43:280,1,120.000000596046,8|8,3:2|3:2,0:0:0:0:
167,207,37567,6,0,L|312:202,1,120.000000596046,12|8,3:2|3:2,0:0:0:0:
228,136,38008,1,8,0:2:0:0:
112,154,38302,1,8,0:2:0:0:
22,150,38596,1,8,0:2:0:0:
22,150,38744,1,8,3:2:0:0:
98,228,38891,5,8,0:2:0:0:
240,242,39185,1,8,0:2:0:0:
299,239,39332,1,8,3:2:0:0:
364,193,39479,1,8,0:2:0:0:
304,193,39626,1,8,0:0:0:0:
164,279,39920,6,0,L|154:142,1,120.000000596046,12|8,3:2|3:2,0:0:0:0:
223,126,40361,1,8,0:1:0:0:
351,161,40655,1,8,0:1:0:0:
223,126,40949,1,8,0:1:0:0:
92,209,41244,5,8,0:2:0:0:
223,126,41538,1,8,0:2:0:0:
358,185,41832,1,8,0:2:0:0:
363,244,41979,1,8,0:3:0:0:
212,204,42273,6,0,L|83:210,1,120.000000596046,12|8,0:2|3:2,0:0:0:0:
170,131,42714,1,8,0:1:0:0:
317,130,43008,1,8,0:1:0:0:
447,163,43302,1,8,0:1:0:0:
317,130,43596,5,8,0:2:0:0:
257,132,43744,1,8,3:2:0:0:
114,252,44038,2,0,P|111:195|177:168,1,120.000000596046,8|8,3:2|3:2,0:0:0:0:
238,155,44479,1,8,0:2:0:0:
319,186,44626,6,0,L|452:184,1,120.000000596046,12|8,3:2|3:2,0:0:0:0:
363,110,45067,1,8,0:2:0:0:
234,134,45361,1,8,0:2:0:0:
104,136,45655,1,8,0:2:0:0:
182,187,45802,5,8,3:2:0:0:
241,187,45949,1,8,0:2:0:0:
369,171,46244,1,8,0:2:0:0:
450,217,46391,2,0,P|448:158|376:133,1,120.000000596046,8|8,3:2|3:2,0:0:0:0:
256,212,46979,6,0,L|109:209,1,120.000000596046,12|8,3:2|3:2,0:0:0:0:
201,130,47420,1,8,0:2:0:0:
328,155,47714,1,8,3:2:0:0:
331,214,47861,1,8,3:2:0:0:
255,250,48008,1,8,0:2:0:0:
122,163,48302,5,8,3:2:0:0:
118,222,48449,1,8,3:2:0:0:
195,258,48596,1,8,0:2:0:0:
351,202,48891,1,8,3:2:0:0:
410,202,49038,1,8,3:2:0:0:
351,202,49185,1,8,0:2:0:0:
269,150,49332,6,0,L|125:156,1,120.000000596046,12|8,3:2|3:2,0:0:0:0:
222,81,49773,1,8,0:2:0:0:
376,137,50067,1,8,0:2:0:0:
379,196,50214,1,8,3:2:0:0:
303,227,50361,1,8,0:2:0:0:
243,229,50508,1,8,3:2:0:0:
161,263,50655,6,0,P|164:192|302:113,1,240.000001192092,8|10,0:2|3:2,0:0:0:0:
63,266,51832,6,0,L|53:128,1,120.000000596046,12|8,3:2|0:2,0:0:0:0:
197,193,52420,1,8,3:2:0:0:
256,194,52567,1,8,3:2:0:0:
316,196,52714,1,8,0:2:0:0:
447,128,53008,6,0,L|455:273,1,120.000000596046,8|8,3:2|0:2,0:0:0:0:
302,245,53596,2,0,L|436:240,1,120.000000596046,8|8,3:2|0:2,0:0:0:0:
270,151,54185,6,0,L|147:157,1,120.000000596046,8|8,3:2|0:2,0:0:0:0:
221,82,54626,1,0,0:0:0:0:
301,73,54773,2,0,L|309:210,1,120.000000596046,8|8,3:2|0:2,0:0:0:0:
157,260,55361,6,0,L|305:263,1,120.000000596046,8|8,3:2|0:2,0:0:0:0:
347,179,55802,1,0,0:2:0:0:
279,186,55949,1,8,3:2:0:0:
219,186,56096,1,8,3:2:0:0:
279,186,56244,1,8,0:2:0:0:
436,233,56538,6,0,L|313:241,3,120.000000596046,8|8|8|8,3:2|0:2|3:2|0:2,0:0:0:0:
158,229,57714,6,0,L|147:93,1,120.000000596046,8|8,3:2|0:2,0:0:0:0:
293,141,58302,2,0,L|419:142,1,120.000000596046,8|8,3:2|0:2,0:0:0:0:
260,287,58891,6,0,P|256:242|332:202,1,120.000000596046,8|8,3:2|0:0,0:0:0:0:
378,181,59332,1,0,0:2:0:0:
450,229,59479,1,8,3:2:0:0:
452,288,59626,1,8,3:2:0:0:
378,181,59773,1,8,0:2:0:0:
231,244,60067,5,8,3:2:0:0:
171,244,60214,1,8,3:2:0:0:
111,245,60361,1,8,0:2:0:0:
266,137,60655,2,0,P|339:117|376:22,1,180.000000894069,8|8,0:2|0:2,0:0:0:0:
308,223,61244,6,0,L|163:226,1,120.000000596046,8|10,3:2|0:2,0:0:0:0:
317,144,61832,1,8,3:2:0:0:
377,144,61979,1,8,3:2:0:0:
317,144,62126,1,8,0:0:0:0:
245,209,62273,6,0,L|118:215,1,120.000000596046,0|8,0:0|3:2,0:0:0:0:
276,126,62861,1,0,0:2:0:0:
336,126,63008,1,8,3:2:0:0:
276,126,63155,1,8,3:2:0:0:
127,289,63449,6,0,L|120:142,1,120.000000596046,8|8,0:2|0:2,0:0:0:0:
198,140,63891,1,8,0:3:0:0:
334,157,64185,1,8,0:3:0:0:
338,216,64332,1,8,0:3:0:0:
258,254,64479,6,0,L|125:266,1,120.000000596046,12|0,0:2|0:0,0:0:0:0:
281,124,65067,1,8,0:2:0:0:
431,127,65361,1,8,3:2:0:0:
433,186,65508,1,8,3:2:0:0:
287,240,65802,6,0,L|156:245,1,120.000000596046,8|8,0:2|0:2,0:0:0:0:
226,162,66244,1,8,0:2:0:0:
299,111,66391,2,0,L|307:245,1,120.000000596046,8|8,0:2|0:0,0:0:0:0:
226,162,66832,1,8,0:2:0:0:
166,169,66979,1,0,0:0:0:0:
226,162,67126,5,8,0:0:0:0:
381,222,67420,1,8,0:2:0:0:
440,229,67567,1,8,0:2:0:0:
381,222,67714,1,0,0:0:0:0:
219,178,68008,1,8,0:2:0:0:
224,237,68155,1,0,0:2:0:0:
296,228,68302,5,8,3:2:0:0:
355,226,68449,1,8,3:2:0:0:
296,228,68596,1,8,0:2:0:0:
146,281,68891,1,8,0:3:0:0:
138,221,69038,1,8,0:3:0:0:
214,170,69185,1,8,0:3:0:0:
273,170,69332,1,8,0:3:0:0:
350,202,69479,6,0,P|351:146|283:120,1,120.000000596046,8|12,0:2|0:2,0:0:0:0:
146,293,70067,2,0,L|136:164,1,120.000000596046,8|8,0:2|0:2,0:0:0:0:
285,214,70655,6,0,L|408:217,1,120.000000596046,8|8,3:2|0:2,0:0:0:0:
256,138,71244,1,8,3:2:0:0:
196,138,71391,1,8,3:2:0:0:
256,138,71538,1,8,0:2:0:0:
331,128,71685,6,0,L|338:262,1,120.000000596046,8|8,3:2|3:2,0:0:0:0:
249,273,72126,1,8,0:2:0:0:
107,188,72420,1,8,3:2:0:0:
47,187,72567,1,8,3:2:0:0:
107,188,72714,1,8,0:2:0:0:
186,170,72861,6,0,L|326:174,1,120.000000596046,8|8,3:2|3:2,0:0:0:0:
248,99,73302,1,8,0:2:0:0:
385,172,73596,1,8,3:2:0:0:
444,173,73744,1,8,3:2:0:0:
385,172,73891,1,8,0:2:0:0:
308,162,74038,6,0,L|174:162,1,120.000000596046,8|8,3:2|3:2,0:0:0:0:
249,96,74479,1,8,0:2:0:0:
401,258,74773,1,8,3:2:0:0:
460,258,74920,1,8,3:2:0:0:
401,258,75067,1,8,0:2:0:0:
324,295,75214,6,0,L|319:175,1,120.000000596046,8|8,3:2|3:2,0:0:0:0:
391,143,75655,1,8,0:2:0:0:
251,187,75949,1,8,3:2:0:0:
191,190,76096,1,8,3:2:0:0:
251,187,76244,1,8,0:2:0:0:
331,139,76391,6,0,L|336:287,1,120.000000596046,8|8,3:2|3:2,0:0:0:0:
256,299,76832,1,8,0:2:0:0:
112,272,77126,1,8,3:2:0:0:
52,276,77273,1,8,3:2:0:0:
112,272,77420,1,8,0:2:0:0:
186,262,77567,1,8,0:2:0:0:
340,147,77861,6,0,L|345:281,1,120.000000596046,8|8,0:2|3:2,0:0:0:0:
267,273,78302,1,8,0:2:0:0:
126,225,78596,1,8,3:2:0:0:
51,265,78744,6,0,L|47:141,1,120.000000596046,8|8,0:2|3:2,0:0:0:0:
196,221,79332,2,0,L|327:221,1,120.000000596046,8|8,0:2|0:0,0:0:0:0:
316,221,79773,1,8,0:2:0:0:
173,298,80067,6,0,L|312:296,1,120.000000596046,8|8,0:2|0:2,0:0:0:0:
232,227,80508,2,0,P|165:205|136:88,1,180.000000894069,2|8,3:2|0:2,0:0:0:0:
207,141,81096,6,0,L|393:142,1,180.000000894069,2|8,3:2|0:2,0:0:0:0:
324,75,81685,1,8,3:2:0:0:
135,244,82126,1,8,0:2:0:0:
128,184,82273,1,8,3:2:0:0:
196,138,82420,5,2,0:2:0:0:
337,223,82714,1,8,0:2:0:0:
396,222,82861,1,8,3:2:0:0:
337,223,83008,1,8,0:2:0:0:
185,217,83302,1,8,0:2:0:0:
177,157,83449,1,8,3:2:0:0:
255,129,83596,6,0,L|376:132,1,120.000000596046,8|8,0:2|0:2,0:0:0:0:
311,232,84038,2,0,L|181:235,1,120.000000596046,8|8,3:2|0:0,0:0:0:0:
53,315,84626,6,0,P|48:244|132:178,1,180.000000894069,8|8,3:2|0:2,0:0:0:0:
191,235,85214,2,0,L|373:235,1,180.000000894069,8|8,3:2|0:2,0:0:0:0:
311,169,85802,6,0,L|120:173,1,180.000000894069,8|8,3:2|0:2,0:0:0:0:
195,102,86391,1,8,3:2:0:0:
376,172,86832,1,8,0:2:0:0:
386,231,86979,1,2,0:0:0:0:
314,250,87126,5,8,0:2:0:0:
160,273,87420,1,8,0:2:0:0:
156,213,87567,1,8,3:2:0:0:
229,195,87714,1,8,0:2:0:0:
288,194,87861,1,8,3:3:0:0:
229,195,88008,1,8,0:3:0:0:
151,164,88155,5,8,3:2:0:0:
16,187,88449,1,8,3:2:0:0:
173,212,88744,2,0,P|235:191|275:80,1,180.000000894069,8|0,3:2|0:0,0:0:0:0:
