osu file format v14

[General]
AudioFilename: audio.mp3
AudioLeadIn: 0
PreviewTime: 51211
Countdown: 0
SampleSet: None
StackLeniency: 0.2
Mode: 0
LetterboxInBreaks: 0
WidescreenStoryboard: 1

[Editor]
Bookmarks: 32828,50623,80035,84740,88710,89739
DistanceSpacing: 0.5
BeatDivisor: 4
GridSize: 8
TimelineZoom: 4.099999

[Metadata]
Title:Lonely Go! (TV Size)
TitleUnicode:Lonely Go! (TV Size)
Artist:Brian The Sun
ArtistUnicode:Brian The Sun
Creator:Nice Aesthetics
Version:entsetzen's Hard Reads
Source:BORUTO-ボルト-NARUTO NEXT GENERATIONS
Tags:naruto anime opening
BeatmapID:2245651
BeatmapSetID:916731

[Difficulty]
HPDrainRate:6.3
CircleSize:2.2
OverallDifficulty:9.2
ApproachRate:8.4
SliderMultiplier:1.4
SliderTickRate:1

[Events]
//Background and Video events
0,0,"bgreading.png",0,0
//Break Periods
//Storyboard Layer 0 (Background)
//Storyboard Layer 1 (Fail)
//Storyboard Layer 2 (Pass)
//Storyboard Layer 3 (Foreground)
//Storyboard Layer 4 (Overlay)
//Storyboard Sound Samples

[TimingPoints]
34,294.117647058824,4,2,1,75,1,0
328,-133.333333333333,4,2,0,5,0,0
401,-100,4,2,99,15,0,0
475,-100,4,2,0,24,0,0
548,-100,4,2,99,32,0,0
622,-100,4,2,98,5,0,0
630,-100,4,2,0,39,0,0
695,-100,4,2,99,49,0,0
769,-100,4,2,0,56,0,0
842,-100,4,2,99,62,0,0
916,-100,4,2,0,68,0,0
989,-100,4,2,99,75,0,0
1136,-100,4,2,0,5,0,0
1210,-100,4,2,0,75,0,0
2386,-114.942528735632,4,2,0,75,0,1
2460,-114.942528735632,4,2,0,75,0,0
2681,-114.942528735632,4,2,99,5,0,0
2975,-114.942528735632,4,2,0,75,0,0
3269,-114.942528735632,4,2,99,5,0,0
3563,-114.942528735632,4,2,0,75,0,0
3857,-114.942528735632,4,2,99,5,0,0
4151,-114.942528735632,4,2,0,75,0,0
4445,-114.942528735632,4,2,99,5,0,0
4592,-114.942528735632,4,2,0,75,0,0
4739,-100,4,2,0,75,0,0
5034,-114.942528735632,4,2,99,5,0,0
5328,-100,4,2,0,75,0,0
5622,-114.942528735632,4,2,99,5,0,0
5769,-100,4,2,0,75,0,0
5916,-80,4,2,0,75,0,0
6210,-114.942528735632,4,2,99,5,0,0
6357,-80,4,2,0,75,0,0
9298,-66.6666666666667,4,2,0,75,0,0
14004,-133.333333333333,4,2,0,75,0,0
17681,-100,4,2,0,75,0,0
18710,-66.6666666666667,4,2,0,75,0,0
20107,-66.6666666666667,4,2,0,5,0,0
20181,-66.6666666666667,4,2,0,75,0,0
23857,-133.333333333333,4,2,0,75,0,0
26945,-90.9090909090909,4,2,0,75,0,0
28122,-62.5,4,2,0,75,0,0
29519,-62.5,4,2,0,5,0,0
29592,-62.5,4,2,0,75,0,0
32828,-62.5,4,2,0,75,0,1
42239,-50,4,2,0,75,0,1
46651,-50,4,2,0,75,0,0
49298,-40,4,2,0,75,0,0
51210,-33.3333333333333,4,2,0,75,0,1
51431,-33.3333333333333,4,2,0,5,0,0
51504,-33.3333333333333,4,2,0,75,0,1
51725,-33.3333333333333,4,2,0,5,0,0
51798,-47.39336492891,4,2,0,75,0,1
57681,-33.4448160535117,4,2,0,75,0,1
60622,-50,4,2,0,75,0,1
60989,-50,4,2,0,75,0,0
61063,-50,4,2,0,75,0,1
61136,-50,4,2,0,75,0,0
61210,-40,4,2,0,75,0,1
63563,-33.3333333333333,4,2,0,75,0,1
64739,-33.3333333333333,4,2,99,5,0,1
64759,-33.3333333333333,4,2,0,75,0,1
66357,-66.6666666666667,4,2,0,75,0,1
67534,-33.3333333333333,4,2,0,75,0,1
70548,-33.3333333333333,4,2,0,75,0,0
70622,-57.1428571428571,4,2,0,75,0,1
70695,-57.1428571428571,4,2,0,75,0,0
78269,-50,4,2,0,75,0,0
80034,-57.1428571428571,4,2,0,75,0,1
84592,-57.1428571428571,4,2,0,75,0,0
84739,-57.1428571428571,4,2,0,75,0,1
88122,-57.1428571428571,4,2,0,75,0,0
88710,-55.2486187845304,4,2,0,75,0,1
88857,-60.6060606060606,4,2,99,59,0,1
89004,-60.6060606060606,4,2,0,44,0,1
89151,-60.6060606060606,4,2,99,35,0,1
89298,-60.6060606060606,4,2,0,27,0,1
89445,-60.6060606060606,4,2,99,18,0,1
89592,-60.6060606060606,4,2,0,9,0,1
89739,-60.6060606060606,4,2,99,75,0,0

[HitObjects]
160,285,329,6,0,B|241:284|271:207|271:207|310:119|388:130,1,288.750011014939
394,142,1210,5,0,0:0:0:0:
394,142,1284,1,0,0:0:0:0:
394,142,1357,2,0,L|406:198,3,35
386,265,1651,2,0,L|330:277,3,35
311,328,1945,2,0,P|266:334|234:315,1,70
198,246,2239,1,0,0:0:0:0:
157,155,2386,6,0,B|275:179|256:26|371:33|371:33|313:147|365:244|365:244|372:246|372:246|365:244|365:244|256:213|166:272|166:272|165:328|213:355|213:355|246:328|241:292|241:292|202:303,1,913.500007666397
157,155,4739,6,0,P|40:29|117:189,1,490
275,134,5916,6,0,P|372:172|262:186,1,262.5
158,102,6504,5,0,0:0:0:0:
145,299,6945,5,0,0:0:0:0:
145,299,7019,1,0,0:0:0:0:
145,299,7092,2,0,L|164:211,1,87.5
261,107,7386,5,0,2:0:0:0:
276,287,7534,1,0,2:0:0:0:
261,107,7681,5,0,0:0:0:0:
276,287,7828,1,0,0:0:0:0:
276,287,7975,5,0,0:0:0:0:
261,107,8122,1,0,0:0:0:0:
172,211,8269,2,0,L|180:119,1,87.5
172,211,8563,2,0,L|180:124,1,87.5
180,123,8857,5,0,0:0:0:0:
163,298,9004,1,0,0:0:0:0:
424,111,9298,6,0,P|440:160|436:212,1,105.000004005432
436,212,9592,1,0,0:0:0:0:
424,111,9739,2,0,P|440:160|437:213,1,105.000004005432
424,111,10034,1,0,0:0:0:0:
304,291,10181,1,0,0:0:0:0:
153,81,10328,6,0,P|107:59|55:59,1,105.000004005432
153,81,10622,1,0,0:0:0:0:
54,60,10769,1,0,0:0:0:0:
152,81,10916,6,0,P|106:58|54:60,1,105.000004005432
252,257,11210,5,0,0:0:0:0:
252,257,11357,1,0,0:0:0:0:
224,353,11504,1,0,0:0:0:0:
252,257,11651,2,0,P|224:301|223:353,1,105.000004005432
223,353,11945,5,0,0:0:0:0:
252,257,12092,2,0,P|224:301|223:353,1,105.000004005432
394,117,12386,5,0,0:0:0:0:
429,206,12534,1,0,0:0:0:0:
429,206,12681,2,0,P|428:155|394:117,2,105.000004005432
394,117,13122,1,0,0:0:0:0:
394,117,13269,6,0,P|428:155|429:206,1,105.000004005432
405,335,13563,5,0,0:0:0:0:
95,190,13710,5,0,0:0:0:0:
95,190,13857,5,0,0:0:0:0:
405,335,14004,5,0,0:0:0:0:
256,278,14445,2,0,L|251:331,1,52.5000020027161
251,331,14739,2,0,L|256:279,1,52.5000020027161
251,331,15034,1,0,0:0:0:0:
256,278,15181,1,0,0:0:0:0:
342,192,15328,6,0,L|395:197,1,52.5000020027161
343,192,15622,2,0,L|395:197,1,52.5000020027161
343,192,15917,1,0,0:0:0:0:
395,197,16064,1,0,0:0:0:0:
395,197,16210,1,0,0:0:0:0:
256,106,16357,6,0,L|261:53,1,52.5000020027161
256,105,16651,1,0,0:0:0:0:
261,53,16798,1,0,0:0:0:0:
261,53,16945,2,0,L|256:105,1,52.5000020027161
256,105,17239,2,0,L|261:53,1,52.5000020027161
256,105,17534,1,0,0:0:0:0:
169,192,17681,6,0,L|100:185,1,70
100,185,17975,2,0,L|169:192,1,70
100,185,18269,1,0,0:0:0:0:
395,197,18416,1,0,0:0:0:0:
100,185,18710,6,0,B|108:225|108:225|132:233|132:233|140:273,1,105.000004005432
139,271,19004,1,0,0:0:0:0:
100,185,19151,6,0,B|92:145|92:145|68:137|68:137|60:97,1,105.000004005432
292,230,19445,5,0,0:0:0:0:
297,72,19592,1,0,0:0:0:0:
292,230,19739,1,0,0:0:0:0:
292,230,19886,6,0,L|297:66,1,157.500006008148
297,72,20181,1,0,0:0:0:0:
187,226,20328,6,0,L|297:230,1,105.000004005432
291,229,20622,1,0,0:0:0:0:
187,226,20769,1,0,0:0:0:0:
291,229,20916,1,0,0:0:0:0:
423,132,21063,6,0,P|457:170|448:220,1,105.000004005432
448,220,21357,1,0,0:0:0:0:
423,132,21504,2,0,P|457:170|448:220,1,105.000004005432
218,233,21798,1,0,0:0:0:0:
219,129,21945,1,0,0:0:0:0:
310,183,22092,1,0,0:0:0:0:
219,129,22239,2,0,L|218:243,1,105.000004005432
310,183,22534,2,0,L|210:238,1,105.000004005432
217,233,22828,1,0,0:0:0:0:
80,46,22975,5,0,0:0:0:0:
58,148,23122,5,0,0:0:0:0:
159,115,23269,5,0,0:0:0:0:
58,148,23416,5,0,0:0:0:0:
256,331,23857,2,0,L|197:336,1,52.5000020027161
203,335,24151,2,0,L|256:331,1,52.5000020027161
203,335,24445,1,0,0:0:0:0:
203,335,24592,1,0,0:0:0:0:
117,192,24739,6,0,L|112:133,1,52.5000020027161
117,192,25033,2,0,L|113:139,1,52.5000020027161
113,139,25327,1,0,0:0:0:0:
117,192,25474,1,0,0:0:0:0:
117,192,25622,1,0,0:0:0:0:
395,192,25769,6,0,L|400:251,1,52.5000020027161
399,245,26063,1,0,0:0:0:0:
395,192,26210,2,0,L|399:245,1,52.5000020027161
398,244,26504,1,0,0:0:0:0:
395,192,26652,1,0,0:0:0:0:
398,244,26798,1,0,0:0:0:0:
309,49,26945,5,0,0:0:0:0:
232,55,27092,2,0,L|309:49,1,77.0000023498536
232,55,27386,2,0,L|309:49,1,77.0000023498536
309,49,27681,1,0,0:0:0:0:
232,55,27828,1,0,0:0:0:0:
209,313,28122,6,0,B|301:301|301:301|314:287,1,112
209,313,28416,1,0,0:0:0:0:
314,287,28563,2,0,B|301:301|301:301|209:313,1,112
192,174,28857,5,0,0:0:0:0:
192,174,29004,1,0,0:0:0:0:
329,111,29151,1,0,0:0:0:0:
192,174,29298,2,0,P|251:113|331:112,1,168
327,113,29592,5,0,0:0:0:0:
327,113,29739,2,0,P|348:165|328:230,1,112
169,275,30034,1,0,0:0:0:0:
336,217,30181,1,0,0:0:0:0:
336,217,30328,1,0,0:0:0:0:
142,60,30475,6,0,P|101:117|96:185,1,112
93,157,30769,1,0,0:0:0:0:
142,60,30916,2,0,P|101:117|96:185,1,112
142,60,31210,1,0,0:0:0:0:
93,157,31357,2,0,P|106:103|142:60,1,112
322,233,31651,6,0,P|313:157|261:132,1,112
288,138,31945,2,0,P|325:178|322:233,1,112
288,138,32239,1,0,0:0:0:0:
141,283,32386,5,0,0:0:0:0:
231,156,32534,5,0,0:0:0:0:
123,174,32681,5,0,0:0:0:0:
250,264,32828,6,0,P|250:216|227:148,1,112
60,333,33122,5,0,0:0:0:0:
171,341,33269,2,0,L|60:333,1,112
60,333,33563,2,0,L|173:342,1,112
60,333,33857,1,0,0:0:0:0:
171,342,34004,1,0,0:0:0:0:
60,333,34151,2,0,L|171:342,2,112
60,333,34592,1,0,0:0:0:0:
171,342,34739,2,0,L|60:333,1,112
59,332,35034,1,0,0:0:0:0:
262,120,35181,6,0,P|262:168|285:236,1,112
452,51,35475,5,0,0:0:0:0:
340,42,35622,2,0,L|452:51,1,112
452,51,35916,2,0,L|339:42,1,112
452,51,36210,2,0,L|341:42,1,112
341,42,36504,1,0,0:0:0:0:
341,42,36651,2,0,L|452:51,1,112
452,51,36945,1,0,0:0:0:0:
341,42,37092,2,0,L|452:51,1,112
452,51,37387,1,0,0:0:0:0:
262,264,37534,6,0,P|262:216|285:148,1,112
452,333,37828,5,0,0:0:0:0:
340,341,37975,1,0,0:0:0:0:
340,341,38122,1,0,0:0:0:0:
452,333,38269,2,0,L|339:342,1,112
452,333,38563,1,0,0:0:0:0:
341,342,38710,1,0,0:0:0:0:
452,333,38857,2,0,L|341:342,1,112
340,342,39151,1,0,0:0:0:0:
452,333,39298,1,0,0:0:0:0:
452,333,39445,1,0,0:0:0:0:
341,342,39592,2,0,L|452:333,1,112
250,120,39886,6,0,P|250:168|227:236,1,112
60,51,40181,5,0,0:0:0:0:
171,42,40328,2,0,L|60:51,1,112
60,51,40622,1,0,0:0:0:0:
171,42,40769,1,0,0:0:0:0:
171,42,40916,2,0,L|60:51,2,112
59,51,41357,1,0,0:0:0:0:
171,41,41504,1,0,0:0:0:0:
60,51,41651,1,0,0:0:0:0:
59,51,41798,2,0,L|115:46,1,56
171,42,41945,2,0,L|114:46,1,56
59,51,42092,2,0,L|115:46,1,56
225,191,42239,6,0,P|274:171|230:208,1,140
191,329,42534,5,0,0:0:0:0:
58,333,42681,2,0,P|124:314|191:329,1,140
58,333,42975,1,0,0:0:0:0:
58,333,43122,1,0,0:0:0:0:
191,329,43269,2,0,P|124:314|58:333,1,140
191,329,43563,1,0,0:0:0:0:
58,333,43710,2,0,P|124:314|191:329,1,140
58,333,44004,1,0,0:0:0:0:
191,329,44151,2,0,P|124:314|58:333,1,140
191,329,44445,1,0,0:0:0:0:
225,193,44592,6,0,P|274:213|230:176,1,140
46,36,44886,6,0,B|48:114|97:80|95:161,2,140
95,161,45328,1,0,0:0:0:0:
46,36,45475,2,0,B|48:114|97:80|95:161,1,140
95,161,45769,1,0,0:0:0:0:
95,161,45916,2,0,B|97:80|48:114|46:36,1,140
46,35,46210,1,0,0:0:0:0:
95,161,46357,2,0,B|97:80|48:114|46:36,2,140
336,344,46945,6,0,B|384:296|384:296|392:304|392:304|440:256,1,140
237,261,47239,1,0,0:0:0:0:
336,344,47386,2,0,B|288:296|288:296|280:304|280:304|232:256,2,140
434,261,47828,1,0,0:0:0:0:
434,261,47975,2,0,B|392:304|392:304|384:296|384:296|336:344,1,140
237,261,48269,1,0,0:0:0:0:
434,261,48416,1,0,0:0:0:0:
434,261,48563,1,0,0:0:0:0:
64,75,48857,5,0,0:0:0:0:
406,43,49004,1,0,0:0:0:0:
96,190,49298,6,0,P|77:340|235:244,1,350
96,190,49739,1,0,0:0:0:0:
227,318,49886,1,0,0:0:0:0:
227,318,50034,2,0,P|77:340|96:190,1,350
225,54,50622,5,0,0:0:0:0:
273,90,50695,1,0,0:0:0:0:
274,151,50769,1,0,0:0:0:0:
228,191,50842,1,0,0:0:0:0:
202,247,50916,1,0,0:0:0:0:
209,307,50989,1,0,0:0:0:0:
259,342,51063,1,0,0:0:0:0:
397,328,51210,6,0,P|359:201|537:188,1,315.000012016297
503,155,51504,6,0,P|365:189|396:327,1,315.000012016297
396,327,51798,6,0,B|271:196|233:365|122:207,1,295.400006085053
254,46,52239,1,0,0:0:0:0:
396,327,52386,2,0,B|336:261|283:267|211:286,1,147.700003042526
254,46,52681,1,0,0:0:0:0:
265,274,52828,1,0,0:0:0:0:
30,137,52975,6,0,P|17:218|54:277,1,147.700003042526
30,137,53269,6,0,P|17:218|54:277,1,147.700003042526
48,272,53563,5,0,0:0:0:0:
30,137,53710,5,0,0:0:0:0:
282,173,53857,6,0,B|318:259|251:237|296:336,1,147.700003042526
282,173,54151,6,0,B|318:259|251:237|296:336,1,147.700003042526
135,124,54445,1,0,0:0:0:0:
287,316,54592,1,0,0:0:0:0:
73,361,54739,2,0,P|65:257|110:208,1,147.700003042526
73,361,55034,1,0,0:0:0:0:
87,225,55181,1,0,0:0:0:0:
308,125,55328,6,0,P|276:190|375:122,1,295.400006085053
199,301,55769,1,0,0:0:0:0:
308,125,55916,2,0,P|276:59|375:128,1,295.400006085053
199,301,56357,1,0,0:0:0:0:
28,65,56504,6,0,L|167:10,1,147.700003042526
0,164,56798,6,0,L|139:109,1,147.700003042526
165,10,57092,5,0,0:0:0:0:
0,164,57239,5,0,0:0:0:0:
165,10,57386,6,0,L|28:65,1,147.700003042526
192,314,57681,6,0,B|267:285|330:331|330:331|382:376|433:367|463:326|468:267|419:215|348:221|323:294|321:342,1,418.599993293305
192,314,58122,1,0,0:0:0:0:
159,90,58269,1,0,0:0:0:0:
343,276,58416,1,0,0:0:0:0:
159,90,58563,2,0,P|90:72|152:116,1,209.299996646652
289,310,58857,6,0,P|401:191|427:372,1,418.599993293305
123,350,59298,1,0,0:0:0:0:
289,310,59445,2,0,P|264:140|137:256,1,418.599993293305
312,180,59886,1,0,0:0:0:0:
183,85,60034,5,0,0:0:0:0:
127,259,60181,5,0,0:0:0:0:
312,180,60328,5,0,0:0:0:0:
289,310,60475,5,0,0:0:0:0:
183,85,60622,6,0,L|160:184,1,70
127,259,60769,6,0,L|217:218,1,70
312,180,60916,6,0,L|295:271,1,70
190,229,61063,6,0,L|173:320,1,70
312,180,61210,6,0,P|255:113|141:277,1,350
183,85,61651,1,0,0:0:0:0:
115,335,61798,5,0,0:0:0:0:
428,248,61945,1,0,0:0:0:0:
115,335,62092,2,0,P|126:214|139:333,1,350
428,248,62534,1,0,0:0:0:0:
145,330,62681,1,0,0:0:0:0:
446,369,62828,1,0,0:0:0:0:
393,81,62975,5,0,0:0:0:0:
393,81,63122,1,0,0:0:0:0:
393,81,63269,2,0,P|408:202|477:239,1,175
94,26,63563,6,0,B|66:66|85:120|85:120|67:195|-27:192,1,210.000008010865
94,26,63857,1,0,0:0:0:0:
7,190,64004,1,0,0:0:0:0:
272,174,64151,1,0,0:0:0:0:
7,190,64298,1,0,0:0:0:0:
209,76,64445,6,0,P|409:62|264:326,1,630.000024032594
209,76,65034,2,0,P|307:31|414:68,1,210.000008010865
111,103,65328,5,0,0:0:0:0:
226,330,65475,1,0,0:0:0:0:
226,330,65622,1,0,0:0:0:0:
10,130,65769,6,0,P|112:113|200:184,1,210.000008010865
145,355,66063,1,0,0:0:0:0:
17,282,66210,1,0,0:0:0:0:
10,130,66357,2,0,P|112:113|200:184,1,210.000008010865
17,282,66798,1,0,0:0:0:0:
193,172,66945,2,0,P|110:112|10:130,1,210.000008010865
145,355,67386,1,0,0:0:0:0:
10,130,67534,2,0,P|157:134|128:364,1,420.000016021729
10,130,67975,1,0,0:0:0:0:
17,282,68122,6,0,P|100:338|199:301,1,210.000008010865
215,70,68416,5,0,0:0:0:0:
379,313,68563,5,0,0:0:0:0:
389,106,68710,1,0,0:0:0:0:
379,313,68857,1,0,0:0:0:0:
215,70,69004,1,0,0:0:0:0:
389,106,69151,1,0,0:0:0:0:
215,70,69298,1,0,0:0:0:0:
71,323,69445,6,0,L|320:339,1,210.000008010865
71,323,69739,2,0,L|320:339,1,210.000008010865
320,323,69960,1,0,0:0:0:0:
357,303,70034,1,0,0:0:0:0:
374,264,70107,1,0,0:0:0:0:
371,221,70181,1,0,0:0:0:0:
348,186,70254,1,0,0:0:0:0:
305,153,70328,5,0,0:0:0:0:
295,101,70401,1,0,0:0:0:0:
317,52,70475,1,0,0:0:0:0:
364,30,70548,1,0,0:0:0:0:
416,24,70622,6,0,B|461:148|358:148|415:277,1,245.000002336502
124,251,71210,5,0,0:0:0:0:
355,336,71357,1,0,0:0:0:0:
124,251,71504,1,0,0:0:0:0:
381,231,71651,6,0,P|355:337|477:323,1,245.000002336502
381,231,72092,2,0,P|342:283|371:352,1,122.500001168251
118,137,72386,5,0,0:0:0:0:
389,71,72534,1,0,0:0:0:0:
118,137,72681,1,0,0:0:0:0:
140,342,72828,6,0,B|213:232|274:316|345:194,1,245.000002336502
336,208,73269,2,0,B|297:268|249:273|213:278,1,122.500001168251
113,55,73563,5,0,0:0:0:0:
48,339,73710,1,0,0:0:0:0:
113,55,73857,1,0,0:0:0:0:
327,269,74004,6,0,B|349:199|418:199|418:199|445:262|387:315,1,245.000002336502
355,223,74445,2,0,B|378:199|417:199|417:199|436:232|419:279,1,122.500001168251
303,355,74739,5,0,0:0:0:0:
240,42,74886,1,0,0:0:0:0:
303,355,75034,1,0,0:0:0:0:
108,323,75181,6,0,P|22:338|107:355,1,245.000002336502
106,339,75622,2,0,P|149:346|106:355,1,122.500001168251
56,184,75916,5,0,0:0:0:0:
427,259,76063,1,0,0:0:0:0:
427,259,76210,1,0,0:0:0:0:
57,136,76357,6,0,P|49:224|93:295,2,122.500001168251
60,254,76798,2,0,P|45:195|57:136,1,122.500001168251
201,29,77092,5,0,0:0:0:0:
244,331,77239,1,0,0:0:0:0:
201,29,77386,1,0,0:0:0:0:
256,192,77534,5,0,0:0:0:0:
40,349,77828,6,0,L|161:326,1,122.500001168251
281,305,78122,1,0,0:0:0:0:
72,243,78269,6,0,L|214:216,1,140
354,191,78563,1,0,0:0:0:0:
188,85,78710,6,0,P|208:193|363:179,1,280
188,85,79151,1,0,0:0:0:0:
198,335,79298,5,0,0:0:0:0:
129,350,79372,1,0,0:0:0:0:
75,306,79445,1,0,0:0:0:0:
75,236,79519,1,0,0:0:0:0:
129,193,79592,1,0,0:0:0:0:
198,208,79666,1,0,0:0:0:0:
228,271,79739,1,0,0:0:0:0:
202,111,80034,5,0,0:0:0:0:
185,286,80181,5,0,0:0:0:0:
375,210,80328,5,0,0:0:0:0:
398,384,80475,5,0,0:0:0:0:
478,165,80622,5,0,0:0:0:0:
246,343,80769,5,0,0:0:0:0:
90,53,80916,5,0,0:0:0:0:
47,353,81063,5,0,0:0:0:0:
237,64,81210,5,0,0:0:0:0:
400,311,81357,5,0,0:0:0:0:
133,344,81504,5,0,0:0:0:0:
308,96,81651,5,0,0:0:0:0:
406,370,81798,5,0,0:0:0:0:
94,276,81945,5,0,0:0:0:0:
239,82,82092,5,0,0:0:0:0:
317,369,82239,5,0,0:0:0:0:
405,113,82386,5,0,0:0:0:0:
152,212,82534,5,0,0:0:0:0:
444,318,82681,5,0,0:0:0:0:
375,46,82828,5,0,0:0:0:0:
256,322,82975,5,0,0:0:0:0:
144,67,83122,5,0,0:0:0:0:
40,339,83269,5,0,0:0:0:0:
228,103,83416,5,0,0:0:0:0:
400,379,83563,5,0,0:0:0:0:
420,70,83710,5,0,0:0:0:0:
212,360,83857,5,0,0:0:0:0:
65,169,84004,5,0,0:0:0:0:
354,265,84151,5,0,0:0:0:0:
223,49,84298,5,0,0:0:0:0:
122,328,84445,5,0,0:0:0:0:
429,289,84592,5,0,0:0:0:0:
242,26,84739,5,0,0:0:0:0:
290,360,84886,5,0,0:0:0:0:
398,23,85034,5,0,0:0:0:0:
424,368,85181,5,0,0:0:0:0:
159,9,85328,5,0,0:0:0:0:
211,384,85475,5,0,0:0:0:0:
40,128,85622,5,0,0:0:0:0:
474,277,85769,5,0,0:0:0:0:
36,361,85916,5,0,0:0:0:0:
240,40,86063,5,0,0:0:0:0:
462,372,86210,5,0,0:0:0:0:
17,219,86357,5,0,0:0:0:0:
496,118,86504,5,0,0:0:0:0:
22,29,86651,5,0,0:0:0:0:
142,370,86798,5,0,0:0:0:0:
357,33,86945,5,0,0:0:0:0:
467,365,87092,5,0,0:0:0:0:
21,282,87239,5,0,0:0:0:0:
476,271,87386,5,0,0:0:0:0:
25,165,87534,5,0,0:0:0:0:
436,54,87681,5,0,0:0:0:0:
95,356,87828,5,0,0:0:0:0:
15,29,87975,5,0,0:0:0:0:
414,239,88122,6,0,P|412:321|365:376,1,122.500001168251
414,239,88416,2,0,P|412:321|365:376,1,122.500001168251
229,140,88710,6,0,L|283:67|283:67|297:153|297:153|382:178|382:178|303:215|303:215|304:307|304:307|242:244|242:244|151:277|151:277|198:194|198:194|143:120|143:120|230:135|230:135,1,886.899995263443
