osu file format v14

[General]
AudioFilename: audio.mp3
AudioLeadIn: 0
PreviewTime: 51211
Countdown: 0
SampleSet: Normal
StackLeniency: 0.7
Mode: 0
LetterboxInBreaks: 0
WidescreenStoryboard: 1

[Editor]
DistanceSpacing: 1
BeatDivisor: 4
GridSize: 4
TimelineZoom: 2.799999

[Metadata]
Title:Lonely Go! (TV Size)
TitleUnicode:Lonely Go! (TV Size)
Artist:Brian The Sun
ArtistUnicode:Brian The Sun
Creator:Nice Aesthetics
Version:Fretzi's Easy
Source:BORUTO-ボルト-NARUTO NEXT GENERATIONS
Tags:naruto anime opening boruto
BeatmapID:1914759
BeatmapSetID:916731

[Difficulty]
HPDrainRate:2
CircleSize:3
OverallDifficulty:2
ApproachRate:3
SliderMultiplier:0.7
SliderTickRate:1

[Events]
//Background and Video events
0,0,"background.jpg",0,0
//Break Periods
//Storyboard Layer 0 (Background)
//Storyboard Layer 1 (Fail)
//Storyboard Layer 2 (Pass)
//Storyboard Layer 3 (Foreground)
//Storyboard Sound Samples

[TimingPoints]
2388,294.117647058824,4,1,3,90,1,0
14006,-100,4,1,4,50,0,0
18712,-100,4,1,4,65,0,0
23417,-100,4,1,4,50,0,0
28123,-100,4,1,4,65,0,0
32829,-100,4,1,3,75,0,0
51800,-100,4,1,3,90,0,1
70623,-100,4,1,3,75,0,0
80035,-100,4,1,3,90,0,1
88711,-100,4,1,3,90,0,0

[HitObjects]
122,330,1212,6,0,B|128:284|102:234|102:234|114:215|143:205,1,140,8|8,0:0|0:0,0:0:0:0:
261,264,2388,6,0,P|326:276|393:228,1,140,4|8,0:0|0:0,0:0:0:0:
450,114,3564,1,2,0:0:0:0:
354,11,4152,2,0,L|272:18,1,70,8|0,0:0|0:0,0:0:0:0:
222,49,4740,6,0,P|154:36|87:75,1,140,4|8,0:0|0:0,0:0:0:0:
133,201,5917,2,0,P|65:214|-2:175,1,140,2|8,0:0|0:0,0:0:0:0:
93,67,7093,5,4,0:0:0:0:
225,113,7682,1,8,0:0:0:0:
356,71,8270,2,0,B|352:142|352:142|370:214,1,140,2|8,0:0|0:0,0:0:0:0:
398,309,9299,6,0,B|363:323|323:301|323:301|299:320|299:320|268:297|225:315,1,175,4|8,0:0|0:0,0:0:0:0:
114,374,10623,1,2,0:0:0:0:
42,253,11211,1,8,0:0:0:0:
142,222,11652,6,0,P|186:178|124:100,1,175,2|8,0:0|0:0,0:0:0:0:
3,156,12976,2,0,P|-5:123|-1:81,2,70,2|0|8,0:0|0:0|0:0,0:0:0:0:
49,250,14005,6,0,B|64:289|53:331|53:331|110:312|146:318,1,175,4|8,0:0|0:0,0:0:0:0:
227,382,15182,2,0,P|259:324|202:233,1,175,2|8,0:0|0:0,0:0:0:0:
121,178,16358,6,0,B|95:131|117:96|117:96|167:103|215:93,1,175,2|8,0:0|0:0,0:0:0:0:
303,58,17535,2,0,B|322:101|302:135|302:135|364:123|402:140,1,175,2|8,0:0|0:0,0:0:0:0:
462,218,18711,5,4,0:0:0:0:
413,311,19152,2,0,P|346:342|240:327,1,175,8|2,0:0|0:0,0:0:0:0:
187,244,20329,2,0,B|175:207|190:171|190:171|137:144|86:169,1,175,8|2,0:0|0:0,0:0:0:0:
20,241,21505,6,0,P|-10:168|34:88,1,175,8|2,0:0|0:0,0:0:0:0:
124,36,22682,2,0,P|157:31|200:38,1,70,8|2,0:0|0:0,0:0:0:0:
281,95,23417,5,4,0:0:0:0:
370,40,23858,1,2,0:0:0:0:
406,99,24152,2,0,B|415:154|415:154|392:205,1,105,8|2,0:0|0:0,0:0:0:0:
307,257,25035,1,2,0:0:0:0:
242,229,25329,2,0,P|185:225|134:242,1,105,8|2,0:0|0:0,0:0:0:0:
110,339,26211,6,0,P|49:301|33:232,1,140,8|0,0:0|0:0,0:0:0:0:
68,178,27093,2,0,P|75:129|69:97,2,70,2|2|8,0:0|0:0|0:0,0:0:0:0:
148,245,28123,6,0,P|197:254|251:282,1,105,4|8,0:0|0:0,0:0:0:0:
290,332,28858,1,2,0:0:0:0:
389,299,29299,2,0,P|403:248|408:188,1,105,2|8,0:0|0:0,0:0:0:0:
405,126,30035,1,2,0:0:0:0:
308,167,30476,6,0,P|245:152|272:58,1,175,4|8,0:0|0:0,0:0:0:0:
359,23,31652,1,2,0:0:0:0:
463,31,32093,1,8,0:0:0:0:
431,203,32829,6,0,B|462:266|462:266|462:312|462:312|432:366,1,175,4|8,0:0|0:0,0:0:0:0:
312,293,34152,2,0,B|244:308|244:308|186:363,1,140,2|8,0:0|0:0,0:0:0:0:
90,377,35182,6,0,P|76:284|130:299,1,175,2|8,0:0|0:0,0:0:0:0:
243,358,36505,1,2,0:0:0:0:
231,218,37093,1,8,0:0:0:0:
330,252,37535,6,0,B|349:217|330:185|330:185|350:164|350:164|323:121|339:81,1,175,4|8,0:0|0:0,0:0:0:0:
449,11,38858,1,2,0:0:0:0:
511,136,39446,1,8,0:0:0:0:
449,221,39888,6,0,B|434:239|431:272|431:272|373:257|303:278,1,175,2|8,0:0|0:0,0:0:0:0:
223,383,41211,1,2,0:0:0:0:
129,279,41799,1,8,0:0:0:0:
182,188,42240,6,0,B|194:153|217:139|217:139|170:98|167:33,1,175,4|8,0:0|0:0,0:0:0:0:
306,57,43564,1,2,0:0:0:0:
440,17,44152,1,8,0:0:0:0:
493,107,44593,6,0,P|504:162|414:236,1,175,2|8,0:0|0:0,0:0:0:0:
294,187,45917,2,0,P|226:195|145:193,1,140,2|8,0:0|0:0,0:0:0:0:
54,161,46946,6,0,B|36:243|36:243|70:334,1,175,4|8,0:0|0:0,0:0:0:0:
202,313,48270,2,0,L|344:325,1,140,2|8,0:0|0:0,0:0:0:0:
439,362,49299,6,0,B|479:317|405:225|446:185,1,175,4|8,0:0|0:0,0:0:0:0:
355,80,50623,1,4,0:0:0:0:
110,216,51799,6,0,P|88:160|110:77,1,140,4|8,0:0|0:0,0:0:0:0:
230,145,52976,1,2,0:0:0:0:
362,101,53564,1,8,0:0:0:0:
439,218,54152,6,0,P|385:247|303:227,1,140,4|8,0:0|0:0,0:0:0:0:
363,102,55329,2,0,P|309:73|227:93,1,140,2|8,0:0|0:0,0:0:0:0:
112,156,56505,6,0,L|39:149,2,70,4|0|8,0:0|0:0|0:0,0:0:0:0:
230,230,57682,1,2,0:0:0:0:
364,190,58270,2,0,L|370:263,1,70,8|0,0:0|0:0,0:0:0:0:
344,324,58858,6,0,P|292:362|215:361,2,140,2|8|2,0:0|0:0|0:0,0:0:0:0:
244,225,60623,1,8,0:0:0:0:
304,98,61211,6,0,B|255:85|217:104|217:104|195:90|177:80|177:80|152:100|92:84,1,210,4|8,0:0|0:0,0:0:0:0:
9,188,62682,1,2,0:0:0:0:
37,251,62976,1,8,0:0:0:0:
136,218,63417,6,0,P|176:213|306:255,1,175,4|8,0:0|0:0,0:0:0:0:
341,310,64446,2,0,P|409:291|399:162,1,210,2|8,0:0|0:0,0:0:0:0:
318,116,65770,6,0,B|327:65|327:65|310:8,1,105,2|8,0:0|0:0,0:0:0:0:
245,0,66505,1,2,0:0:0:0:
147,39,66946,2,0,B|138:90|138:90|155:147,1,105,2|8,0:0|0:0,0:0:0:0:
220,161,67682,1,2,0:0:0:0:
311,109,68123,6,0,B|349:98|407:111|407:111|380:192|423:264,1,245,2|8,0:0|0:0,0:0:0:0:
469,301,69446,1,4,0:0:0:0:
196,363,70623,6,0,B|176:298|176:298|187:226,1,140,4|8,0:0|0:0,0:0:0:0:
265,157,71652,2,0,B|341:182|341:182|442:167,1,175,2|8,0:0|0:0,0:0:0:0:
469,68,72829,6,0,B|393:43|393:43|292:58,1,175,2|8,0:0|0:0,0:0:0:0:
197,85,74005,1,2,0:0:0:0:
38,10,74740,1,8,0:0:0:0:
65,111,75182,6,0,B|88:207|88:207|74:296,1,175,4|8,0:0|0:0,0:0:0:0:
151,356,76358,2,0,B|227:381|227:381|328:366,1,175,2|8,0:0|0:0,0:0:0:0:
397,294,77535,1,2,0:0:0:0:
366,230,77829,6,0,P|357:178|366:112,1,105,8|8,0:0|0:0,0:0:0:0:
417,37,78711,2,0,B|376:36|352:15|352:15|323:36|280:54,1,140,2|8,0:0|0:0,0:0:0:0:
256,220,80035,6,0,P|188:204|144:137,1,140,4|8,0:0|0:0,0:0:0:0:
169,83,80917,1,0,0:0:0:0:
128,25,81211,2,0,P|62:46|36:109,1,140,2|8,0:0|0:0,0:0:0:0:
136,225,82388,6,0,P|156:271|141:358,1,140,4|8,0:0|0:0,0:0:0:0:
76,383,83270,1,0,0:0:0:0:
8,363,83564,2,0,P|-8:296|13:230,1,140,2|8,0:0|0:0,0:0:0:0:
120,139,84740,6,0,B|165:151|165:151|199:131|199:131|255:145,1,140,4|8,0:0|0:0,0:0:0:0:
310,181,85623,1,0,0:0:0:0:
376,159,85917,2,0,P|409:218|398:286,1,140,2|8,0:0|0:0,0:0:0:0:
277,358,87093,5,4,0:0:0:0:
164,275,87682,1,8,0:0:0:0:
81,339,88123,2,0,P|46:345|11:345,2,70,4|4|4,0:0|0:0|0:0,0:0:0:0:
