osu file format v14

[General]
AudioFilename: audio.mp3
AudioLeadIn: 0
PreviewTime: 51175
Countdown: 0
SampleSet: None
StackLeniency: 0.4
Mode: 0
LetterboxInBreaks: 0
WidescreenStoryboard: 0

[Editor]
DistanceSpacing: 1.2
BeatDivisor: 4
GridSize: 32
TimelineZoom: 2.4

[Metadata]
Title:Lonely Go! (TV Size)
TitleUnicode:Lonely Go! (TV Size)
Artist:Brian The Sun
ArtistUnicode:Brian The Sun
Creator:Nevo
Version:Sotarks & Reform's Extra
Source:BORUTO-ボルト-NARUTO NEXT GENERATIONS
Tags:mordred nelliel monstrata yukiyo aro agatsu naruto sarada uzimaki anime opening op ayyri eiri- fieryrage sotarks reform onlybiscuit
BeatmapID:1860435
BeatmapSetID:863227

[Difficulty]
HPDrainRate:5
CircleSize:3.8
OverallDifficulty:9.3
ApproachRate:9.4
SliderMultiplier:1.82000000596046
SliderTickRate:1

[Events]
//Background and Video events
0,0,"818879.png",0,0
Video,0,"brainthesun.mp4"
//Break Periods
//Storyboard Layer 0 (Background)
//Storyboard Layer 1 (Fail)
//Storyboard Layer 2 (Pass)
//Storyboard Layer 3 (Foreground)
//Storyboard Sound Samples

[TimingPoints]
1212,294.117647058824,4,2,1,75,1,0
1212,-138.888888888889,4,2,1,75,0,0
2388,294.117647058824,4,2,1,75,1,0
2829,-192.307692307692,4,2,1,75,0,0
9300,-108.695652173913,4,2,1,75,0,0
14006,-138.888888888889,4,2,1,60,0,0
18712,-108.695652173913,4,2,1,75,0,0
23417,-138.888888888889,4,2,1,60,0,0
28123,-108.695652173913,4,2,1,75,0,0
32829,-108.695652173913,4,2,1,85,0,0
46947,-98.0392156862745,4,2,1,75,0,0
51212,-161.290322580645,4,2,1,75,0,0
51726,-161.290322580645,4,2,1,5,0,0
51799,-89.2857142857143,4,2,1,85,0,1
77535,-89.2857142857143,4,2,1,75,0,0
77682,-89.2857142857143,4,2,1,75,0,0
80035,-89.2857142857143,4,2,1,85,0,1
88711,-192.307692307692,4,2,1,60,0,0
89447,-192.307692307692,4,2,1,5,0,0

[Colours]
Combo1 : 89,255,255
Combo2 : 255,219,72
Combo3 : 216,216,216
Combo4 : 255,81,81

[HitObjects]
128,74,1212,5,8,0:2:0:0:
128,74,1285,1,0,0:0:0:0:
128,74,1359,2,0,P|143:117|145:134,3,32.760000907093,4|0|0|0,0:3|0:0|0:0|0:0,0:0:0:0:
234,130,1653,1,8,0:3:0:0:
234,130,1726,1,0,0:0:0:0:
234,130,1800,2,0,P|219:173|216:189,3,32.760000907093,8|0|0|0,0:3|0:0|0:0|0:0,0:0:0:0:
311,66,2094,2,0,P|364:24|448:49,1,131.040003628372,4|6,0:3|3:2,0:0:0:0:
491,221,2829,5,0,0:0:0:0:
491,221,2976,2,0,B|407:221|446:261|351:267,1,141.959999598461,0|0,0:0|0:0,0:0:0:0:
263,229,3564,1,0,0:0:0:0:
76,49,4153,2,0,P|99:105|111:149,1,94.6399997323072,0|0,0:0|0:0,0:0:0:0:
369,44,4741,6,0,P|426:61|443:141,1,141.959999598461,4|0,3:2|0:0,0:0:0:0:
365,212,5329,2,0,P|320:194|211:177,1,141.959999598461,0|0,0:0|0:0,0:0:0:0:
106,321,5917,6,0,B|98:240|128:272|113:178,1,141.959999598461,4|0,3:2|0:0,0:0:0:0:
74,74,6506,2,0,P|112:39|201:61,1,141.959999598461,4|0,3:2|3:2,0:0:0:0:
286,234,7094,1,4,0:2:0:0:
286,234,7388,5,8,0:2:0:0:
315,127,7535,1,8,0:2:0:0:
197,182,7682,1,8,0:2:0:0:
359,286,7829,1,8,0:2:0:0:
304,89,7976,1,8,0:2:0:0:
240,336,8123,1,8,0:2:0:0:
409,84,8270,5,8,0:2:0:0:
103,139,8417,1,8,0:2:0:0:
449,193,8564,1,8,0:2:0:0:
67,229,8712,1,0,3:2:0:0:
275,5,8859,5,8,0:2:0:0:
393,366,9006,1,8,0:2:0:0:
389,272,9300,6,0,B|288:279|348:332|216:337,1,167.439994927513,12|0,0:2|3:2,0:0:0:0:
217,155,9741,2,0,P|239:206|251:245,1,83.7199974637564,12|0,0:2|0:2,0:0:0:0:
306,95,10035,1,0,3:2:0:0:
306,95,10182,1,0,3:2:0:0:
160,34,10329,1,8,0:2:0:0:
334,110,10476,2,0,P|389:85|425:78,1,83.7199974637564,0|0,3:2|0:2,0:0:0:0:
260,14,10770,1,0,3:2:0:0:
129,217,10917,2,0,P|88:205|51:186,1,83.7199974637564,8|0,0:2|0:2,0:0:0:0:
201,122,11212,1,0,3:2:0:0:
201,122,11359,1,0,3:2:0:0:
278,296,11506,1,8,0:2:0:0:
343,46,11653,6,0,P|335:114|329:217,1,167.439994927513,0|0,3:2|3:2,0:0:0:0:
156,93,12094,2,0,P|173:151|183:194,1,83.7199974637564,8|0,0:2|0:2,0:0:0:0:
244,32,12388,1,0,3:2:0:0:
244,32,12535,1,0,3:2:0:0:
76,150,12682,1,8,0:2:0:0:
315,155,12829,2,0,P|298:213|288:256,1,83.7199974637564,0|0,3:2|0:0,0:0:0:0:
201,60,13123,1,0,3:2:0:0:
110,238,13270,2,0,P|127:296|137:339,1,83.7199974637564,8|0,0:2|0:2,0:0:0:0:
348,139,13564,1,8,0:2:0:0:
108,128,13712,1,8,0:3:0:0:
256,284,13859,1,4,0:3:0:0:
256,284,14006,6,0,P|266:216|229:143,1,131.040003628372,6|0,3:2|0:0,0:0:0:0:
110,237,14447,2,0,P|127:282|148:307,1,65.520001814186,2|0,0:2|0:2,0:0:0:0:
210,145,14741,1,2,3:2:0:0:
210,145,14888,2,0,P|193:100|172:75,1,65.520001814186,2|0,0:2|3:2,0:0:0:0:
323,224,15182,2,0,P|381:204|420:135,1,131.040003628372,2|0,0:2|0:0,0:0:0:0:
312,22,15623,2,0,P|298:71|299:102,1,65.520001814186,2|0,3:2|0:2,0:0:0:0:
443,142,15917,1,2,3:2:0:0:
443,142,16064,2,0,P|439:109|428:78,1,65.520001814186,2|0,0:2|3:2,0:0:0:0:
286,220,16359,6,0,B|205:225|243:178|149:186,1,131.040003628372,2|0,0:2|0:0,0:0:0:0:
283,126,16800,2,0,P|331:102|355:102,1,65.520001814186,2|0,3:2|0:2,0:0:0:0:
368,273,17094,1,2,3:2:0:0:
368,273,17241,2,0,P|336:266|309:248,1,65.520001814186,2|0,0:2|3:2,0:0:0:0:
152,100,17535,2,0,P|150:167|146:244,1,131.040003628372,2|0,0:2|0:2,0:0:0:0:
285,57,17976,2,0,P|296:110|305:143,1,65.520001814186,2|0,3:2|0:2,0:0:0:0:
414,5,18270,1,10,0:2:0:0:
368,273,18417,1,2,3:2:0:0:
368,273,18712,6,0,B|271:284|315:335|191:340,1,167.439994927513,12|0,0:2|3:2,0:0:0:0:
181,161,19153,2,0,P|215:211|229:246,1,83.7199974637564,8|0,0:2|0:2,0:0:0:0:
269,87,19447,1,0,3:2:0:0:
269,87,19594,1,0,3:2:0:0:
350,241,19741,1,8,0:2:0:0:
250,56,19888,2,0,P|198:35|156:37,1,83.7199974637564,0|0,3:2|0:0,0:0:0:0:
310,162,20182,1,0,3:2:0:0:
110,101,20329,2,0,P|68:104|30:122,1,83.7199974637564,8|0,0:2|0:2,0:0:0:0:
157,217,20623,1,0,3:2:0:0:
157,217,20770,1,0,3:2:0:0:
263,27,20917,1,8,0:2:0:0:
391,260,21064,6,0,P|447:234|453:121,1,167.439994927513,0|0,3:2|3:2,0:0:0:0:
242,55,21506,2,0,P|270:110|279:142,1,83.7199974637564,8|0,0:0|0:0,0:0:0:0:
210,314,21800,1,0,3:2:0:0:
210,314,21947,1,0,3:2:0:0:
385,170,22094,1,8,0:2:0:0:
150,233,22241,2,0,P|86:215|56:213,1,83.7199974637564,0|0,3:2|0:2,0:0:0:0:
328,321,22535,2,0,P|286:327|247:340,1,83.7199974637564,0|8,3:2|0:2,0:0:0:0:
405,195,22829,1,0,3:2:0:0:
242,89,22976,1,8,0:2:0:0:
296,237,23123,1,8,0:3:0:0:
348,50,23270,1,4,0:3:0:0:
348,50,23417,6,0,P|281:2|214:16,1,131.040003628372,6|0,0:2|0:2,0:0:0:0:
155,152,23859,2,0,P|143:108|125:74,1,65.520001814186,2|0,3:2|0:2,0:0:0:0:
272,209,24153,1,2,3:2:0:0:
272,209,24300,1,2,0:2:0:0:
363,26,24447,1,0,0:0:0:0:
299,226,24594,2,0,P|316:277|321:307,1,65.520001814186,0|0,0:0|3:2,0:0:0:0:
362,139,24888,1,0,0:0:0:0:
169,183,25035,2,0,P|152:234|147:264,1,65.520001814186,2|0,3:2|0:2,0:0:0:0:
110,95,25329,1,2,3:2:0:0:
110,95,25476,1,2,0:2:0:0:
322,128,25623,1,0,3:2:0:0:
119,276,25770,6,0,B|199:285|162:319|251:330,1,131.040003628372,2|0,0:2|0:2,0:0:0:0:
322,224,26212,2,0,P|258:203|244:194,1,65.520001814186,0|0,3:2|0:2,0:0:0:0:
77,150,26506,2,0,P|108:143|138:130,1,65.520001814186,0|0,3:2|0:2,0:0:0:0:
278,24,26800,1,0,3:2:0:0:
234,182,26947,1,2,0:2:0:0:
406,43,27094,6,0,P|422:93|431:122,1,65.520001814186,2|0,3:2|0:2,0:0:0:0:
233,273,27388,2,0,P|242:241|252:210,1,65.520001814186,0|0,3:2|0:2,0:0:0:0:
93,51,27682,1,8,3:2:0:0:
398,194,27829,1,8,0:2:0:0:
398,194,28123,6,0,P|333:161|222:208,1,167.439994927513,12|0,0:2|3:2,0:0:0:0:
118,306,28564,2,0,P|137:250|133:206,1,83.7199974637564,8|0,0:2|0:2,0:0:0:0:
48,91,28859,1,0,3:2:0:0:
48,91,29006,1,0,3:2:0:0:
229,216,29153,1,8,0:2:0:0:
291,30,29300,2,0,P|343:2|382:1,1,83.7199974637564,0|0,3:2|0:2,0:0:0:0:
254,134,29594,1,0,3:2:0:0:
438,81,29741,2,0,P|494:97|522:124,1,83.7199974637564,8|0,0:2|0:2,0:0:0:0:
394,234,30035,1,0,3:2:0:0:
394,234,30182,1,0,3:2:0:0:
291,30,30329,1,8,0:2:0:0:
216,243,30476,6,0,P|163:290|50:260,1,167.439994927513,0|0,3:2|3:2,0:0:0:0:
142,96,30917,2,0,P|160:154|172:188,1,83.7199974637564,8|0,0:2|0:2,0:0:0:0:
259,43,31212,1,0,3:2:0:0:
259,43,31359,1,0,3:2:0:0:
338,217,31506,1,8,0:2:0:0:
422,66,31653,2,0,P|484:37|521:29,1,83.7199974637564,0|0,0:2|0:2,0:0:0:0:
276,155,31947,2,0,P|312:174|352:187,1,83.7199974637564,0|8,3:2|0:2,0:0:0:0:
231,22,32241,1,0,3:2:0:0:
140,246,32388,1,8,0:2:0:0:
87,107,32535,1,8,0:3:0:0:
276,155,32682,1,4,0:3:0:0:
95,323,32829,6,0,P|153:264|235:256,1,167.439994927513,4|0,3:2|3:2,0:0:0:0:
436,314,33270,5,8,0:2:0:0:
386,163,33417,1,0,3:2:0:0:
317,312,33564,5,8,0:2:0:0:
375,138,33712,1,0,3:2:0:0:
411,295,33859,5,8,0:2:0:0:
280,154,34005,1,0,3:2:0:0:
230,331,34153,5,8,0:2:0:0:
230,331,34300,2,0,P|176:328|139:289,1,83.7199974637564,0|8,3:2|0:2,0:0:0:0:
190,163,34594,2,0,P|244:166|281:205,1,83.7199974637564,0|8,3:2|0:2,0:0:0:0:
236,347,34888,2,0,P|182:344|145:305,1,83.7199974637564,0|8,3:2|0:2,0:0:0:0:
86,132,35182,6,0,P|125:72|243:66,1,167.439994927513,4|0,3:2|3:2,0:0:0:0:
349,205,35623,5,8,0:2:0:0:
190,163,35770,1,0,3:2:0:0:
365,160,35917,5,8,0:2:0:0:
206,202,36064,1,0,3:2:0:0:
381,283,36212,5,8,0:2:0:0:
222,241,36359,1,0,3:2:0:0:
451,131,36506,5,8,0:2:0:0:
451,131,36653,2,0,P|463:69|454:30,1,83.7199974637564,0|8,3:2|0:2,0:0:0:0:
196,120,36947,2,0,P|193:161|205:201,1,83.7199974637564,0|8,3:2|0:2,0:0:0:0:
436,117,37241,2,0,P|448:55|439:16,1,83.7199974637564,0|8,3:2|0:2,0:0:0:0:
134,26,37535,6,0,P|90:87|111:192,1,167.439994927513,4|0,3:2|3:2,0:0:0:0:
288,290,37976,5,8,0:2:0:0:
319,115,38123,1,0,3:2:0:0:
187,224,38270,5,8,0:2:0:0:
345,149,38417,1,0,3:2:0:0:
219,53,38564,5,8,0:2:0:0:
274,246,38712,1,0,3:2:0:0:
417,47,38859,6,0,P|433:103|448:141,1,83.7199974637564,8|0,0:2|3:2,0:0:0:0:
200,178,39153,2,0,P|214:138|224:98,1,83.7199974637564,8|0,0:2|3:2,0:0:0:0:
400,230,39447,1,8,0:2:0:0:
400,230,39594,2,0,P|416:286|431:324,1,83.7199974637564,0|8,3:2|0:2,0:0:0:0:
307,82,39888,6,0,P|210:52|118:42,1,167.439994927513,4|0,3:2|3:2,0:0:0:0:
169,202,40329,5,8,0:2:0:0:
358,154,40476,1,0,3:2:0:0:
140,178,40623,5,8,0:2:0:0:
329,226,40770,1,0,3:2:0:0:
106,290,40917,5,8,0:2:0:0:
295,242,41064,1,0,3:2:0:0:
76,125,41212,5,8,0:2:0:0:
205,233,41359,1,0,3:2:0:0:
176,60,41506,5,8,0:2:0:0:
115,255,41653,1,0,3:2:0:0:
55,109,41800,5,8,0:2:0:0:
55,109,41873,1,0,0:0:0:0:
55,109,41947,1,8,0:3:0:0:
55,109,42020,1,0,0:0:0:0:
55,109,42094,1,4,0:3:0:0:
54,111,42167,1,0,0:0:0:0:
50,109,42241,6,0,B|150:106|106:169|243:160,1,167.439994927513,4|0,0:2|3:2,0:0:0:0:
376,48,42682,5,8,0:2:0:0:
306,216,42829,1,0,3:2:0:0:
263,25,42976,5,8,0:2:0:0:
333,193,43123,1,0,3:2:0:0:
466,65,43270,5,8,0:2:0:0:
298,106,43417,1,0,3:2:0:0:
432,267,43564,5,8,0:2:0:0:
432,267,43712,2,0,P|452:211|453:167,1,83.7199974637564,0|8,3:2|0:2,0:0:0:0:
268,84,44006,2,0,P|273:125|290:163,2,83.7199974637564,0|8|0,3:2|0:2|3:2,0:0:0:0:
188,272,44447,1,8,0:2:0:0:
363,97,44594,6,0,P|225:56|168:54,1,167.439994927513,4|0,3:2|3:2,0:0:0:0:
100,239,45035,5,8,0:2:0:0:
46,83,45182,1,0,3:2:0:0:
200,163,45329,5,8,0:2:0:0:
6,159,45476,1,0,3:2:0:0:
170,297,45623,5,8,0:2:0:0:
214,118,45770,1,0,3:2:0:0:
87,103,45917,5,8,0:2:0:0:
317,157,46064,1,0,3:2:0:0:
76,217,46212,5,8,0:2:0:0:
274,52,46359,1,0,3:2:0:0:
278,304,46506,5,8,0:2:0:0:
182,24,46653,1,0,3:2:0:0:
469,275,46947,6,0,B|364:254|424:203|291:192,1,185.640001741024,4|0,3:2|3:2,0:0:0:0:
154,303,47388,2,0,P|132:241|103:195,1,92.8200008705118,8|0,0:2|0:2,0:0:0:0:
262,67,47682,2,0,P|240:108|226:152,1,92.8200008705118,0|0,3:2|3:2,0:0:0:0:
319,301,47976,1,8,0:2:0:0:
319,301,48270,5,0,3:2:0:0:
388,175,48417,1,0,3:2:0:0:
195,244,48564,2,0,P|136:223|103:216,1,92.8200008705118,8|0,0:2|0:2,0:0:0:0:
258,113,48859,1,0,3:2:0:0:
306,262,49006,1,0,3:2:0:0:
158,97,49153,1,8,0:2:0:0:
342,272,49300,6,0,P|358:179|377:78,1,185.640001741024,4|0,3:2|3:2,0:0:0:0:
215,265,49741,5,8,0:2:0:0:
144,63,49888,1,0,3:2:0:0:
144,307,50035,1,8,0:2:0:0:
221,15,50182,1,0,3:2:0:0:
281,318,50329,1,12,0:2:0:0:
431,63,50623,6,0,L|419:13,3,46.4100004352559,8|8|8|8,0:2|0:2|0:2|0:2,0:0:0:0:
306,133,50917,2,0,L|318:83,3,46.4100004352559,8|8|8|8,0:2|0:2|0:2|0:2,0:0:0:0:
397,246,51212,6,0,B|282:247|335:323|196:323,1,197.469992812512,4|0,3:2|0:0,0:0:0:0:
190,307,51800,6,0,P|183:243|174:180,1,101.920001577926,6|0,3:2|0:2,0:0:0:0:
312,79,52094,2,0,P|306:125|297:194,1,101.920001577926,8|2,0:2|0:2,0:0:0:0:
325,323,52388,1,2,3:2:0:0:
211,141,52535,1,0,3:2:0:0:
262,375,52682,1,8,0:2:0:0:
375,174,52829,1,2,0:2:0:0:
178,285,52976,6,0,P|131:299|73:293,1,101.920001577926,2|0,3:2|0:2,0:0:0:0:
203,120,53270,2,0,P|248:115|303:135,1,101.920001577926,8|0,0:2|0:2,0:0:0:0:
402,292,53564,1,2,3:2:0:0:
440,108,53712,1,0,3:2:0:0:
266,294,53859,2,0,P|258:228|250:174,1,101.920001577926,10|0,0:2|0:2,0:0:0:0:
125,46,54153,6,0,B|90:149|162:113|118:249,1,203.840003155853,2|8,3:2|0:2,0:0:0:0:
233,91,54594,1,2,0:2:0:0:
41,171,54741,2,0,P|20:224|20:274,1,101.920001577926,2|0,3:2|3:2,0:0:0:0:
1,50,55035,1,8,0:2:0:0:
133,215,55182,1,2,0:2:0:0:
275,87,55329,6,0,P|323:66|388:59,1,101.920001577926,2|0,3:2|0:2,0:0:0:0:
468,223,55623,1,8,0:2:0:0:
298,174,55770,1,2,0:2:0:0:
476,69,55917,2,0,P|513:127|471:255,1,203.840003155853,2|8,3:2|0:2,0:0:0:0:
389,322,56359,1,0,0:2:0:0:
210,166,56506,6,0,B|321:133|289:209|417:165,2,203.840003155853,2|10|2,3:2|0:2|3:2,0:0:0:0:
63,119,57241,1,0,0:0:0:0:
144,318,57388,2,0,P|141:249|137:212,1,101.920001577926,10|0,0:2|0:2,0:0:0:0:
259,50,57682,6,0,P|255:96|253:156,1,101.920001577926,2|0,3:2|0:2,0:0:0:0:
373,294,57976,1,10,0:2:0:0:
424,139,58123,1,0,0:2:0:0:
271,254,58270,2,0,P|222:276|172:282,1,101.920001577926,2|0,3:2|3:2,0:0:0:0:
402,318,58564,2,0,P|451:340|501:346,1,101.920001577926,10|0,0:2|0:2,0:0:0:0:
417,132,58859,6,0,P|374:68|255:87,1,203.840003155853,2|8,3:2|0:2,0:0:0:0:
126,226,59300,1,2,0:2:0:0:
94,24,59447,2,0,P|105:92|111:134,1,101.920001577926,2|0,3:2|3:2,0:0:0:0:
246,257,59741,1,8,0:2:0:0:
282,83,59888,1,0,0:2:0:0:
144,208,60035,6,0,P|95:225|44:223,1,101.920001577926,0|0,3:2|3:2,0:0:0:0:
324,310,60329,2,0,P|370:310|425:333,1,101.920001577926,12|0,0:2|0:2,0:0:0:0:
197,353,60623,1,8,0:2:0:0:
197,353,60697,1,8,0:2:0:0:
197,353,60770,2,0,L|188:295,1,50.9600007889632,8|8,0:2|0:2,0:0:0:0:
271,219,60917,1,8,0:2:0:0:
271,219,60991,1,8,0:2:0:0:
271,219,61064,2,0,L|280:161,1,50.9600007889632,8|8,0:2|0:2,0:0:0:0:
237,56,61212,6,0,P|181:10|99:51,1,152.88000236689,6|0,3:2|0:0,0:0:0:0:
84,67,61506,2,0,P|95:121|100:170,1,101.920001577926,12|0,0:2|0:2,0:0:0:0:
186,342,61800,2,0,P|191:295|204:236,1,101.920001577926,0|0,3:2|3:2,0:0:0:0:
295,144,62094,1,10,0:0:0:0:
364,296,62241,1,2,0:0:0:0:
183,123,62388,5,0,3:2:0:0:
414,161,62535,1,0,3:2:0:0:
218,263,62682,1,8,0:2:0:0:
282,48,62829,1,2,0:2:0:0:
366,273,62976,1,2,3:2:0:0:
127,213,63123,1,2,3:2:0:0:
319,141,63270,1,8,0:2:0:0:
247,338,63417,1,2,0:2:0:0:
81,137,63564,6,0,P|72:67|61:6,1,101.920001577926,8|0,3:2|0:2,0:0:0:0:
56,309,63859,1,8,0:3:0:0:
195,117,64006,1,8,0:3:0:0:
270,353,64153,1,4,0:3:0:0:
127,213,64300,1,4,0:3:0:0:
341,292,64447,6,0,P|406:289|455:165,1,203.840003155853,12|0,0:2|0:0,0:0:0:0:
384,63,64888,1,0,3:2:0:0:
303,132,65035,2,0,P|285:189|286:236,1,101.920001577926,8|0,0:2|0:0,0:0:0:0:
94,69,65329,1,2,3:2:0:0:
163,153,65476,2,0,P|181:210|180:257,1,101.920001577926,2|12,3:2|0:2,0:0:0:0:
242,59,65770,1,2,0:2:0:0:
85,252,65917,6,0,P|115:320|239:326,1,203.840003155853,4|10,3:2|0:2,0:0:0:0:
357,174,66359,1,2,0:2:0:0:
331,382,66506,2,0,P|340:317|345:272,1,101.920001577926,0|0,3:2|3:2,0:0:0:0:
185,89,66800,1,10,0:2:0:0:
205,262,66947,1,2,0:2:0:0:
450,94,67094,6,0,B|335:85|383:154|258:142,1,203.840003155853,4|10,3:2|0:2,0:0:0:0:
116,253,67535,1,2,0:2:0:0:
185,71,67682,1,0,3:2:0:0:
274,283,67829,1,0,3:2:0:0:
76,169,67976,2,0,P|60:113|60:67,1,101.920001577926,10|2,0:2|0:2,0:0:0:0:
303,276,68270,6,0,P|300:322|286:383,1,101.920001577926,4|0,3:2|3:2,0:0:0:0:
161,126,68564,1,8,0:2:0:0:
200,332,68712,1,8,0:3:0:0:
253,92,68859,1,8,0:3:0:0:
129,281,69006,1,4,0:3:0:0:
91,65,69153,1,4,0:3:0:0:
261,274,69300,1,4,0:3:0:0:
300,23,69447,5,10,0:2:0:0:
195,362,69741,1,6,0:2:0:0:
115,234,69888,1,8,0:2:0:0:
115,234,69962,1,8,0:2:0:0:
115,234,70035,2,0,P|107:197|105:166,1,50.9600007889632,8|8,0:2|0:2,0:0:0:0:
189,64,70182,2,0,P|193:101|193:129,1,50.9600007889632,8|8,0:2|0:2,0:0:0:0:
275,232,70329,2,0,P|279:191|283:164,1,50.9600007889632,8|8,0:2|0:2,0:0:0:0:
394,89,70476,2,0,P|389:131|382:153,1,50.9600007889632,8|8,0:2|0:2,0:0:0:0:
319,315,70623,6,0,P|272:323|215:308,1,101.920001577926,4|0,3:2|0:2,0:0:0:0:
415,226,70917,2,0,P|460:217|520:238,1,101.920001577926,12|0,0:2|0:2,0:0:0:0:
296,178,71212,1,0,3:2:0:0:
416,344,71359,1,0,3:2:0:0:
445,143,71506,1,8,0:2:0:0:
292,296,71653,6,0,B|181:269|227:336|80:321,1,203.840003155853,4|0,3:2|3:2,0:0:0:0:
20,150,72094,2,0,P|31:204|37:256,1,101.920001577926,8|0,0:2|0:2,0:0:0:0:
195,60,72388,1,0,3:2:0:0:
141,235,72535,1,0,3:2:0:0:
76,21,72682,1,8,0:2:0:0:
244,176,72829,6,0,P|308:236|421:215,1,203.840003155853,4|0,3:2|3:2,0:0:0:0:
359,47,73270,2,0,P|348:101|342:153,1,101.920001577926,8|0,0:2|0:2,0:0:0:0:
260,287,73564,1,0,3:2:0:0:
436,171,73711,1,0,3:2:0:0:
236,125,73858,1,8,0:2:0:0:
480,370,74006,6,0,P|485:300|456:163,1,203.840003155853,4|0,3:2|3:2,0:0:0:0:
321,242,74447,2,0,P|311:298|310:353,1,101.920001577926,8|0,0:2|0:2,0:0:0:0:
170,125,74741,1,0,3:2:0:0:
221,322,74888,1,0,3:2:0:0:
334,143,75035,1,8,0:2:0:0:
71,232,75182,6,0,P|68:302|171:369,1,203.840003155853,4|0,3:2|3:2,0:0:0:0:
294,254,75623,2,0,P|303:201|302:147,1,101.920001577926,8|0,0:2|0:2,0:0:0:0:
377,351,75917,1,0,3:2:0:0:
197,224,76064,1,0,3:2:0:0:
401,162,76212,1,8,0:2:0:0:
237,344,76359,6,0,B|116:367|177:297|21:333,1,203.840003155853,4|0,3:2|3:2,0:0:0:0:
21,219,76800,2,0,P|21:163|40:122,1,101.920001577926,8|0,0:2|0:2,0:0:0:0:
123,314,77094,1,0,3:2:0:0:
228,146,77241,1,0,3:2:0:0:
251,377,77388,1,8,0:2:0:0:
123,196,77535,1,12,0:2:0:0:
437,250,77829,6,0,P|448:185|450:131,1,101.920001577926,12|0,0:2|3:2,0:0:0:0:
510,336,78123,1,0,3:2:0:0:
284,184,78270,2,0,P|273:119|271:65,1,101.920001577926,12|0,0:2|3:2,0:0:0:0:
213,271,78564,1,0,3:2:0:0:
423,137,78712,2,0,P|434:72|436:18,1,101.920001577926,12|0,0:2|0:0,0:0:0:0:
494,224,79006,1,0,3:2:0:0:
331,60,79153,1,12,0:2:0:0:
196,178,79300,5,8,0:2:0:0:
196,178,79373,1,8,0:2:0:0:
196,178,79447,2,0,P|159:190|135:193,1,50.9600007889632,8|8,0:3|0:3,0:0:0:0:
256,266,79594,2,0,P|280:271|304:279,1,50.9600007889632,4|4,0:3|0:3,0:0:0:0:
182,344,79741,1,8,0:2:0:0:
440,62,80035,6,0,P|427:149|419:271,1,203.840003155853,4|8,0:2|0:2,0:0:0:0:
313,105,80476,1,0,3:2:0:0:
231,217,80623,2,0,P|188:238|130:244,1,101.920001577926,8|0,0:2|3:2,0:0:0:0:
359,313,80917,2,0,P|402:334|460:337,1,101.920001577926,8|0,0:2|3:2,0:0:0:0:
169,152,81212,5,8,0:2:0:0:
263,325,81359,1,0,3:2:0:0:
276,106,81506,5,8,0:2:0:0:
177,282,81653,1,0,3:2:0:0:
193,61,81800,5,8,0:2:0:0:
312,259,81947,1,0,3:2:0:0:
349,44,82094,5,8,0:2:0:0:
240,239,82241,1,0,3:2:0:0:
409,130,82388,6,0,P|460:115|507:120,1,101.920001577926,8|0,0:2|3:2,0:0:0:0:
212,168,82682,2,0,P|165:170|110:151,1,101.920001577926,8|0,0:2|3:2,0:0:0:0:
349,234,82976,5,8,0:2:0:0:
221,71,83123,1,0,3:2:0:0:
233,281,83270,5,8,0:2:0:0:
340,114,83417,1,0,3:2:0:0:
299,359,83564,5,8,0:2:0:0:
171,163,83712,1,0,3:2:0:0:
376,191,83859,5,8,0:2:0:0:
176,302,84006,1,0,3:2:0:0:
435,276,84153,5,8,0:2:0:0:
212,163,84300,1,0,3:2:0:0:
478,123,84447,5,8,0:2:0:0:
312,274,84594,1,0,3:2:0:0:
104,90,84741,6,0,B|224:72|172:139|310:115,1,203.840003155853,12|8,0:2|0:2,0:0:0:0:
391,36,85182,1,0,3:2:0:0:
365,248,85329,2,0,P|374:175|380:133,1,101.920001577926,8|0,0:2|3:2,0:0:0:0:
226,23,85623,2,0,P|232:68|236:137,1,101.920001577926,8|0,0:2|3:2,0:0:0:0:
203,296,85917,5,8,0:2:0:0:
122,104,86064,1,0,3:2:0:0:
116,337,86212,5,8,0:2:0:0:
235,124,86359,1,0,3:2:0:0:
308,340,86506,5,8,0:2:0:0:
91,222,86653,1,0,3:2:0:0:
335,155,86800,5,8,0:2:0:0:
226,361,86947,1,0,3:2:0:0:
165,155,87094,6,0,P|117:139|60:138,1,101.920001577926,8|0,0:2|3:2,0:0:0:0:
348,311,87388,2,0,P|394:307|449:292,1,101.920001577926,8|0,0:2|3:2,0:0:0:0:
112,248,87682,1,8,0:2:0:0:
333,139,87829,1,8,3:3:0:0:
254,342,87976,1,4,0:3:0:0:
180,118,88123,6,0,P|172:59|157:14,1,101.920001577926,4|0,3:2|3:2,0:0:0:0:
359,270,88417,2,0,P|346:314|338:378,1,101.920001577926,4|0,3:2|3:2,0:0:0:0:
430,154,88712,6,0,B|303:135|336:220|214:229,1,236.599999330768,4|0,3:2|0:2,0:0:0:0:
