osu file format v14

[General]
AudioFilename: audio.mp3
AudioLeadIn: 0
PreviewTime: 51175
Countdown: 0
SampleSet: Soft
StackLeniency: 0.4
Mode: 0
LetterboxInBreaks: 0
WidescreenStoryboard: 1

[Editor]
Bookmarks: 13811,18517,23223,27929,32635,46753,51606
DistanceSpacing: 0.8
BeatDivisor: 4
GridSize: 4
TimelineZoom: 2.4

[Metadata]
Title:Lonely Go! (TV Size)
TitleUnicode:Lonely Go! (TV Size)
Artist:Brian The Sun
ArtistUnicode:Brian The Sun
Creator:Nevo
Version:Onlybiscuit's Extra
Source:BORUTO-ボルト-NARUTO NEXT GENERATIONS
Tags:mordred nelliel monstrata yukiyo aro agatsu naruto sarada uzimaki anime opening op ayyri eiri- fieryrage sotarks reform onlybiscuit
BeatmapID:1860434
BeatmapSetID:863227

[Difficulty]
HPDrainRate:5
CircleSize:3.8
OverallDifficulty:9
ApproachRate:9.2
SliderMultiplier:1.70000000596046
SliderTickRate:1

[Events]
//Background and Video events
Video,0,"brainthesun.mp4"
0,0,"818879.png",0,0
//Break Periods
//Storyboard Layer 0 (Background)
//Storyboard Layer 1 (Fail)
//Storyboard Layer 2 (Pass)
//Storyboard Layer 3 (Foreground)
//Storyboard Sound Samples

[TimingPoints]
1212,294.117647058824,4,2,1,75,1,0
1312,-133.333333333333,4,2,1,75,0,0
2388,294.117647058824,4,2,1,75,1,0
7094,-100,4,2,1,75,0,0
9300,-90.9090909090909,4,2,1,75,0,0
14006,-133.333333333333,4,2,1,60,0,0
17903,-133.333333333333,4,2,1,60,0,0
17976,-133.333333333333,4,2,1,60,0,0
18712,-100,4,2,1,75,0,0
23417,-133.333333333333,4,2,1,60,0,0
28050,-133.333333333333,4,2,1,5,0,0
28123,-100,4,2,1,75,0,0
32829,-83.3333333333333,4,2,1,85,0,1
46652,-83.3333333333333,4,2,1,75,0,0
51799,-83.3333333333333,4,2,1,85,0,1
77535,-83.3333333333333,4,2,1,75,0,0
77682,-83.3333333333333,4,2,1,75,0,0
80035,-83.3333333333333,4,2,1,85,0,1
88711,-181.818181818181,4,2,1,60,0,0
89447,-181.818181818181,4,2,1,5,0,0

[Colours]
Combo1 : 89,255,255
Combo2 : 255,219,72
Combo3 : 216,216,216
Combo4 : 255,81,81

[HitObjects]
64,102,1212,6,0,L|38:65,3,42.5000001490115,8|8|4|4,0:2|0:2|0:3|0:3,0:0:0:0:
153,147,1506,1,4,0:3:0:0:
153,147,1579,1,0,0:3:0:0:
153,147,1653,2,0,L|177:112,1,31.8750013276934,8|8,0:3|0:3,0:0:0:0:
60,198,1800,2,0,L|41:224,3,31.8750013276934,8|8|4|0,0:3|0:3|0:3|0:0,0:0:0:0:
148,253,2094,2,0,B|198:250|187:281|238:279,1,95.6250039830803,4|0,0:3|0:0,0:0:0:0:
304,211,2388,5,6,3:2:0:0:
71,67,4741,5,4,3:2:0:0:
251,333,5917,5,4,3:2:0:0:
442,145,6506,1,4,3:2:0:0:
26,297,6946,6,0,P|47:300|69:315,1,42.5000001490115,0|0,3:2|0:0,0:0:0:0:
136,363,7094,2,0,B|170:276|113:280|139:181,1,170.000000596046,4|8,0:2|0:2,0:0:0:0:
281,12,7535,1,8,0:2:0:0:
247,230,7682,1,8,0:2:0:0:
140,32,7829,1,8,0:2:0:0:
379,107,7976,1,8,0:2:0:0:
135,196,8123,1,8,0:2:0:0:
379,270,8270,5,8,0:2:0:0:
181,112,8417,1,8,0:2:0:0:
240,326,8564,1,8,0:2:0:0:
366,131,8712,1,0,3:2:0:0:
366,131,8785,1,0,0:0:0:0:
366,131,8859,1,8,0:2:0:0:
110,224,9006,1,8,0:2:0:0:
308,209,9153,1,8,0:2:0:0:
56,95,9300,6,0,B|159:90|120:163|241:152,1,187.000006362438,12|0,0:2|3:2,0:0:0:0:
394,48,9741,2,0,P|337:43|297:77,1,93.500003181219,12|0,0:2|0:2,0:0:0:0:
301,233,10035,1,0,3:2:0:0:
366,131,10182,1,0,3:2:0:0:
216,261,10329,1,8,0:2:0:0:
393,215,10476,1,0,3:2:0:0:
227,152,10623,6,0,P|182:129|128:126,1,93.500003181219,0|0,0:2|3:2,0:0:0:0:
7,288,10917,2,0,P|92:289|145:210,1,187.000006362438,8|0,0:2|3:2,0:0:0:0:
35,168,11359,1,0,3:2:0:0:
161,353,11506,1,8,0:2:0:0:
284,177,11653,6,0,P|303:257|319:366,1,187.000006362438,0|0,3:2|3:2,0:0:0:0:
428,150,12094,2,0,P|472:116|521:100,1,93.500003181219,8|0,0:2|0:2,0:0:0:0:
388,252,12388,1,0,3:2:0:0:
353,108,12535,1,0,3:2:0:0:
395,288,12682,1,8,0:2:0:0:
284,177,12829,1,0,3:2:0:0:
402,320,12976,6,0,P|439:350|482:368,1,93.500003181219,0|0,0:0|3:2,0:0:0:0:
297,196,13270,2,0,P|254:214|218:243,1,93.500003181219,8|0,0:2|0:2,0:0:0:0:
428,150,13564,1,8,0:2:0:0:
273,94,13712,1,8,0:3:0:0:
382,223,13859,1,4,0:3:0:0:
427,64,14006,6,0,B|361:61|389:106|296:99,1,127.500005310774,6|0,3:2|0:0,0:0:0:0:
162,39,14447,2,0,P|177:65|189:112,1,63.7500026553869,2|0,0:2|0:2,0:0:0:0:
258,5,14741,1,2,3:2:0:0:
308,99,14888,2,0,P|292:126|282:157,1,63.7500026553869,2|0,0:2|3:2,0:0:0:0:
135,189,15182,6,0,P|195:202|227:256,1,127.500005310774,2|0,0:2|0:0,0:0:0:0:
74,293,15623,2,0,L|136:278,1,63.7500026553869,2|0,3:2|0:2,0:0:0:0:
303,309,15917,1,2,3:2:0:0:
232,375,16064,2,0,L|170:359,1,63.7500026553869,2|0,0:2|3:2,0:0:0:0:
300,224,16359,6,0,B|370:229|353:264|416:271,1,127.500005310774,2|0,0:2|0:0,0:0:0:0:
463,139,16800,2,0,P|439:164|423:196,1,63.7500026553869,2|0,3:2|0:2,0:0:0:0:
368,40,17094,1,2,3:2:0:0:
293,94,17241,2,0,P|317:119|333:151,1,63.7500026553869,2|0,0:2|3:2,0:0:0:0:
387,18,17535,1,2,0:2:0:0:
222,146,17682,6,0,P|171:125|160:73,1,95.6250039830803,0|0,3:2|0:0,0:0:0:0:
105,28,17976,2,0,P|105:65|96:116,1,63.7500026553869,2|0,3:2|0:2,0:0:0:0:
180,229,18270,1,10,0:2:0:0:
243,28,18417,1,2,3:2:0:0:
243,28,18712,6,0,B|246:112|299:89|290:193,1,170.000000596046,12|0,0:2|3:2,0:0:0:0:
183,328,19153,2,0,P|163:285|154:235,1,85.000000298023,8|0,0:2|0:2,0:0:0:0:
340,267,19447,1,0,3:2:0:0:
249,382,19594,1,0,3:2:0:0:
290,187,19741,1,8,0:2:0:0:
348,364,19888,6,0,P|421:327|431:246,1,170.000000596046,0|0,3:2|3:2,0:0:0:0:
256,284,20329,2,0,L|341:266,1,85.000000298023,8|0,0:2|0:2,0:0:0:0:
418,123,20623,1,0,3:2:0:0:
290,187,20770,1,0,3:2:0:0:
503,198,20917,1,8,0:2:0:0:
336,58,21064,6,0,B|292:36|292:36|162:57,1,170.000000596046,0|0,3:2|3:2,0:0:0:0:
418,123,21506,2,0,P|436:79|436:36,1,85.000000298023,8|0,0:0|0:0,0:0:0:0:
281,216,21800,1,0,3:2:0:0:
228,78,21947,1,0,3:2:0:0:
376,242,22094,1,8,0:2:0:0:
185,181,22241,6,0,P|131:164|87:164,1,85.000000298023,0|0,3:2|0:2,0:0:0:0:
261,302,22535,2,0,P|303:298|343:283,1,85.000000298023,0|8,3:2|0:2,0:0:0:0:
193,153,22829,1,0,3:2:0:0:
187,364,22976,1,8,0:2:0:0:
284,138,23123,1,8,0:3:0:0:
186,268,23270,1,4,0:3:0:0:
44,102,23417,6,0,P|58:165|64:235,1,127.500005310774,6|0,0:2|0:2,0:0:0:0:
127,87,23859,2,0,P|134:51|144:21,1,63.7500026553869,2|0,3:2|0:2,0:0:0:0:
207,180,24153,1,2,3:2:0:0:
276,101,24300,2,0,P|269:65|259:35,1,63.7500026553869,2|0,0:2|0:0,0:0:0:0:
422,137,24594,6,0,B|347:149|381:185|294:198,1,127.500005310774,0|0,0:0|0:0,0:0:0:0:
484,207,25035,2,0,P|498:234|508:265,1,63.7500026553869,2|0,3:2|0:2,0:0:0:0:
435,103,25329,1,2,3:2:0:0:
376,209,25476,2,0,P|362:236|352:267,1,63.7500026553869,2|0,0:2|3:2,0:0:0:0:
296,117,25770,2,0,P|248:72|174:78,1,127.500005310774,2|0,0:2|0:2,0:0:0:0:
162,235,26212,5,0,3:2:0:0:
210,161,26359,1,0,0:2:0:0:
62,234,26506,5,0,3:2:0:0:
110,309,26653,1,0,0:2:0:0:
114,155,26800,5,0,3:2:0:0:
20,154,26947,1,2,0:2:0:0:
201,310,27094,6,0,P|233:283|246:247,1,63.7500026553869,2|0,3:2|0:2,0:0:0:0:
114,155,27388,2,0,P|129:182|155:201,1,63.7500026553869,0|0,3:2|0:2,0:0:0:0:
269,43,27682,1,8,3:2:0:0:
354,212,27829,2,0,P|389:225|396:178,1,95.6250039830803,8|0,0:2|0:2,0:0:0:0:
417,98,28123,6,0,B|325:92|356:159|250:152,1,170.000000596046,12|0,0:2|3:2,0:0:0:0:
99,36,28564,2,0,P|136:39|180:79,1,85.000000298023,8|0,0:2|0:2,0:0:0:0:
169,237,28859,1,0,3:2:0:0:
103,132,29006,1,0,3:2:0:0:
259,219,29153,1,8,0:2:0:0:
93,297,29300,6,0,B|131:336|131:336|255:327,1,170.000000596046,0|0,3:2|3:2,0:0:0:0:
186,153,29741,2,0,L|167:245,1,85.000000298023,8|0,0:2|0:2,0:0:0:0:
350,235,30035,1,0,3:2:0:0:
283,130,30182,1,0,3:2:0:0:
288,315,30329,1,8,0:2:0:0:
413,148,30476,6,0,P|429:227|438:319,1,170.000000596046,0|0,3:2|3:2,0:0:0:0:
323,103,30917,2,0,P|364:62|403:52,1,85.000000298023,8|0,0:2|0:2,0:0:0:0:
350,235,31212,1,0,3:2:0:0:
283,130,31359,1,0,3:2:0:0:
204,289,31506,1,8,0:2:0:0:
68,172,31653,6,0,P|43:129|32:87,1,85.000000298023,0|0,0:2|0:2,0:0:0:0:
179,252,31947,2,0,P|201:215|213:175,1,85.000000298023,0|8,3:2|0:2,0:0:0:0:
79,303,32241,1,0,3:2:0:0:
142,120,32388,1,8,0:2:0:0:
288,297,32535,1,8,0:3:0:0:
109,207,32682,1,4,0:3:0:0:
336,136,32829,6,0,B|351:240|399:213|398:337,1,203.999994489669,4|0,3:2|3:2,0:0:0:0:
432,138,33270,2,0,P|450:87|479:38,1,101.999997244835,8|0,0:2|3:2,0:0:0:0:
312,157,33564,6,0,P|337:201|354:250,1,101.999997244835,8|0,0:2|3:2,0:0:0:0:
469,377,33859,2,0,P|487:326|516:277,1,101.999997244835,8|0,0:2|3:2,0:0:0:0:
336,136,34153,5,8,0:2:0:0:
306,323,34300,1,0,3:2:0:0:
236,145,34447,5,8,0:2:0:0:
430,222,34594,1,0,3:2:0:0:
210,264,34741,5,8,0:2:0:0:
347,100,34888,1,0,3:2:0:0:
313,308,35035,5,8,0:2:0:0:
211,133,35182,2,0,P|147:130|74:244,1,203.999994489669,4|0,3:2|3:2,0:0:0:0:
303,204,35623,2,0,L|317:96,1,101.999997244835,8|0,0:2|3:2,0:0:0:0:
241,313,35917,6,0,L|335:352,1,101.999997244835,8|0,0:2|3:2,0:0:0:0:
167,195,36212,2,0,L|72:234,1,101.999997244835,8|0,0:2|3:2,0:0:0:0:
259,145,36506,5,8,0:2:0:0:
89,40,36653,1,0,3:2:0:0:
172,230,36800,5,8,0:2:0:0:
79,79,36947,1,0,3:2:0:0:
29,292,37094,5,8,0:2:0:0:
69,121,37241,1,0,3:2:0:0:
188,318,37388,5,8,0:2:0:0:
298,154,37535,2,0,B|404:151|373:223|487:238,1,203.999994489669,4|0,3:2|3:2,0:0:0:0:
308,60,37976,2,0,P|249:33|201:29,1,101.999997244835,8|0,0:2|3:2,0:0:0:0:
460,133,38270,6,0,P|481:65|482:29,1,101.999997244835,8|0,0:2|3:2,0:0:0:0:
298,154,38564,2,0,P|302:204|320:252,1,101.999997244835,8|0,0:2|3:2,0:0:0:0:
394,67,38859,5,8,0:2:0:0:
489,222,39006,1,0,3:2:0:0:
301,106,39153,5,8,0:2:0:0:
331,287,39300,1,0,3:2:0:0:
181,80,39447,5,8,0:2:0:0:
106,270,39594,1,0,3:2:0:0:
83,27,39741,5,8,0:2:0:0:
204,233,39888,2,0,P|288:210|295:97,1,203.999994489669,4|0,3:2|3:2,0:0:0:0:
106,270,40329,2,0,L|125:380,1,101.999997244835,8|0,0:2|3:2,0:0:0:0:
215,148,40623,6,0,L|113:125,1,101.999997244835,8|0,0:2|3:2,0:0:0:0:
223,311,40917,2,0,L|325:288,1,101.999997244835,8|0,0:2|3:2,0:0:0:0:
415,127,41212,5,8,0:2:0:0:
472,289,41359,1,0,3:2:0:0:
323,61,41506,5,8,0:2:0:0:
257,223,41653,1,0,3:2:0:0:
444,39,41800,5,8,0:2:0:0:
444,39,41873,1,0,0:0:0:0:
444,39,41947,2,0,L|466:88,1,50.9999986224174,8|0,0:3|0:0,0:0:0:0:
338,189,42094,2,0,L|358:142,1,50.9999986224174,4|0,0:3|0:0,0:0:0:0:
208,27,42241,6,0,P|146:20|83:138,1,203.999994489669,4|0,0:2|3:2,0:0:0:0:
273,135,42682,2,0,P|226:117|174:112,1,101.999997244835,8|0,0:2|3:2,0:0:0:0:
179,308,42976,6,0,L|204:207,1,101.999997244835,8|0,0:2|3:2,0:0:0:0:
3,202,43270,2,0,L|27:301,1,101.999997244835,8|0,0:2|3:2,0:0:0:0:
203,208,43564,5,8,0:2:0:0:
14,114,43712,1,0,3:2:0:0:
144,280,43859,5,8,0:2:0:0:
134,76,44006,1,0,3:2:0:0:
97,353,44153,5,8,0:2:0:0:
224,169,44300,1,0,3:2:0:0:
3,202,44447,5,8,0:2:0:0:
240,343,44594,2,0,B|352:327|324:396|473:369,1,203.999994489669,4|0,3:2|3:2,0:0:0:0:
422,179,45035,2,0,L|393:287,1,101.999997244835,8|0,0:2|3:2,0:0:0:0:
277,92,45329,6,0,P|323:58|378:47,1,101.999997244835,8|0,0:2|3:2,0:0:0:0:
510,223,45623,2,0,P|461:209|421:178,1,101.999997244835,8|0,0:2|3:2,0:0:0:0:
394,5,45917,5,8,0:2:0:0:
324,181,46064,1,0,3:2:0:0:
192,25,46212,5,8,0:2:0:0:
294,189,46359,1,0,3:2:0:0:
107,98,46506,5,8,0:2:0:0:
363,88,46653,1,0,3:2:0:0:
0,269,46947,6,0,B|108:265|69:340|192:329,1,203.999994489669,4|0,3:2|3:2,0:0:0:0:
403,258,47388,2,0,P|348:224|310:219,1,101.999997244835,8|0,0:2|0:2,0:0:0:0:
187,329,47682,1,0,3:2:0:0:
319,312,47829,1,0,3:2:0:0:
138,219,47976,2,0,P|108:164|97:118,1,101.999997244835,8|0,0:2|0:2,0:0:0:0:
249,274,48270,5,0,3:2:0:0:
295,144,48417,1,0,3:2:0:0:
416,286,48564,2,0,P|446:231|457:185,1,101.999997244835,8|0,0:2|0:2,0:0:0:0:
306,56,48859,1,0,3:2:0:0:
349,214,49006,1,0,3:2:0:0:
424,23,49153,1,8,0:2:0:0:
263,168,49300,6,0,P|202:186|132:85,1,203.999994489669,4|0,3:2|3:2,0:0:0:0:
336,112,49741,2,0,L|349:218,1,101.999997244835,8|0,0:2|3:2,0:0:0:0:
119,186,50035,2,0,L|131:84,1,101.999997244835,8|0,0:2|3:2,0:0:0:0:
280,327,50329,2,0,P|228:368|181:375,1,101.999997244835,12|0,0:2|3:2,0:0:0:0:
28,224,50623,5,8,0:2:0:0:
69,194,50697,1,8,0:2:0:0:
119,186,50770,1,8,0:2:0:0:
167,202,50844,1,8,0:2:0:0:
201,238,50917,2,0,P|203:265|198:300,1,50.9999986224174,8|8,0:2|0:2,0:0:0:0:
77,367,51064,2,0,P|74:341|76:316,1,50.9999986224174,8|8,0:2|0:2,0:0:0:0:
119,186,51212,5,4,3:2:0:0:
512,102,51800,6,0,B|399:96|439:178|296:192,1,203.999994489669,6|8,3:2|0:2,0:0:0:0:
233,88,52241,1,2,0:2:0:0:
298,268,52388,1,2,3:2:0:0:
339,97,52535,1,0,3:2:0:0:
201,238,52682,1,8,0:2:0:0:
148,138,52829,1,2,0:2:0:0:
298,268,52976,6,0,P|355:289|403:293,1,101.999997244835,2|0,3:2|0:2,0:0:0:0:
245,113,53270,2,0,P|194:119|147:138,1,101.999997244835,8|0,0:2|0:2,0:0:0:0:
89,325,53564,1,2,3:2:0:0:
224,208,53712,1,0,3:2:0:0:
37,165,53859,1,10,0:2:0:0:
162,270,54006,1,0,0:2:0:0:
326,83,54153,6,0,P|389:62|480:164,1,203.999994489669,2|8,3:2|0:2,0:0:0:0:
445,268,54594,1,2,0:2:0:0:
258,190,54741,1,2,3:2:0:0:
387,158,54888,1,0,3:2:0:0:
281,303,55035,1,8,0:2:0:0:
398,346,55182,1,2,0:2:0:0:
231,163,55329,6,0,B|184:144|184:144|36:202,1,203.999994489669,2|8,3:2|0:2,0:0:0:0:
250,83,55770,1,2,0:2:0:0:
314,279,55917,2,0,P|384:270|413:143,1,203.999994489669,2|8,3:2|0:2,0:0:0:0:
340,85,56359,1,0,0:2:0:0:
215,258,56506,6,0,P|221:323|237:359,1,101.999997244835,2|0,3:2|0:2,0:0:0:0:
334,180,56800,2,0,P|328:245|312:281,1,101.999997244835,10|0,0:2|0:2,0:0:0:0:
222,109,57094,1,2,3:2:0:0:
340,85,57241,1,0,0:0:0:0:
185,191,57388,2,0,P|139:151|130:106,1,101.999997244835,10|0,0:2|0:2,0:0:0:0:
406,38,57682,6,0,B|290:36|352:107|202:109,1,203.999994489669,2|10,3:2|0:2,0:0:0:0:
152,32,58123,1,0,0:2:0:0:
80,189,58270,1,2,3:2:0:0:
0,89,58417,1,0,3:2:0:0:
185,191,58564,2,0,P|244:195|294:181,1,101.999997244835,10|0,0:2|0:2,0:0:0:0:
20,109,58859,6,0,P|41:217|50:315,1,203.999994489669,2|8,3:2|0:2,0:0:0:0:
164,217,59300,1,2,0:2:0:0:
296,358,59447,1,2,3:2:0:0:
162,312,59594,1,0,3:2:0:0:
352,267,59741,2,0,P|388:309|399:360,1,101.999997244835,8|0,0:2|0:2,0:0:0:0:
274,142,60035,5,0,3:2:0:0:
431,187,60182,1,0,3:2:0:0:
249,270,60329,1,12,0:2:0:0:
355,164,60476,1,0,0:2:0:0:
279,351,60623,1,8,0:2:0:0:
241,366,60697,1,8,0:2:0:0:
200,361,60770,1,8,0:2:0:0:
170,331,60844,1,8,0:2:0:0:
161,291,60917,2,0,P|160:262|169:232,1,50.9999986224174,8|8,0:2|0:2,0:0:0:0:
274,142,61064,2,0,P|279:166|278:192,1,50.9999986224174,8|8,0:2|0:2,0:0:0:0:
67,62,61212,6,0,P|123:41|170:36,1,101.999997244835,6|0,3:2|0:2,0:0:0:0:
277,192,61506,2,0,P|226:184|179:166,1,101.999997244835,12|0,0:2|0:2,0:0:0:0:
343,51,61800,1,0,3:2:0:0:
433,189,61947,1,0,3:2:0:0:
262,105,62094,2,0,L|248:-1,1,101.999997244835,10|2,0:0|0:0,0:0:0:0:
417,106,62388,5,0,3:2:0:0:
277,192,62535,1,0,3:2:0:0:
439,275,62682,2,0,L|452:376,1,101.999997244835,8|2,0:2|0:2,0:0:0:0:
355,190,62976,1,2,3:2:0:0:
287,343,63123,1,2,3:2:0:0:
193,171,63270,1,8,0:2:0:0:
324,263,63417,1,2,0:2:0:0:
135,338,63564,6,0,P|84:316|52:266,1,101.999997244835,8|0,3:2|0:2,0:0:0:0:
160,92,63859,1,8,0:3:0:0:
235,265,64006,1,8,0:3:0:0:
79,116,64153,1,4,0:3:0:0:
245,61,64300,1,4,0:3:0:0:
138,248,64447,6,0,P|129:141|108:35,1,203.999994489669,12|0,0:2|0:0,0:0:0:0:
243,227,64888,1,0,3:2:0:0:
362,67,65035,2,0,P|413:47|469:41,1,101.999997244835,8|0,0:2|0:0,0:0:0:0:
302,151,65329,1,2,3:2:0:0:
430,187,65476,2,0,P|474:211|511:246,1,101.999997244835,2|12,3:2|0:2,0:0:0:0:
379,100,65770,1,2,0:2:0:0:
340,298,65917,6,0,P|300:343|160:315,1,203.999994489669,4|10,3:2|0:2,0:0:0:0:
243,227,66359,1,2,0:2:0:0:
71,323,66506,1,0,3:2:0:0:
253,258,66653,1,0,3:2:0:0:
68,202,66800,2,0,P|43:138|38:98,1,101.999997244835,10|2,0:2|0:2,0:0:0:0:
272,26,67094,6,0,P|231:115|134:128,1,203.999994489669,4|10,3:2|0:2,0:0:0:0:
168,25,67535,1,2,0:2:0:0:
307,160,67682,1,0,3:2:0:0:
133,127,67829,1,0,3:2:0:0:
358,57,67976,2,0,P|412:63|464:79,1,101.999997244835,10|2,0:2|0:2,0:0:0:0:
290,184,68270,5,4,3:2:0:0:
418,245,68417,1,0,3:2:0:0:
358,57,68564,1,8,0:2:0:0:
332,267,68712,1,8,0:3:0:0:
512,139,68859,1,8,0:3:0:0:
307,160,69006,1,4,0:3:0:0:
454,265,69153,1,4,0:3:0:0:
400,156,69300,1,4,0:3:0:0:
294,369,69447,5,10,0:2:0:0:
93,82,69741,1,6,0:2:0:0:
43,204,69888,1,8,0:2:0:0:
43,204,69962,1,8,0:2:0:0:
43,204,70035,2,0,L|27:278,1,50.9999986224174,8|8,0:2|0:2,0:0:0:0:
148,143,70182,2,0,L|137:93,1,50.9999986224174,8|8,0:2|0:2,0:0:0:0:
248,219,70329,2,0,L|232:293,1,50.9999986224174,8|8,0:2|0:2,0:0:0:0:
353,158,70476,2,0,L|342:108,1,50.9999986224174,8|8,0:2|0:2,0:0:0:0:
414,310,70623,6,0,L|512:338,1,101.999997244835,4|0,3:2|0:2,0:0:0:0:
346,190,70917,2,0,L|248:218,1,101.999997244835,12|0,0:2|0:2,0:0:0:0:
468,189,71212,1,0,3:2:0:0:
317,87,71359,1,0,3:2:0:0:
398,278,71506,1,8,0:2:0:0:
503,30,71653,6,0,B|392:19|456:96|311:86,1,203.999994489669,4|0,3:2|3:2,0:0:0:0:
109,32,72094,2,0,P|164:9|231:2,1,101.999997244835,8|0,0:2|0:2,0:0:0:0:
114,163,72388,1,0,3:2:0:0:
10,49,72535,1,0,3:2:0:0:
214,120,72682,1,8,0:2:0:0:
3,214,72829,6,0,P|96:314|168:275,1,203.999994489669,4|0,3:2|3:2,0:0:0:0:
104,125,73270,2,0,L|91:226,1,101.999997244835,8|0,0:2|0:2,0:0:0:0:
235,350,73564,1,0,3:2:0:0:
201,207,73712,1,0,3:2:0:0:
73,384,73859,1,8,0:2:0:0:
269,272,74006,6,0,B|314:246|314:246|493:270,1,203.999994489669,4|0,3:2|3:2,0:0:0:0:
233,366,74447,2,0,P|186:328|172:282,1,101.999997244835,8|0,0:2|0:2,0:0:0:0:
312,155,74741,1,0,3:2:0:0:
331,334,74888,1,0,3:2:0:0:
213,160,75035,1,8,0:2:0:0:
464,266,75182,6,0,L|487:60,1,203.999994489669,4|0,3:2|3:2,0:0:0:0:
337,253,75623,2,0,L|310:149,1,101.999997244835,8|0,0:2|0:2,0:0:0:0:
141,272,75917,1,0,3:2:0:0:
213,160,76064,1,0,3:2:0:0:
187,354,76212,1,8,0:2:0:0:
33,156,76359,6,0,B|147:138|114:211|248:188,1,203.999994489669,4|0,3:2|3:2,0:0:0:0:
347,44,76800,2,0,P|290:45|240:68,1,101.999997244835,8|0,0:2|0:2,0:0:0:0:
401,179,77094,1,0,3:2:0:0:
441,36,77241,1,0,3:2:0:0:
314,175,77388,1,8,0:2:0:0:
192,0,77535,1,12,0:2:0:0:
98,272,77829,6,0,L|80:373,1,101.999997244835,12|0,0:2|3:2,0:0:0:0:
282,164,78123,1,0,3:2:0:0:
208,231,78270,2,0,L|226:332,1,101.999997244835,12|0,0:2|3:2,0:0:0:0:
20,76,78564,1,0,3:2:0:0:
94,143,78711,2,0,L|76:244,1,101.999997244835,12|0,0:2|0:0,0:0:0:0:
189,48,79006,5,0,3:2:0:0:
286,191,79153,1,12,0:2:0:0:
400,42,79300,1,8,0:2:0:0:
400,42,79373,1,8,0:2:0:0:
400,42,79447,2,0,L|420:99,1,50.9999986224174,8|8,0:3|0:3,0:0:0:0:
279,159,79594,2,0,L|295:110,1,50.9999986224174,4|4,0:3|0:3,0:0:0:0:
423,233,79741,1,8,0:2:0:0:
423,233,80035,6,0,P|388:257|319:270,1,101.999997244835,4|0,0:2|0:2,0:0:0:0:
203,73,80329,2,0,P|252:82|295:110,1,101.999997244835,8|0,0:2|3:2,0:0:0:0:
100,252,80623,2,0,P|85:143|63:40,1,203.999994489669,8|8,0:2|0:2,0:0:0:0:
9,230,81064,1,0,3:2:0:0:
203,73,81212,5,8,0:2:0:0:
283,263,81359,1,0,3:2:0:0:
84,134,81506,5,8,0:2:0:0:
295,110,81653,1,0,3:2:0:0:
115,288,81800,5,8,0:2:0:0:
310,149,81947,1,0,3:2:0:0:
222,358,82094,5,8,0:2:0:0:
189,115,82241,1,0,3:2:0:0:
328,285,82388,6,0,L|353:385,1,101.999997244835,8|0,0:2|3:2,0:0:0:0:
470,200,82682,2,0,L|494:101,1,101.999997244835,8|0,0:2|3:2,0:0:0:0:
203,141,82976,2,0,B|315:137|284:217|400:215,1,203.999994489669,8|8,0:2|0:2,0:0:0:0:
295,34,83417,1,0,3:2:0:0:
178,249,83564,5,8,0:2:0:0:
39,97,83712,1,0,3:2:0:0:
336,116,83859,5,8,0:2:0:0:
104,171,84006,1,0,3:2:0:0:
261,0,84153,5,8,0:2:0:0:
181,224,84300,1,0,3:2:0:0:
384,35,84447,5,8,0:2:0:0:
472,237,84594,1,0,3:2:0:0:
221,106,84741,6,0,P|146:71|111:69,1,101.999997244835,12|0,0:2|3:2,0:0:0:0:
258,293,85035,2,0,P|307:282|351:255,1,101.999997244835,8|0,0:2|3:2,0:0:0:0:
261,0,85329,2,0,B|249:99|299:86|270:215,1,203.999994489669,8|8,0:2|0:2,0:0:0:0:
359,38,85770,1,0,3:2:0:0:
181,224,85917,5,8,0:2:0:0:
417,180,86064,1,0,3:2:0:0:
166,78,86212,5,8,0:2:0:0:
254,323,86359,1,0,3:2:0:0:
330,61,86506,5,8,0:2:0:0:
95,160,86653,1,0,3:2:0:0:
329,243,86800,5,8,0:2:0:0:
248,26,86947,1,0,3:2:0:0:
92,280,87094,6,0,P|129:331|263:313,1,203.999994489669,8|8,0:2|0:2,0:0:0:0:
345,91,87535,1,0,3:2:0:0:
189,246,87682,1,8,0:2:0:0:
438,172,87829,1,8,3:3:0:0:
265,157,87976,1,4,0:3:0:0:
410,379,88123,1,4,3:2:0:0:
452,85,88417,1,4,3:2:0:0:
171,277,88712,1,4,3:2:0:0:
