osu file format v14

[General]
AudioFilename: audio.mp3
AudioLeadIn: 0
PreviewTime: 51175
Countdown: 0
SampleSet: Soft
StackLeniency: 0.6
Mode: 0
LetterboxInBreaks: 0
WidescreenStoryboard: 1

[Editor]
DistanceSpacing: 0.1
BeatDivisor: 4
GridSize: 4
TimelineZoom: 2.4

[Metadata]
Title:Lonely Go! (TV Size)
TitleUnicode:Lonely Go! (TV Size)
Artist:Brian The Sun
ArtistUnicode:Brian The Sun
Creator:Nevo
Version:Nelliel's Normal
Source:BORUTO-ボルト-NARUTO NEXT GENERATIONS
Tags:mordred nelliel monstrata yukiyo aro agatsu naruto sarada uzimaki anime opening op ayyri eiri- fieryrage sotarks reform onlybiscuit
BeatmapID:1807643
BeatmapSetID:863227

[Difficulty]
HPDrainRate:3
CircleSize:3.5
OverallDifficulty:4
ApproachRate:5
SliderMultiplier:1.00000000596046
SliderTickRate:1

[Events]
//Background and Video events
0,0,"818879.png",0,0
Video,0,"brainthesun.mp4"
//Break Periods
//Storyboard Layer 0 (Background)
//Storyboard Layer 1 (Fail)
//Storyboard Layer 2 (Pass)
//Storyboard Layer 3 (Foreground)
//Storyboard Sound Samples

[TimingPoints]
1212,294.117647058824,4,2,1,75,1,0
2388,294.117647058824,4,2,1,75,1,0
14006,-100,4,2,1,60,0,0
18712,-100,4,2,1,75,0,0
23417,-100,4,2,1,60,0,0
28050,-100,4,2,1,5,0,0
28123,-100,4,2,1,75,0,0
32829,-100,4,2,1,85,0,1
46652,-100,4,2,1,75,0,0
51799,-100,4,2,1,85,0,1
77535,-100,4,2,1,75,0,1
77682,-100,4,2,1,75,0,0
80035,-100,4,2,1,85,0,1
88711,-100,4,2,1,60,0,0
89447,-100,4,2,1,5,0,0

[Colours]
Combo1 : 89,255,255
Combo2 : 255,219,72
Combo3 : 216,216,216
Combo4 : 255,81,81

[HitObjects]
50,136,2388,6,0,B|108:150|108:150|256:128,1,200.000001192092,6|0,3:0|0:0,0:0:0:0:
377,55,3417,1,0,0:0:0:0:
377,55,3564,2,0,L|374:168,1,100.000000596046,0|0,0:0|0:0,0:0:0:0:
326,243,4153,2,0,L|328:342,1,100.000000596046,0|0,0:0|0:0,0:0:0:0:
237,384,4741,6,0,P|195:358|143:348,1,100.000000596046,4|0,3:2|0:0,0:0:0:0:
97,362,5182,1,0,0:0:0:0:
97,362,5329,2,0,P|123:320|133:268,1,100.000000596046,0|0,0:0|0:0,0:0:0:0:
98,176,5917,2,0,P|72:134|62:82,1,100.000000596046,4|0,3:2|0:0,0:0:0:0:
150,38,6506,2,0,B|214:41|214:41|241:59|241:59|310:63,1,150.000000894069,4|0,3:2|3:2,0:0:0:0:
338,38,7094,6,0,L|461:44,1,100.000000596046,4|8,0:2|0:2,0:0:0:0:
468,137,7682,2,0,L|368:141,1,100.000000596046,8|8,0:2|0:2,0:0:0:0:
276,182,8270,1,8,0:2:0:0:
177,164,8564,1,8,0:2:0:0:
78,182,8859,2,0,L|17:183,1,50.000000298023,8|8,0:2|0:2,0:0:0:0:
26,282,9300,6,0,L|138:280,1,100.000000596046,12|0,0:2|3:2,0:0:0:0:
173,297,9741,2,0,L|272:298,1,100.000000596046,12|0,0:2|3:2,0:0:0:0:
368,328,10329,1,8,0:2:0:0:
368,328,10476,2,0,P|357:268|363:212,1,100.000000596046,0|0,3:2|3:2,0:0:0:0:
391,190,10917,2,0,P|402:130|396:74,1,100.000000596046,8|0,0:2|3:2,0:0:0:0:
337,12,11506,1,8,0:2:0:0:
337,12,11653,6,0,L|237:10,1,100.000000596046,0|0,3:2|3:2,0:0:0:0:
197,41,12094,2,0,L|97:42,1,100.000000596046,8|0,0:2|3:2,0:0:0:0:
13,98,12682,1,8,0:2:0:0:
13,98,12829,2,0,P|31:146|42:205,1,100.000000596046,0|0,3:2|3:2,0:0:0:0:
37,243,13270,1,8,0:2:0:0:
68,337,13564,2,0,L|23:360,2,50.000000298023,8|8|4,0:2|0:3|0:3,0:0:0:0:
118,340,14006,6,0,P|170:355|237:351,1,100.000000596046,6|0,3:2|0:0,0:0:0:0:
257,327,14447,2,0,P|309:311|376:316,1,100.000000596046,2|2,0:2|3:2,0:0:0:0:
449,344,15035,1,0,3:2:0:0:
485,250,15329,2,0,L|487:141,1,100.000000596046,0|2,3:2|3:2,0:0:0:0:
422,73,15917,1,2,3:2:0:0:
326,104,16212,1,0,3:2:0:0:
229,78,16506,6,0,L|120:80,1,100.000000596046,0|2,3:2|3:2,0:0:0:0:
69,160,17094,2,0,L|124:160,1,50.000000298023,2|2,3:2|0:2,0:0:0:0:
200,219,17535,2,0,B|231:261|231:261|227:362,1,150.000000894069,2|2,0:2|3:2,0:0:0:0:
327,362,18270,2,0,L|329:303,1,50.000000298023,10|2,0:2|3:2,0:0:0:0:
346,214,18712,6,0,B|314:227|274:215|274:215|229:202|186:224,1,150.000000894069,12|8,0:2|0:2,0:0:0:0:
99,207,19447,2,0,P|114:153|112:104,1,100.000000596046,0|8,3:2|0:2,0:0:0:0:
140,68,19888,2,0,P|217:83|298:65,1,150.000000894069,0|8,3:2|0:2,0:0:0:0:
382,41,20623,2,0,L|380:147,1,100.000000596046,0|8,3:2|0:2,0:0:0:0:
414,177,21064,6,0,L|416:331,2,150.000000894069,0|8|0,3:2|0:0|3:2,0:0:0:0:
314,189,22241,2,0,P|238:202|162:189,1,150.000000894069,0|8,3:2|0:2,0:0:0:0:
70,162,22976,2,0,L|34:120,2,50.000000298023,8|8|4,0:2|0:3|0:3,0:0:0:0:
65,211,23417,6,0,P|64:260|72:317,1,100.000000596046,6|0,0:2|0:2,0:0:0:0:
106,345,23859,2,0,P|155:346|212:338,1,100.000000596046,2|2,3:2|3:2,0:0:0:0:
301,365,24447,1,0,0:0:0:0:
391,318,24741,2,0,L|396:211,1,100.000000596046,0|2,3:2|3:2,0:0:0:0:
381,119,25329,1,2,3:2:0:0:
298,62,25623,1,0,3:2:0:0:
210,109,25917,6,0,L|110:104,1,100.000000596046,0|0,3:2|3:2,0:0:0:0:
103,204,26506,2,0,L|202:208,1,100.000000596046,0|0,3:2|3:2,0:0:0:0:
281,273,27094,1,2,3:2:0:0:
380,264,27388,1,0,3:2:0:0:
479,251,27682,2,0,L|481:201,1,50.000000298023,8|8,3:2|0:2,0:0:0:0:
435,111,28123,6,0,P|358:114|286:84,1,150.000000894069,12|8,0:2|0:2,0:0:0:0:
190,67,28859,2,0,P|125:73|83:85,1,100.000000596046,0|8,3:2|0:2,0:0:0:0:
48,107,29300,2,0,B|71:157|71:157|51:263,1,150.000000894069,0|8,3:2|0:2,0:0:0:0:
92,342,30035,2,0,P|144:331|205:333,1,100.000000596046,0|8,3:2|0:2,0:0:0:0:
240,334,30476,6,0,P|314:352|393:346,2,150.000000894069,0|8|0,3:2|0:2|3:2,0:0:0:0:
184,250,31653,2,0,L|182:91,1,150.000000894069,0|8,0:2|0:2,0:0:0:0:
114,27,32388,2,0,L|54:27,2,50.000000298023,8|8|4,0:2|0:3|0:3,0:0:0:0:
157,2,32829,6,0,L|257:3,1,100.000000596046,4|0,3:2|3:2,0:0:0:0:
302,23,33270,1,8,0:2:0:0:
384,79,33564,2,0,L|385:179,1,100.000000596046,8|8,0:2|0:2,0:0:0:0:
361,276,34153,2,0,P|305:281|257:269,1,100.000000596046,8|8,0:2|0:2,0:0:0:0:
183,209,34741,1,8,0:2:0:0:
83,220,35035,1,8,0:2:0:0:
83,220,35182,6,0,L|82:111,1,100.000000596046,4|0,3:2|3:2,0:0:0:0:
83,70,35623,1,8,0:2:0:0:
177,38,35917,2,0,L|286:37,1,100.000000596046,8|8,0:2|0:2,0:0:0:0:
373,65,36506,2,0,P|369:130|383:174,1,100.000000596046,8|8,0:2|0:2,0:0:0:0:
442,239,37094,1,8,0:2:0:0:
389,323,37388,1,8,0:2:0:0:
389,323,37535,6,0,L|290:319,1,100.000000596046,4|0,3:2|3:2,0:0:0:0:
246,292,37976,2,0,L|147:296,1,100.000000596046,8|8,0:2|0:2,0:0:0:0:
66,236,38564,1,8,0:2:0:0:
138,166,38859,2,0,P|191:170|237:162,1,100.000000596046,8|8,0:2|0:2,0:0:0:0:
311,95,39447,1,8,0:2:0:0:
406,125,39741,1,8,0:2:0:0:
406,125,39888,6,0,L|406:236,1,100.000000596046,4|0,3:2|3:2,0:0:0:0:
374,263,40329,2,0,L|374:363,1,100.000000596046,8|8,0:2|0:2,0:0:0:0:
473,363,40917,1,8,0:2:0:0:
506,268,41212,2,0,P|511:219|506:168,1,100.000000596046,8|8,0:2|0:2,0:0:0:0:
484,71,41800,1,8,0:2:0:0:
387,43,42094,1,4,0:3:0:0:
387,43,42241,6,0,L|283:45,1,100.000000596046,4|0,0:2|3:2,0:0:0:0:
241,66,42682,2,0,L|141:64,1,100.000000596046,8|8,0:2|0:2,0:0:0:0:
43,87,43270,1,8,0:2:0:0:
63,184,43564,2,0,P|68:235|64:290,1,100.000000596046,8|8,0:2|0:2,0:0:0:0:
33,378,44153,1,8,0:2:0:0:
132,372,44447,1,8,0:2:0:0:
132,372,44594,6,0,L|232:374,1,100.000000596046,4|0,3:2|3:2,0:0:0:0:
276,351,45035,2,0,L|376:349,1,100.000000596046,8|8,0:2|0:2,0:0:0:0:
463,300,45623,1,8,0:2:0:0:
431,204,45917,2,0,P|413:151|410:91,1,100.000000596046,8|8,0:2|0:2,0:0:0:0:
373,13,46506,2,0,L|305:12,1,50.000000298023,8|0,0:2|3:2,0:0:0:0:
244,74,46947,6,0,P|238:123|222:170,1,100.000000596046,4|0,3:2|3:2,0:0:0:0:
185,204,47388,2,0,P|190:253|206:300,1,100.000000596046,8|0,0:2|3:2,0:0:0:0:
292,351,47976,1,8,0:2:0:0:
387,321,48270,2,0,L|391:210,1,100.000000596046,0|8,3:2|0:2,0:0:0:0:
396,120,48859,1,0,3:2:0:0:
350,31,49153,1,8,0:2:0:0:
350,31,49300,6,0,P|280:46|196:22,1,150.000000894069,4|8,3:2|0:2,0:0:0:0:
113,66,50035,2,0,P|131:137|116:210,1,150.000000894069,8|0,0:2|3:2,0:0:0:0:
112,260,50623,2,0,L|211:259,1,100.000000596046,8|8,0:2|0:2,0:0:0:0:
305,295,51212,1,4,3:2:0:0:
387,112,51800,6,0,L|284:110,1,100.000000596046,6|8,3:2|0:2,0:0:0:0:
193,74,52388,2,0,L|93:75,1,100.000000596046,2|8,3:2|0:2,0:0:0:0:
47,54,52829,1,2,0:2:0:0:
47,54,52976,2,0,P|53:108|45:157,1,100.000000596046,2|8,3:2|0:2,0:0:0:0:
1,242,53564,2,0,P|-5:296|3:345,1,100.000000596046,2|10,3:2|0:2,0:0:0:0:
95,376,54153,6,0,L|199:376,1,100.000000596046,2|8,3:2|0:2,0:0:0:0:
234,345,54594,1,2,0:2:0:0:
234,345,54741,2,0,L|338:345,1,100.000000596046,2|8,3:2|0:2,0:0:0:0:
340,245,55329,2,0,L|240:245,1,100.000000596046,2|8,3:2|0:2,0:0:0:0:
156,190,55917,2,0,L|56:190,1,100.000000596046,2|8,3:2|0:2,0:0:0:0:
0,106,56506,6,0,P|36:73|84:50,1,100.000000596046,2|10,3:2|0:2,0:0:0:0:
182,52,57094,1,0,3:0:0:0:
251,123,57388,2,0,P|287:155|335:178,1,100.000000596046,10|2,0:2|3:2,0:0:0:0:
422,158,57976,1,10,0:0:0:0:
492,228,58270,2,0,P|478:275|452:318,1,100.000000596046,2|10,3:2|0:2,0:0:0:0:
358,355,58859,6,0,L|349:256,1,100.000000596046,2|8,3:2|0:2,0:0:0:0:
259,210,59447,2,0,L|267:110,1,100.000000596046,2|8,3:2|0:2,0:0:0:0:
333,35,60035,1,0,3:2:0:0:
239,0,60329,1,12,0:2:0:0:
170,72,60623,2,0,L|62:73,1,100.000000596046,8|8,0:2|0:2,0:0:0:0:
29,102,61064,6,0,P|34:181|16:261,1,150.000000894069,8|12,0:2|0:2,0:0:0:0:
5,349,61800,1,0,3:2:0:0:
104,357,62094,1,10,0:2:0:0:
104,357,62241,2,0,P|162:367|215:360,1,100.000000596046,2|0,0:2|3:2,0:0:0:0:
294,324,62829,1,2,0:2:0:0:
294,324,62976,2,0,L|353:332,2,50.000000298023,2|2|8,3:2|3:2|0:2,0:0:0:0:
266,282,63417,6,0,B|237:241|237:241|255:127,1,150.000000894069,2|8,0:2|0:3,0:0:0:0:
320,68,64153,1,4,0:3:0:0:
233,16,64447,2,0,P|183:29|116:20,2,100.000000596046,12|0|8,0:2|0:0|0:2,0:0:0:0:
320,68,65329,2,0,L|319:134,1,50.000000298023,2|2,3:2|3:2,0:0:0:0:
377,199,65770,6,0,L|378:313,1,100.000000596046,2|0,0:2|0:2,0:0:0:0:
356,344,66212,1,10,0:2:0:0:
356,344,66359,2,0,P|299:340|250:343,1,100.000000596046,2|0,0:2|3:2,0:0:0:0:
162,376,66947,2,0,P|105:380|56:377,1,100.000000596046,2|0,0:2|0:2,0:0:0:0:
15,359,67388,1,10,0:2:0:0:
15,359,67535,2,0,L|20:250,1,100.000000596046,2|0,0:2|3:2,0:0:0:0:
72,174,68123,6,0,L|67:65,2,100.000000596046,2|0|8,0:2|3:2|0:3,0:0:0:0:
108,208,68859,2,0,L|170:206,2,50.000000298023,8|4|4,0:3|0:3|0:3,0:0:0:0:
19,259,69447,1,10,0:2:0:0:
19,259,70623,6,0,L|123:262,1,100.000000596046,4|12,3:2|0:2,0:0:0:0:
198,200,71212,2,0,L|297:197,1,100.000000596046,0|8,3:2|0:2,0:0:0:0:
347,196,71653,2,0,P|333:278|354:364,1,150.000000894069,4|8,3:2|0:2,0:0:0:0:
445,342,72388,2,0,P|453:291|448:239,1,100.000000596046,0|8,3:2|0:2,0:0:0:0:
432,196,72829,6,0,P|419:122|433:49,1,150.000000894069,4|8,3:2|0:2,0:0:0:0:
337,18,73564,2,0,L|232:26,1,100.000000596046,0|8,3:2|0:2,0:0:0:0:
196,55,74006,2,0,L|40:43,1,150.000000894069,4|8,3:2|0:2,0:0:0:0:
54,143,74741,2,0,L|159:151,1,100.000000596046,0|8,3:2|0:2,0:0:0:0:
195,177,75182,6,0,P|187:253|205:328,1,150.000000894069,4|8,3:2|0:2,0:0:0:0:
303,331,75917,2,0,P|310:281|304:232,1,100.000000596046,0|8,3:2|0:2,0:0:0:0:
287,184,76359,2,0,L|446:184,1,150.000000894069,4|8,3:2|0:2,0:0:0:0:
413,86,77094,2,0,L|303:86,1,100.000000596046,0|8,3:2|0:2,0:0:0:0:
265,72,77535,1,12,0:2:0:0:
190,138,77829,6,0,L|121:137,2,50.000000298023,12|0|0,0:2|3:2|3:2,0:0:0:0:
230,167,78270,2,0,P|232:222|223:272,1,100.000000596046,12|0,0:2|3:2,0:0:0:0:
213,315,78712,2,0,L|318:322,1,100.000000596046,12|0,0:2|3:2,0:0:0:0:
357,343,79153,2,0,B|339:282|339:282|387:135,1,200.000001192092,12|8,0:2|0:2,0:0:0:0:
417,58,80035,5,4,0:2:0:0:
319,35,80329,1,8,0:2:0:0:
319,35,80476,2,0,L|205:42,1,100.000000596046,0|0,3:2|3:2,0:0:0:0:
127,81,81064,2,0,P|136:134|126:188,1,100.000000596046,0|0,3:2|3:2,0:0:0:0:
102,222,81506,1,8,0:2:0:0:
102,222,81653,2,0,P|93:275|103:329,1,100.000000596046,0|0,3:2|3:2,0:0:0:0:
147,334,82094,2,0,P|187:338|211:346,1,50.000000298023,8|0,0:2|3:2,0:0:0:0:
237,369,82388,6,0,L|347:359,1,100.000000596046,8|8,0:2|0:2,0:0:0:0:
392,277,82976,2,0,L|491:286,1,100.000000596046,8|8,0:2|0:2,0:0:0:0:
503,186,83564,2,0,L|403:176,1,100.000000596046,8|8,0:2|0:2,0:0:0:0:
313,131,84153,2,0,L|213:141,1,100.000000596046,8|8,0:2|0:2,0:0:0:0:
164,130,84594,6,0,P|157:179|161:229,1,100.000000596046,0|0,3:2|3:2,0:0:0:0:
180,275,85035,1,8,0:2:0:0:
180,275,85182,2,0,P|229:281|279:277,1,100.000000596046,0|0,3:2|3:2,0:0:0:0:
364,225,85770,2,0,P|413:218|463:222,1,100.000000596046,0|0,3:2|3:2,0:0:0:0:
508,244,86212,1,8,0:2:0:0:
508,244,86359,2,0,P|514:194|510:144,1,100.000000596046,0|0,3:2|3:2,0:0:0:0:
482,103,86800,2,0,P|478:78|480:53,1,50.000000298023,8|0,0:2|3:2,0:0:0:0:
486,3,87094,5,8,0:2:0:0:
389,30,87388,2,0,L|384:83,2,50.000000298023,8|0|8,0:2|3:2|0:2,0:0:0:0:
344,7,87829,2,0,L|291:2,1,50.000000298023,8|4,3:3|0:3,0:0:0:0:
249,25,88123,2,0,L|144:33,1,100.000000596046,4|4,3:2|3:2,0:0:0:0:
51,10,88712,1,4,3:2:0:0:
