osu file format v14

[General]
AudioFilename: audio.mp3
AudioLeadIn: 0
PreviewTime: 51175
Countdown: 0
SampleSet: Soft
StackLeniency: 0.6
Mode: 0
LetterboxInBreaks: 0
WidescreenStoryboard: 1

[Editor]
DistanceSpacing: 0.1
BeatDivisor: 4
GridSize: 32
TimelineZoom: 2.9

[Metadata]
Title:Lonely Go! (TV Size)
TitleUnicode:Lonely Go! (TV Size)
Artist:Brian The Sun
ArtistUnicode:Brian The Sun
Creator:Nevo
Version:Mordred's Insane
Source:BORUTO-ボルト-NARUTO NEXT GENERATIONS
Tags:mordred nelliel monstrata yukiyo aro agatsu naruto sarada uzimaki anime opening op ayyri eiri- fieryrage sotarks reform onlybiscuit
BeatmapID:1809107
BeatmapSetID:863227

[Difficulty]
HPDrainRate:7
CircleSize:4
OverallDifficulty:8
ApproachRate:9
SliderMultiplier:1.60000000596046
SliderTickRate:1

[Events]
//Background and Video events
0,0,"818879.png",0,0
Video,0,"brainthesun.mp4"
//Break Periods
//Storyboard Layer 0 (Background)
//Storyboard Layer 1 (Fail)
//Storyboard Layer 2 (Pass)
//Storyboard Layer 3 (Foreground)
//Storyboard Sound Samples

[TimingPoints]
1212,294.117647058824,4,2,1,75,1,0
1312,-133.333333333333,4,2,1,75,0,0
2388,294.117647058824,4,2,1,75,1,0
7094,-100,4,2,1,75,0,0
14006,-133.333333333333,4,2,1,60,0,0
17682,-100,4,2,1,60,0,0
18712,-100,4,2,1,75,0,0
23417,-133.333333333333,4,2,1,60,0,0
28050,-133.333333333333,4,2,1,5,0,0
28123,-100,4,2,1,75,0,0
32829,-83.3333333333333,4,2,1,85,0,0
46653,-83.3333333333333,4,2,1,75,0,0
51799,-76.9230769230769,4,2,1,85,0,1
70623,-76.9230769230769,4,2,1,85,0,0
77535,-76.9230769230769,4,2,1,75,0,0
78270,-66.6666666666667,4,2,1,75,0,0
78712,-58.8235294117647,4,2,1,75,0,0
80035,-83.3333333333333,4,2,1,85,0,1
88711,-181.818181818181,4,2,1,60,0,0
89447,-181.818181818181,4,2,1,5,0,0

[Colours]
Combo1 : 89,255,255
Combo2 : 255,219,72
Combo3 : 255,128,192
Combo4 : 255,81,81

[HitObjects]
45,155,1212,5,8,3:2:0:0:
45,155,1285,1,0,3:2:0:0:
45,155,1359,1,0,3:3:0:0:
45,155,1432,1,0,3:3:0:0:
45,155,1506,2,0,L|94:154,1,30.0000012561679,8|0,0:3|3:3,0:3:0:0:
149,261,1653,5,8,3:3:0:0:
149,261,1726,1,0,3:3:0:0:
149,261,1800,1,0,3:3:0:0:
149,261,1873,1,0,3:3:0:0:
149,261,1947,2,0,L|198:260,1,30.0000012561679,8|0,3:3|3:3,0:3:0:0:
268,344,2094,5,8,0:3:0:0:
391,223,2388,5,4,0:2:0:0:
391,223,4741,5,4,0:2:0:0:
134,42,5917,5,4,0:2:0:0:
134,42,6506,1,0,0:2:0:0:
35,132,6947,1,0,3:2:0:0:
35,132,7020,1,0,3:2:0:0:
35,132,7094,6,0,B|16:186|16:186|22:290,1,160.000000596046,4|8,3:2|0:2,0:2:0:0:
203,367,7535,1,8,0:2:0:0:
107,236,7682,1,8,0:2:0:0:
261,286,7829,1,8,0:2:0:0:
107,336,7976,1,8,0:2:0:0:
203,205,8123,1,8,0:2:0:0:
344,245,8270,5,8,0:2:0:0:
482,45,8417,1,8,0:2:0:0:
314,75,8564,1,8,0:2:0:0:
314,75,8712,1,0,3:2:0:0:
512,214,8859,1,8,0:2:0:0:
314,75,9006,1,8,0:2:0:0:
314,75,9300,6,0,L|133:70,1,160.000000596046,6|0,3:2|0:2,0:2:0:0:
0,160,9741,2,0,L|90:157,1,80.000000298023,10|0,0:2|0:2,0:2:0:0:
190,241,10035,1,2,3:2:0:0:
190,241,10182,1,0,3:2:0:0:
73,360,10329,2,0,L|75:269,1,80.000000298023,10|0,0:2|0:2,0:2:0:0:
209,152,10623,2,0,P|257:186|276:213,1,80.000000298023,2|0,0:2|0:2,0:2:0:0:
312,358,10917,2,0,P|317:299|331:269,1,80.000000298023,10|0,0:2|0:2,0:2:0:0:
437,166,11212,2,0,P|403:185|364:193,1,80.000000298023,2|0,3:2|3:2,0:2:0:0:
357,43,11506,1,10,0:2:0:0:
357,43,11653,1,2,3:2:0:0:
505,0,11800,6,0,L|510:102,1,80.000000298023,2|0,0:2|3:2,0:2:0:0:
433,245,12094,2,0,L|437:166,1,80.000000298023,10|0,0:2|0:2,0:2:0:0:
357,43,12388,1,2,3:2:0:0:
357,43,12535,1,0,3:2:0:0:
251,162,12682,2,0,L|171:165,1,80.000000298023,10|0,0:2|3:2,0:2:0:0:
73,43,12976,2,0,L|152:46,1,80.000000298023,2|0,0:2|3:2,0:2:0:0:
251,162,13270,2,0,P|256:260|255:313,1,120.000000447034,10|0,0:2|0:2,0:2:0:0:
255,281,13564,5,8,0:2:0:0:
15,238,13712,1,8,0:3:0:0:
157,384,13859,1,4,0:3:0:0:
157,384,14006,6,4,L|168:248,1,120.000005024671,4|0,3:2|0:2,3:2:0:0:
8,124,14447,2,0,P|58:143|86:149,1,60.0000025123357,0|0,3:2|0:2,0:2:0:0:
207,22,14741,2,0,P|178:28|150:38,1,60.0000025123357,0|0,3:2|0:2,0:2:0:0:
105,219,15035,2,0,P|124:197|141:172,1,60.0000025123357,0|0,3:2|0:2,0:2:0:0:
72,0,15329,2,0,P|69:29|68:59,1,60.0000025123357,0|0,3:2|0:2,0:2:0:0:
228,158,15623,2,0,P|213:133|195:109,1,60.0000025123357,0|0,3:2|0:2,0:2:0:0:
8,124,15917,2,0,P|58:143|86:149,1,60.0000025123357,0|0,3:2|0:2,0:2:0:0:
207,22,16212,1,0,3:2:0:0:
207,22,16359,1,0,0:2:0:0:
348,100,16506,6,0,L|433:106,1,60.0000025123357,0|0,3:2|0:2,0:2:0:0:
512,185,16800,2,0,L|427:191,1,60.0000025123357,0|0,3:2|0:2,0:2:0:0:
348,270,17094,2,0,L|433:276,1,60.0000025123357,0|0,3:2|0:2,0:2:0:0:
512,355,17388,2,0,L|427:361,1,60.0000025123357,0|0,3:2|0:2,0:2:0:0:
261,340,17682,6,0,B|229:352|229:352|133:344,1,120.000000447034,4|0,3:2|0:2,0:2:0:0:
98,282,17976,2,0,B|130:270|130:270|226:278,1,120.000000447034,4|0,3:2|0:2,0:2:0:0:
261,340,18270,1,8,0:2:0:0:
457,281,18417,1,8,0:2:0:0:
457,281,18712,6,0,L|465:111,1,160.000000596046,6|2,3:2|3:2,0:2:0:0:
352,0,19153,2,0,L|355:79,1,80.000000298023,10|0,0:2|0:2,0:2:0:0:
321,204,19447,1,2,3:2:0:0:
222,87,19594,2,0,P|172:82|121:81,1,80.000000298023,2|8,3:2|0:2,0:2:0:0:
0,225,19888,6,0,P|81:218|161:215,1,160.000000596046,2|2,3:2|3:2,0:2:0:0:
137,384,20329,2,0,P|128:329|128:291,1,80.000000298023,10|0,0:2|0:2,0:2:0:0:
235,183,20623,1,2,3:2:0:0:
235,183,20770,1,2,3:2:0:0:
324,310,20917,1,8,0:2:0:0:
472,211,21064,6,0,L|313:228,1,160.000000596046,2|2,3:2|3:2,0:2:0:0:
494,368,21506,2,0,L|505:289,1,80.000000298023,10|0,0:2|0:2,0:2:0:0:
319,132,21800,1,2,3:2:0:0:
480,96,21947,1,2,3:2:0:0:
326,36,22094,1,10,0:2:0:0:
312,228,22241,2,0,L|319:327,1,80.000000298023,2|0,0:2|3:2,0:2:0:0:
155,382,22535,2,0,L|161:303,1,80.000000298023,2|8,3:2|0:2,0:2:0:0:
256,92,22829,1,2,0:2:0:0:
51,151,22976,1,8,0:2:0:0:
171,180,23123,1,8,0:3:0:0:
136,63,23270,1,4,0:3:0:0:
86,268,23417,6,0,L|91:392,1,120.000005024671,4|0,3:2|0:2,0:2:0:0:
256,384,23859,1,0,3:2:0:0:
480,192,24153,1,0,3:2:0:0:
256,0,24447,1,0,3:2:0:0:
32,192,24741,1,0,3:2:0:0:
256,384,25035,1,0,3:2:0:0:
256,0,25329,1,0,3:2:0:0:
480,192,25623,1,0,3:2:0:0:
36,196,25917,5,2,3:2:0:0:
36,196,26064,1,2,0:2:0:0:
173,145,26212,1,2,3:2:0:0:
173,145,26359,1,2,0:2:0:0:
224,282,26506,1,2,3:2:0:0:
224,282,26653,1,2,0:2:0:0:
87,333,26800,1,2,3:2:0:0:
87,333,26947,1,2,0:2:0:0:
36,196,27094,6,0,L|42:64,2,120.000005024671,4|4|8,3:2|3:2|0:2,0:2:0:0:
224,282,27829,1,8,0:2:0:0:
224,282,28123,6,0,P|297:284|395:291,1,160.000000596046,6|2,3:2|3:2,0:2:0:0:
509,223,28564,2,0,L|512:144,1,80.000000298023,10|0,0:2|0:2,0:2:0:0:
478,19,28858,1,2,3:2:0:0:
379,136,29005,2,0,P|329:141|278:142,1,80.000000298023,2|8,3:2|0:2,0:2:0:0:
128,0,29300,6,0,L|117:178,1,160.000000596046,2|2,3:2|3:2,0:2:0:0:
11,286,29741,2,0,P|73:276|125:275,1,80.000000298023,10|0,0:2|0:2,0:2:0:0:
234,349,30035,1,2,3:2:0:0:
234,349,30182,1,2,3:2:0:0:
343,234,30329,1,8,0:2:0:0:
466,324,30476,6,0,L|303:312,1,160.000000596046,2|2,3:2|3:2,0:2:0:0:
139,384,30917,2,0,L|132:304,1,80.000000298023,10|0,0:2|0:2,0:2:0:0:
220,182,31212,1,2,3:2:0:0:
234,349,31359,1,2,3:2:0:0:
106,195,31506,1,10,0:2:0:0:
53,328,31653,6,0,L|67:149,1,160.000000596046,2|2,3:2|3:2,0:2:0:0:
183,10,32094,2,0,B|163:66|163:66|203:175,1,160.000000596046,12|8,0:2|0:2,0:2:0:0:
343,332,32535,1,10,0:3:0:0:
474,240,32682,1,6,0:3:0:0:
474,240,32829,6,0,B|406:224|406:224|361:253|361:253|267:246,1,191.99999485588,4|0,3:2|3:2,0:2:0:0:
98,101,33270,2,0,L|80:-17,1,95.9999974279402,8|0,0:2|3:2,0:2:0:0:
249,167,33564,2,0,L|267:49,1,95.9999974279402,8|0,0:2|3:2,0:2:0:0:
79,297,33859,2,0,L|61:179,1,95.9999974279402,8|0,0:2|3:2,0:2:0:0:
223,346,34153,5,8,0:2:0:0:
223,346,34300,1,0,3:2:0:0:
408,286,34447,5,8,0:2:0:0:
408,286,34594,1,0,3:2:0:0:
223,226,34741,5,8,0:2:0:0:
223,226,34888,1,0,3:2:0:0:
338,384,35035,5,8,0:2:0:0:
338,189,35182,6,0,B|387:179|387:179|446:215|446:215|522:212,1,191.99999485588,4|0,3:2|3:2,0:2:0:0:
456,0,35623,2,0,L|466:95,1,95.9999974279402,8|0,0:2|3:2,0:2:0:0:
256,224,35917,2,0,L|256:128,1,95.9999974279402,8|0,0:2|3:2,0:2:0:0:
466,288,36212,2,0,L|456:384,1,95.9999974279402,8|0,0:2|3:2,0:2:0:0:
256,344,36506,5,8,0:2:0:0:
256,344,36653,1,0,3:2:0:0:
141,187,36800,5,8,0:2:0:0:
141,187,36947,1,0,3:2:0:0:
141,382,37094,5,8,0:2:0:0:
141,382,37241,1,0,3:2:0:0:
256,224,37388,5,8,0:2:0:0:
71,284,37535,6,0,B|44:230|44:230|68:80,1,191.99999485588,4|0,3:2|3:2,0:2:0:0:
253,1,37976,2,0,L|268:99,1,95.9999974279402,8|0,0:2|3:2,0:2:0:0:
464,192,38270,2,0,L|478:97,1,95.9999974279402,8|0,0:2|3:2,0:2:0:0:
252,193,38564,2,0,L|266:287,1,95.9999974279402,8|0,0:2|3:2,0:2:0:0:
463,384,38859,5,8,0:2:0:0:
463,384,39006,1,0,3:2:0:0:
370,254,39153,5,8,0:2:0:0:
370,254,39300,1,0,3:2:0:0:
463,124,39447,5,8,0:2:0:0:
463,124,39594,1,0,3:2:0:0:
371,0,39741,5,8,0:2:0:0:
282,134,39888,6,0,B|226:122|226:122|175:150|175:150|74:138,1,191.99999485588,4|0,3:2|3:2,0:2:0:0:
0,352,40329,2,0,L|95:343,1,95.9999974279402,8|0,0:2|3:2,0:2:0:0:
331,214,40623,2,0,L|235:205,1,95.9999974279402,8|0,0:2|3:2,0:2:0:0:
0,76,40917,2,0,L|95:67,1,95.9999974279402,8|0,0:2|3:2,0:2:0:0:
251,5,41212,5,8,0:2:0:0:
432,102,41359,1,0,3:2:0:0:
254,107,41506,5,8,0:2:0:0:
428,0,41653,1,0,3:2:0:0:
359,171,41800,5,8,3:2:0:0:
359,171,41874,1,0,3:2:0:0:
359,171,41946,1,0,3:2:0:0:
359,171,42021,1,0,3:2:0:0:
359,171,42093,1,0,3:2:0:0:
226,301,42241,6,0,B|296:293|296:293|340:318|340:318|442:307,1,191.99999485588,4|0,3:2|3:2,0:2:0:0:
512,160,42682,2,0,P|513:111|497:62,1,95.9999974279402,8|0,0:2|3:2,0:2:0:0:
300,209,42976,2,0,P|341:234|392:245,1,95.9999974279402,8|0,0:2|3:2,0:2:0:0:
364,0,43270,2,0,P|321:23|286:61,1,95.9999974279402,8|0,0:2|3:2,0:2:0:0:
160,192,43564,5,8,0:2:0:0:
8,101,43712,1,0,3:2:0:0:
82,235,43859,5,8,0:2:0:0:
85,57,44005,1,0,3:2:0:0:
6,189,44153,5,8,0:2:0:0:
161,103,44299,1,0,3:2:0:0:
8,101,44447,5,8,0:2:0:0:
160,192,44594,6,0,B|227:200|227:200|254:234|254:234|372:247,1,191.99999485588,4|0,3:2|3:2,0:2:0:0:
163,377,45035,2,0,P|169:328|180:272,1,95.9999974279402,8|0,0:2|3:2,0:2:0:0:
57,89,45329,2,0,P|65:136|71:183,1,95.9999974279402,8|0,0:2|3:2,0:2:0:0:
300,160,45623,2,0,P|306:111|317:55,1,95.9999974279402,8|0,0:2|3:2,0:2:0:0:
448,0,45917,5,8,0:2:0:0:
512,160,46064,1,0,3:2:0:0:
370,249,46212,5,8,0:2:0:0:
434,89,46359,1,0,3:2:0:0:
512,338,46506,5,8,0:2:0:0:
262,309,46653,1,8,0:2:0:0:
262,309,46947,6,0,B|194:300|194:300|143:326|143:326|48:317,1,191.99999485588,4|0,3:2|3:2,0:2:0:0:
0,128,47388,2,0,P|61:141|95:153,1,95.9999974279402,8|0,0:2|0:2,0:2:0:0:
204,271,47682,1,0,3:2:0:0:
204,271,47829,1,0,3:2:0:0:
329,143,47976,2,0,P|333:92|335:34,1,95.9999974279402,8|0,0:2|0:2,0:2:0:0:
160,24,48270,1,0,3:2:0:0:
160,24,48417,1,0,3:2:0:0:
264,217,48564,2,0,L|374:226,1,95.9999974279402,8|0,0:2|0:2,0:2:0:0:
461,89,48859,1,0,3:2:0:0:
255,16,49006,2,0,L|160:24,1,95.9999974279402,0|8,3:2|0:2,0:2:0:0:
0,160,49300,6,0,B|66:150|66:150|101:176|101:176|219:158,1,191.99999485588,4|0,3:2|3:2,0:2:0:0:
321,291,49741,2,0,L|329:386,1,95.9999974279402,12|0,0:2|0:2,0:2:0:0:
512,146,50035,2,0,L|504:241,1,95.9999974279402,12|0,0:2|0:2,0:2:0:0:
296,1,50329,2,0,L|304:97,1,95.9999974279402,12|0,0:2|0:2,0:2:0:0:
321,291,50623,5,8,0:2:0:0:
294,301,50696,1,8,0:2:0:0:
266,309,50770,1,8,0:2:0:0:
238,313,50843,1,8,0:2:0:0:
209,315,50917,1,8,0:2:0:0:
180,313,50990,1,8,0:2:0:0:
152,308,51064,1,8,0:2:0:0:
32,384,51212,5,4,3:2:0:0:
32,384,51506,5,0,0:2:0:0:
32,384,51800,6,0,B|0:320|0:320|28:183,1,207.999991253376,6|8,3:2|0:2,0:2:0:0:
160,64,52241,1,2,0:2:0:0:
308,169,52388,2,0,L|89:153,1,207.999991253376,2|8,3:2|0:2,0:2:0:0:
0,320,52829,1,2,0:2:0:0:
201,350,52976,2,0,L|356:361,1,155.999993440032,2|0,3:2|0:2,0:2:0:0:
379,384,53270,2,0,L|482:376,1,103.999995626688,8|0,0:2|0:2,0:2:0:0:
509,230,53564,2,0,P|517:178|509:118,1,103.999995626688,2|0,3:2|3:2,0:2:0:0:
342,119,53859,2,0,P|334:171|342:231,1,103.999995626688,10|0,0:2|0:2,0:2:0:0:
414,384,54153,6,0,L|425:164,1,207.999991253376,2|8,3:2|0:2,0:2:0:0:
320,0,54594,1,2,0:2:0:0:
224,160,54741,2,0,L|234:367,1,207.999991253376,2|8,3:2|0:2,0:2:0:0:
32,320,55182,1,2,0:2:0:0:
108,111,55329,2,0,L|338:126,1,207.999991253376,2|8,3:2|0:2,0:2:0:0:
495,237,55770,1,2,0:2:0:0:
432,16,55917,2,0,L|277:27,1,155.999993440032,2|0,3:2|0:2,0:2:0:0:
254,50,56211,2,0,L|151:42,1,103.999995626688,8|0,0:2|0:2,0:2:0:0:
19,173,56506,6,0,P|8:245|25:302,1,103.999995626688,6|0,3:2|0:2,0:2:0:0:
188,289,56800,2,0,P|131:243|73:229,1,103.999995626688,10|0,0:2|0:2,0:2:0:0:
3,377,57094,2,0,P|70:350|111:307,1,103.999995626688,2|0,3:2|3:2,0:2:0:0:
207,186,57388,2,0,P|248:154|297:139,1,103.999995626688,10|0,0:2|0:2,0:2:0:0:
479,287,57682,2,0,P|428:288|379:272,1,103.999995626688,2|0,3:2|0:2,0:2:0:0:
316,45,57976,2,0,P|358:73|388:116,1,103.999995626688,10|0,0:2|0:2,0:2:0:0:
306,335,58270,2,0,P|289:287|290:235,1,103.999995626688,2|0,3:2|3:2,0:2:0:0:
485,107,58564,2,0,P|471:156|440:198,1,103.999995626688,10|0,0:2|0:2,0:2:0:0:
207,186,58859,6,0,P|154:186|-18:195,1,207.999991253376,2|8,3:2|0:2,0:2:0:0:
192,290,59300,1,2,0:2:0:0:
222,82,59447,2,0,P|269:82|424:90,1,155.999993440032,2|0,3:2|0:2,0:2:0:0:
403,105,59741,2,0,P|419:162|430:227,1,103.999995626688,8|0,0:2|0:2,0:2:0:0:
403,384,60035,2,0,P|355:384|200:375,1,155.999993440032,0|0,3:2|0:2,0:2:0:0:
222,361,60329,2,0,P|206:304|195:239,1,103.999995626688,12|0,0:2|0:2,0:2:0:0:
222,82,60623,5,8,0:3:0:0:
222,82,60697,1,8,0:3:0:0:
222,82,60770,1,8,0:3:0:0:
222,82,60844,1,8,0:3:0:0:
222,82,60917,2,0,L|158:74,1,51.999997813344,10|8,0:2|0:2,0:2:0:0:
102,8,61064,2,0,L|38:16,1,51.999997813344,10|8,0:2|0:2,0:2:0:0:
0,128,61212,6,0,B|-14:178|-14:178|0:298,1,155.999993440032,4|0,3:2|0:2,0:2:0:0:
19,304,61506,2,0,L|141:311,1,103.999995626688,12|0,0:2|0:2,0:2:0:0:
256,224,61800,1,0,3:2:0:0:
256,224,61947,1,0,3:2:0:0:
337,354,62094,1,10,0:2:0:0:
479,308,62241,2,0,L|464:95,1,207.999991253376,2|0,0:2|3:2,0:2:0:0:
281,5,62682,1,8,0:2:0:0:
352,188,62829,1,2,0:2:0:0:
392,25,62976,1,2,3:2:0:0:
268,135,63123,2,0,P|213:136|139:126,1,103.999995626688,2|8,3:2|0:2,0:2:0:0:
41,98,63417,1,2,3:2:0:0:
41,98,63491,1,2,3:2:0:0:
41,98,63564,6,0,P|28:174|19:257,1,155.999993440032,6|0,3:2|0:2,0:2:0:0:
19,252,63859,1,8,0:3:0:0:
151,206,64006,1,8,0:3:0:0:
197,338,64153,1,8,0:3:0:0:
65,384,64300,1,8,0:3:0:0:
151,206,64447,6,0,B|246:182|246:182|352:216|352:216|488:192,1,311.999986880064,6|0,3:2|3:2,0:2:0:0:
367,0,65035,2,0,P|360:51|357:103,1,103.999995626688,8|0,0:2|0:2,0:2:0:0:
416,293,65329,1,2,0:2:0:0:
231,364,65476,1,2,3:2:0:0:
231,364,65550,1,2,3:2:0:0:
231,364,65623,2,0,L|65:370,1,155.999993440032,14|0,0:2|0:2,0:2:0:0:
45,381,65917,6,0,L|52:192,1,155.999993440032,6|0,3:2|0:2,0:2:0:0:
65,196,66212,1,10,0:2:0:0:
192,0,66359,2,0,L|200:231,1,207.999991253376,2|0,0:2|3:2,0:2:0:0:
320,319,66800,1,10,0:2:0:0:
471,165,66947,1,2,3:2:0:0:
471,165,67020,1,2,3:2:0:0:
471,165,67094,6,0,B|409:154|409:154|354:183|354:183|250:169,1,207.999991253376,6|10,3:2|0:2,0:2:0:0:
64,87,67535,2,0,P|166:79|283:74,1,207.999991253376,2|0,0:2|3:2,0:2:0:0:
459,85,67976,1,10,0:2:0:0:
375,302,68123,1,2,3:2:0:0:
375,302,68197,1,2,3:2:0:0:
375,302,68270,6,0,L|368:188,1,103.999995626688,6|0,3:2|0:2,0:2:0:0:
276,10,68564,1,8,0:2:0:0:
151,181,68712,1,8,0:2:0:0:
352,115,68859,1,8,0:2:0:0:
151,50,69006,1,8,0:2:0:0:
276,222,69153,1,8,0:3:0:0:
352,115,69300,1,6,0:3:0:0:
151,181,69447,6,0,P|97:204|10:158,1,155.999993440032,10|0,0:2|0:2,0:2:0:0:
0,96,69741,6,0,L|2:283,1,155.999993440032,6|0,0:2|0:2,0:2:0:0:
9,282,70035,2,0,L|68:296,1,51.999997813344,10|8,0:2|0:2,0:2:0:0:
145,364,70182,2,0,L|195:351,1,51.999997813344,8|8,0:2|0:2,0:2:0:0:
296,297,70329,1,10,0:3:0:0:
296,297,70402,1,8,0:3:0:0:
296,297,70476,1,8,0:3:0:0:
296,297,70549,1,8,0:3:0:0:
296,297,70623,6,0,B|356:312|356:312|465:290,1,155.999993440032,6|0,3:2|0:2,0:2:0:0:
470,271,70917,2,0,L|472:93,1,155.999993440032,14|0,0:2|0:2,0:2:0:0:
462,84,71212,1,2,3:2:0:0:
257,89,71359,1,2,3:2:0:0:
399,9,71506,1,8,0:2:0:0:
324,164,71653,6,0,B|262:187|262:187|121:154,1,207.999991253376,6|2,3:2|3:2,0:2:0:0:
0,320,72094,2,0,P|68:309|119:305,1,103.999995626688,10|0,0:2|0:2,0:2:0:0:
308,350,72388,1,2,3:2:0:0:
160,224,72535,1,2,3:2:0:0:
214,378,72682,1,10,0:2:0:0:
256,160,72829,6,0,B|313:126|313:126|463:151,1,207.999991253376,6|2,3:2|3:2,0:2:0:0:
512,352,73270,2,0,P|443:362|392:366,1,103.999995626688,10|0,0:2|0:2,0:2:0:0:
239,271,73564,1,2,3:2:0:0:
434,260,73712,1,2,3:2:0:0:
283,384,73859,1,8,0:2:0:0:
86,320,74006,6,0,B|55:260|55:260|74:96,1,207.999991253376,6|2,3:2|3:2,0:2:0:0:
256,0,74447,2,0,P|267:55|276:117,1,103.999995626688,10|0,0:2|0:2,0:2:0:0:
272,271,74741,1,2,3:2:0:0:
425,168,74888,1,2,3:2:0:0:
235,184,75035,1,10,0:2:0:0:
396,65,75182,6,0,L|390:272,1,207.999991253376,6|2,3:2|3:2,0:2:0:0:
192,384,75623,2,0,P|199:332|210:281,1,103.999995626688,10|0,0:2|0:2,0:2:0:0:
288,128,75917,1,2,3:2:0:0:
304,308,76064,1,2,3:2:0:0:
172,151,76212,1,8,0:2:0:0:
85,328,76359,6,0,L|334:339,1,207.999991253376,6|2,3:2|3:2,0:2:0:0:
512,192,76800,2,0,P|440:195|391:203,1,103.999995626688,10|0,0:2|0:2,0:2:0:0:
224,256,77094,1,2,3:2:0:0:
168,72,77241,1,2,3:2:0:0:
352,15,77388,1,10,0:2:0:0:
408,199,77535,5,4,3:2:0:0:
425,225,77829,6,0,L|431:330,2,103.999995626688,14|0|0,0:2|3:2|3:2,0:2:0:0:
256,160,78270,6,0,L|263:286,2,120.000005024671,14|0|0,0:2|3:2|3:2,0:2:0:0:
87,95,78712,6,0,L|95:242,2,136.000003100633,14|0|0,0:2|3:2|3:2,0:2:0:0:
192,0,79153,6,0,L|334:11,1,136.000003100633,14|0,0:2|3:2,0:2:0:0:
334,36,79373,1,8,0:2:0:0:
340,62,79447,1,8,0:2:0:0:
346,88,79520,1,8,0:2:0:0:
352,114,79594,1,8,0:2:0:0:
358,140,79667,1,8,0:2:0:0:
365,166,79741,1,8,3:2:0:0:
122,179,80035,6,0,P|160:137|282:171,1,191.99999485588,6|10,3:2|0:2,0:2:0:0:
215,380,80476,2,0,P|173:342|207:220,1,191.99999485588,2|2,3:2|3:2,0:2:0:0:
416,287,80917,1,10,0:2:0:0:
416,287,81064,2,0,P|378:329|256:295,1,191.99999485588,2|2,3:2|3:2,0:2:0:0:
323,85,81506,1,10,0:2:0:0:
323,85,81653,2,0,P|365:123|331:244,1,191.99999485588,2|2,3:2|3:2,0:2:0:0:
122,179,82094,1,10,0:2:0:0:
122,179,82241,6,0,P|160:137|282:171,1,191.99999485588,2|2,3:2|3:2,0:2:0:0:
78,257,82682,1,10,0:2:0:0:
78,257,82829,2,0,P|35:219|69:97,1,191.99999485588,2|2,3:2|3:2,0:2:0:0:
156,301,83270,1,10,0:2:0:0:
156,301,83417,2,0,P|118:343|-4:309,1,191.99999485588,2|2,3:2|3:2,0:2:0:0:
200,223,83859,1,10,0:2:0:0:
200,223,84005,2,0,P|242:260|208:382,1,191.99999485588,2|2,3:2|3:2,0:2:0:0:
138,114,84447,2,0,L|234:119,1,95.9999974279402,10|2,0:2|0:2,0:2:0:0:
512,158,84741,6,0,P|474:116|352:150,1,191.99999485588,14|10,3:2|0:2,0:2:0:0:
419,359,85182,2,0,P|461:321|427:199,1,191.99999485588,2|2,3:2|3:2,0:2:0:0:
218,266,85623,1,10,0:2:0:0:
218,266,85770,2,0,P|256:308|378:274,1,191.99999485588,2|2,3:2|3:2,0:2:0:0:
311,64,86212,1,10,0:2:0:0:
311,64,86359,2,0,P|269:102|303:223,1,191.99999485588,2|2,3:2|3:2,0:2:0:0:
512,158,86800,1,10,0:2:0:0:
512,158,86947,6,0,P|474:116|352:150,1,191.99999485588,2|2,3:2|0:2,0:2:0:0:
419,359,87388,1,10,0:2:0:0:
431,183,87535,1,10,0:2:0:0:
273,261,87682,1,8,0:2:0:0:
375,268,87829,1,10,0:3:0:0:
375,268,87976,1,8,0:3:0:0:
285,85,88123,5,6,0:2:0:0:
274,68,88417,5,6,0:2:0:0:
263,51,88712,5,6,0:2:0:0:
