osu file format v14

[General]
AudioFilename: audio.mp3
AudioLeadIn: 0
PreviewTime: 51175
Countdown: 0
SampleSet: Soft
StackLeniency: 0.4
Mode: 0
LetterboxInBreaks: 0
WidescreenStoryboard: 1

[Editor]
Bookmarks: 13811,18517,23223,27929,32635,46753,51606
DistanceSpacing: 1.2
BeatDivisor: 6
GridSize: 32
TimelineZoom: 3.599999

[Metadata]
Title:Lonely Go! (TV Size)
TitleUnicode:Lonely Go! (TV Size)
Artist:Brian The Sun
ArtistUnicode:Brian The Sun
Creator:Nevo
Version:Monstrata's Insane
Source:BORUTO-ボルト-NARUTO NEXT GENERATIONS
Tags:mordred nelliel monstrata yukiyo aro agatsu naruto sarada uzimaki anime opening op ayyri eiri- fieryrage sotarks reform onlybiscuit
BeatmapID:1844294
BeatmapSetID:863227

[Difficulty]
HPDrainRate:5
CircleSize:4
OverallDifficulty:8
ApproachRate:9
SliderMultiplier:1.70000000596046
SliderTickRate:1

[Events]
//Background and Video events
0,0,"818879.png",0,0
Video,0,"brainthesun.mp4"
//Break Periods
//Storyboard Layer 0 (Background)
//Storyboard Layer 1 (Fail)
//Storyboard Layer 2 (Pass)
//Storyboard Layer 3 (Foreground)
//Storyboard Sound Samples

[TimingPoints]
1212,294.117647058824,4,2,1,75,1,0
1212,-133.333333333333,4,2,1,75,0,0
2388,294.117647058824,4,2,1,75,1,0
2388,-200,4,2,1,75,0,0
7682,-133.333333333333,4,2,1,75,0,0
7976,-100,4,2,1,75,0,0
14006,-133.333333333333,4,2,1,60,0,0
18712,-100,4,2,1,75,0,0
23417,-133.333333333333,4,2,1,60,0,0
28050,-133.333333333333,4,2,1,5,0,0
28123,-100,4,2,1,75,0,0
32829,-100,4,2,1,85,0,0
46653,-100,4,2,1,75,0,0
51212,-133.333333333333,4,2,1,75,0,0
51800,-100,4,2,1,85,0,0
77535,-100,4,2,1,75,0,0
80035,-100,4,2,1,85,0,0
88712,-100,4,2,1,60,0,0
89447,-100,4,2,1,5,0,0

[Colours]
Combo1 : 89,255,255
Combo2 : 255,219,72
Combo3 : 216,216,216
Combo4 : 255,81,81

[HitObjects]
52,84,1212,6,0,L|7:89,1,31.8750013276934,8|8,0:0|0:3,0:3:0:0:
124,125,1359,2,8,L|178:120,3,31.8750013276934,8|8|8|8,0:3|0:3|0:3|0:3,0:3:0:0:
60,193,1653,2,8,L|14:198,3,31.8750013276934,8|8|8|8,0:3|0:3|0:3|0:3,0:3:0:0:
130,239,1947,2,8,L|181:232,1,31.8750013276934,8|8,0:3|0:3,0:3:0:0:
59,298,2094,2,0,L|51:364,1,63.7500026553869,4|0,0:3|0:3,0:3:0:0:
26,384,2388,5,6,3:2:0:0:
512,0,4741,1,4,3:2:0:0:
0,0,5917,1,4,3:2:0:0:
512,384,7094,1,4,0:2:0:0:
512,384,7388,6,0,L|458:356,1,42.5000001490115,8|8,0:2|0:2,0:0:0:0:
471,271,7682,6,0,L|398:274,1,63.7500026553869,8|8,0:2|0:2,0:0:0:0:
358,194,7976,6,0,L|274:247,1,85.000000298023,8|8,0:2|0:2,0:0:0:0:
156,344,8269,5,8,0:2:0:0:
74,325,8417,1,8,0:2:0:0:
132,236,8564,5,8,0:2:0:0:
50,217,8712,1,0,3:2:0:0:
109,118,8859,6,0,L|191:138,1,85.000000298023,8|8,0:2|0:2,0:0:0:0:
249,54,9153,1,8,0:2:0:0:
357,149,9300,6,0,B|304:136|304:136|245:151|245:151|192:138,1,170.000000596046,12|0,0:2|3:2,0:0:0:0:
50,217,9741,2,0,L|132:236,1,85.000000298023,12|0,0:2|0:2,0:0:0:0:
244,331,10035,2,0,B|191:318|191:318|132:333|132:333|79:320,1,170.000000596046,0|8,3:2|0:2,0:0:0:0:
331,221,10476,6,0,B|318:273|318:273|333:332|333:332|320:385,1,170.000000596046,0|0,3:2|3:2,0:0:0:0:
288,143,10917,2,0,B|328:132|328:132|370:142,1,85.000000298023,8|0,0:2|0:2,0:0:0:0:
245,65,11212,1,0,3:2:0:0:
206,169,11359,2,0,B|165:179|165:179|123:169,1,85.000000298023,0|8,3:2|0:2,0:0:0:0:
33,59,11653,6,0,B|46:112|46:112|31:171|31:171|44:223,1,170.000000596046,0|0,3:2|3:2,0:0:0:0:
205,274,12094,2,0,B|163:264|163:264|123:275,1,85.000000298023,8|0,0:2|0:2,0:0:0:0:
256,352,12388,1,0,3:2:0:0:
306,274,12535,2,0,B|348:264|348:264|389:275,1,85.000000298023,0|8,3:2|0:2,0:0:0:0:
315,173,12829,6,0,B|262:186|262:186|203:171|203:171|151:184,1,170.000000596046,0|0,3:2|3:2,0:0:0:0:
262,13,13270,2,0,B|272:54|272:54|261:95,1,85.000000298023,8|0,0:2|0:2,0:0:0:0:
174,53,13564,1,8,0:2:0:0:
86,13,13712,2,0,B|75:54|75:54|86:95,1,85.000000298023,8|4,0:3|0:3,0:0:0:0:
133,185,14006,6,0,B|142:224|142:224|131:269|131:269|141:308,1,127.500005310774,6|0,3:2|0:0,0:0:0:0:
223,268,14447,2,0,B|251:260|251:260|284:269,1,63.7500026553869,2|0,0:2|0:2,0:0:0:0:
364,292,14741,2,0,B|396:300|396:300|425:293,1,63.7500026553869,2|2,3:2|0:2,0:0:0:0:
503,322,15035,2,0,B|510:293|510:293|501:260,1,63.7500026553869,0|2,3:2|0:2,0:0:0:0:
479,181,15329,2,0,B|470:148|470:148|477:119,1,63.7500026553869,0|0,0:0|0:0,0:0:0:0:
507,41,15623,2,0,B|478:33|478:33|445:42,1,63.7500026553869,2|0,3:2|0:2,0:0:0:0:
366,65,15917,2,0,B|333:73|333:73|304:66,1,63.7500026553869,2|2,3:2|0:2,0:0:0:0:
225,37,16212,2,0,B|217:65|217:65|226:98,1,63.7500026553869,0|2,3:2|0:2,0:0:0:0:
249,178,16506,2,0,B|257:210|257:210|250:239,1,63.7500026553869,0|0,0:0|0:0,0:0:0:0:
279,317,16800,2,0,B|250:324|250:324|217:315,1,63.7500026553869,2|0,3:2|0:2,0:0:0:0:
138,293,17094,2,0,B|105:284|105:284|76:291,1,63.7500026553869,2|2,3:2|0:2,0:0:0:0:
0,322,17388,2,0,B|-7:293|-7:293|1:260,1,63.7500026553869,0|2,3:2|0:2,0:0:0:0:
27,182,17682,2,0,B|35:149|35:149|28:120,1,63.7500026553869,0|0,3:2|0:2,0:0:0:0:
0,42,17976,2,0,B|28:34|28:34|61:43,1,63.7500026553869,2|0,3:2|0:2,0:0:0:0:
134,95,18270,5,10,0:2:0:0:
222,16,18417,2,0,B|213:49|213:49|221:78,1,63.7500026553869,2|0,3:2|3:2,0:0:0:0:
386,89,18712,6,0,B|333:76|333:76|274:91|274:91|222:78,1,170.000000596046,12|0,0:2|3:2,0:0:0:0:
335,173,19153,2,0,B|428:196,1,85.000000298023,8|0,0:2|0:2,0:0:0:0:
254,285,19447,1,0,3:2:0:0:
336,305,19594,2,0,B|429:328,1,85.000000298023,0|8,3:2|0:2,0:0:0:0:
505,215,19888,6,0,B|492:268|492:268|507:327|507:327|494:379,1,170.000000596046,0|0,3:2|3:2,0:0:0:0:
419,149,20329,2,0,B|395:242,1,85.000000298023,8|0,0:2|0:2,0:0:0:0:
254,285,20623,1,0,3:2:0:0:
336,305,20770,2,0,B|429:328,1,85.000000298023,0|8,3:2|0:2,0:0:0:0:
194,346,21064,6,0,B|141:333|141:333|82:348|82:348|30:335,1,170.000000596046,0|0,3:2|3:2,0:0:0:0:
99,172,21506,2,0,B|79:255,1,85.000000298023,8|0,0:0|0:0,0:0:0:0:
40,46,21800,1,0,3:2:0:0:
20,128,21947,2,0,B|-3:221,1,85.000000298023,0|8,3:2|0:2,0:0:0:0:
120,90,22241,6,0,B|173:77|173:77|232:92|232:92|284:79,1,170.000000596046,0|0,3:2|3:2,0:0:0:0:
395,18,22682,2,0,B|375:101,1,85.000000298023,8|0,0:2|3:2,0:0:0:0:
354,183,22976,1,8,0:2:0:0:
422,246,23123,2,0,B|442:163,1,85.000000298023,8|4,0:3|0:3,0:0:0:0:
464,326,23417,6,0,B|424:335|424:335|379:324|379:324|341:334,1,127.500005310774,6|0,0:2|0:2,0:0:0:0:
260,359,23859,2,0,B|231:366|231:366|198:357,1,63.7500026553869,2|0,3:2|0:2,0:0:0:0:
129,311,24153,2,0,B|108:289|108:289|99:257,1,63.7500026553869,2|2,3:2|0:2,0:0:0:0:
105,173,24447,2,0,B|113:144|113:144|136:120,1,63.7500026553869,0|0,0:0|0:0,0:0:0:0:
212,83,24741,2,0,B|240:75|240:75|273:84,1,63.7500026553869,0|0,3:2|0:0,0:0:0:0:
343,131,25035,2,0,B|363:152|363:152|372:184,1,63.7500026553869,2|0,3:2|0:2,0:0:0:0:
366,268,25329,2,0,B|351:294|351:294|324:312,1,63.7500026553869,2|2,3:2|0:2,0:0:0:0:
242,332,25623,2,0,B|212:326|212:326|186:306,1,63.7500026553869,0|2,3:2|0:2,0:0:0:0:
142,234,25917,2,0,B|137:204|137:204|149:173,1,63.7500026553869,0|0,0:0|0:2,0:0:0:0:
205,110,26211,2,0,B|234:105|234:105|265:117,1,63.7500026553869,0|0,3:2|0:2,0:0:0:0:
329,173,26506,2,0,B|333:202|333:202|321:233,1,63.7500026553869,0|0,3:2|0:2,0:0:0:0:
266,297,26800,2,0,B|236:301|236:301|205:289,1,63.7500026553869,0|2,3:2|0:2,0:0:0:0:
124,171,27094,2,0,B|142:194|142:194|147:227,1,63.7500026553869,2|0,3:2|0:2,0:0:0:0:
87,356,27388,2,0,B|98:329|98:329|124:308,1,63.7500026553869,0|0,3:2|0:2,0:0:0:0:
256,192,27682,5,8,3:2:0:0:
372,324,27829,2,0,B|403:335|403:335|432:331,1,63.7500026553869,8|0,0:2|0:0,0:0:0:0:
444,166,28123,6,0,B|431:219|431:219|446:278|446:278|433:330,1,170.000000596046,12|0,0:2|3:2,0:0:0:0:
400,85,28564,2,0,B|441:74|441:74|482:84,1,85.000000298023,8|0,0:2|0:2,0:0:0:0:
348,163,28859,1,0,3:2:0:0:
269,28,29006,2,0,B|259:69|259:69|270:111,1,85.000000298023,0|8,3:2|0:2,0:0:0:0:
99,193,29300,6,0,B|152:206|152:206|211:191|211:191|263:204,1,170.000000596046,0|0,3:2|3:2,0:0:0:0:
340,339,29741,2,0,B|350:298|350:298|340:257,1,85.000000298023,8|0,0:2|0:2,0:0:0:0:
255,297,30035,1,0,3:2:0:0:
118,373,30182,2,0,B|160:362|160:362|201:373,1,85.000000298023,0|8,3:2|0:2,0:0:0:0:
129,208,30476,6,0,B|116:261|116:261|131:320|131:320|118:372,1,170.000000596046,0|0,3:2|3:2,0:0:0:0:
17,239,30917,2,0,B|37:321,1,85.000000298023,8|0,0:2|0:2,0:0:0:0:
52,151,31212,1,0,3:2:0:0:
129,208,31359,2,0,B|216:185,1,85.000000298023,0|8,3:2|0:2,0:0:0:0:
140,43,31653,6,0,B|127:96|127:96|142:155|142:155|129:207,1,170.000000596046,0|0,0:2|3:2,0:0:0:0:
222,22,32094,2,0,B|139:42,1,85.000000298023,8|0,0:2|3:2,0:0:0:0:
52,151,32388,1,8,0:2:0:0:
128,208,32535,1,8,0:3:0:0:
40,316,32682,1,4,0:3:0:0:
116,373,32829,6,0,B|308:323,1,170.000000596046,4|0,3:2|3:2,0:0:0:0:
512,205,33270,6,0,B|472:195|472:195|427:206|427:206|388:196,1,127.500000447035,8|0,0:2|0:0,0:0:0:0:
423,306,33564,2,0,B|393:277|393:277|349:265|349:265|320:236,1,127.500000447035,8|0,0:2|0:0,0:0:0:0:
295,348,33859,2,0,B|283:308|283:308|251:275|251:275|240:236,1,127.500000447035,8|0,0:2|0:0,0:0:0:0:
163,321,34153,2,0,B|172:281|172:281|161:236|161:236|171:197,1,127.500000447035,8|0,0:2|0:0,0:0:0:0:
62,231,34446,2,0,B|90:201|90:201|102:157|102:157|131:128,1,127.500000447035,8|0,0:2|0:0,0:0:0:0:
19,102,34741,2,0,B|58:90|58:90|91:58|91:58|130:47,1,127.500000447035,8|0,0:2|0:0,0:0:0:0:
17,21,35035,1,8,0:2:0:0:
234,2,35182,6,0,B|184:194,1,170.000000596046,4|0,3:2|3:2,0:0:0:0:
0,199,35623,6,0,B|39:208|39:208|84:197|84:197|123:207,1,127.500000447035,8|0,0:2|0:0,0:0:0:0:
89,98,35917,2,0,B|118:126|118:126|162:138|162:138|191:167,1,127.500000447035,8|0,0:2|0:0,0:0:0:0:
217,56,36212,2,0,B|228:95|228:95|260:128|260:128|271:167,1,127.500000447035,8|0,0:2|0:0,0:0:0:0:
349,83,36506,2,0,B|339:122|339:122|350:167|350:167|340:206,1,127.500000447035,8|0,0:2|0:0,0:0:0:0:
450,173,36799,2,0,B|421:202|421:202|409:246|409:246|380:275,1,127.500000447035,8|0,0:2|0:0,0:0:0:0:
493,302,37094,2,0,B|453:313|453:313|420:345|420:345|381:356,1,127.500000447035,8|0,0:2|0:0,0:0:0:0:
495,383,37387,1,8,0:2:0:0:
340,206,37535,6,0,B|298:371,1,170.000000596046,4|0,3:2|3:2,0:0:0:0:
117,384,37976,6,0,B|80:364|80:364|35:363|35:363|0:343,1,127.500000447035,8|0,0:2|0:0,0:0:0:0:
91,287,38270,2,0,B|69:251|69:251|30:228|30:228|9:193,1,127.500000447035,8|0,0:2|0:0,0:0:0:0:
116,189,38564,2,0,B|115:147|115:147|92:107|92:107|92:67,1,127.500000447035,8|0,0:2|0:0,0:0:0:0:
187,117,38859,2,0,B|206:80|206:80|207:35|207:35|227:0,1,127.500000447035,8|0,0:2|0:0,0:0:0:0:
284,90,39153,2,0,B|319:68|319:68|342:29|342:29|377:8,1,127.500000447035,8|0,0:2|0:0,0:0:0:0:
381,115,39447,2,0,B|422:114|422:114|462:91|462:91|502:91,1,127.500000447035,8|0,0:2|0:0,0:0:0:0:
452,185,39741,1,8,0:2:0:0:
284,90,39888,6,0,B|326:254,1,170.000000596046,4|0,3:2|3:2,0:0:0:0:
395,384,40329,6,0,B|431:364|431:364|476:363|476:363|512:343,1,127.500000447035,8|0,0:2|0:0,0:0:0:0:
421,287,40623,2,0,B|442:251|442:251|481:228|481:228|502:193,1,127.500000447035,8|0,0:2|0:0,0:0:0:0:
396,189,40917,2,0,B|396:147|396:147|419:107|419:107|419:67,1,127.500000447035,8|0,0:2|0:0,0:0:0:0:
325,117,41212,2,0,B|305:80|305:80|304:35|304:35|284:0,1,127.500000447035,8|0,0:2|0:0,0:0:0:0:
228,90,41506,2,0,B|192:68|192:68|169:29|169:29|134:8,1,127.500000447035,8|0,0:2|0:0,0:0:0:0:
131,115,41800,2,0,B|89:114|89:114|49:91|49:91|9:91,1,127.500000447035,8|0,0:2|0:0,0:0:0:0:
60,185,42094,1,4,0:3:0:0:
186,254,42241,6,0,B|228:90,1,170.000000596046,4|0,0:2|3:2,0:0:0:0:
503,0,42682,6,0,B|503:39|503:39|480:79|480:79|480:121,1,127.500000447035,8|0,0:2|0:0,0:0:0:0:
381,59,42976,2,0,B|401:93|401:93|401:139|401:139|422:176,1,127.500000447035,8|0,0:2|0:0,0:0:0:0:
345,237,43270,2,0,B|345:197|345:197|322:157|322:157|322:115,1,127.500000447035,8|0,0:2|0:0,0:0:0:0:
223,177,43564,2,0,B|243:142|243:142|243:96|243:96|264:59,1,127.500000447035,8|0,0:2|0:0,0:0:0:0:
187,0,43859,2,0,B|187:40|187:40|164:80|164:80|164:122,1,127.500000447035,8|0,0:2|0:0,0:0:0:0:
65,60,44153,2,0,B|85:94|85:94|85:140|85:140|106:177,1,127.500000447035,8|0,0:2|0:0,0:0:0:0:
162,233,44447,1,8,0:2:0:0:
273,151,44594,6,0,B|246:197|246:197|246:259|246:259|217:308,1,170.000000596046,4|0,3:2|3:2,0:0:0:0:
503,385,45035,6,0,B|503:345|503:345|480:305|480:305|480:263,1,127.500000447035,8|0,0:2|0:0,0:0:0:0:
381,325,45329,2,0,B|401:290|401:290|401:244|401:244|422:207,1,127.500000447035,8|0,0:2|0:0,0:0:0:0:
345,147,45623,2,0,B|345:187|345:187|322:227|322:227|322:269,1,127.500000447035,8|0,0:2|0:0,0:0:0:0:
223,207,45917,2,0,B|243:241|243:241|243:287|243:287|264:324,1,127.500000447035,8|0,0:2|0:0,0:0:0:0:
187,384,46212,2,0,B|187:344|187:344|164:304|164:304|164:262,1,127.500000447035,8|0,0:2|0:0,0:0:0:0:
65,324,46506,2,0,B|85:289|85:289|85:243|85:243|106:206,1,127.500000447035,8|0,0:2|0:0,0:0:0:0:
162,151,46800,1,0,0:0:0:0:
273,233,46947,6,0,B|246:186|246:186|246:124|246:124|217:75,1,170.000000596046,4|0,3:2|3:2,0:0:0:0:
353,86,47388,2,0,B|331:122|331:122|331:170|331:170,1,85.000000298023,8|0,0:2|0:2,0:0:0:0:
390,236,47682,5,0,3:2:0:0:
423,149,47829,1,0,3:2:0:0:
481,219,47976,2,0,B|481:214|481:262|481:262|460:299,1,85.000000298023,8|0,0:2|0:2,0:0:0:0:
298,252,48270,5,0,3:2:0:0:
265,339,48417,1,0,3:2:0:0:
206,268,48564,2,0,B|206:273|206:225|206:225|227:188,1,85.000000298023,8|0,0:2|0:2,0:0:0:0:
98,58,48859,5,0,3:2:0:0:
156,128,49006,1,0,3:2:0:0:
189,41,49153,1,8,0:2:0:0:
247,111,49300,6,0,B|247:105|247:153|247:153|225:190,1,85.000000298023,4|0,3:2|0:2,0:0:0:0:
193,276,49594,1,0,3:2:0:0:
135,206,49741,2,0,B|135:211|135:163|135:163|156:126,1,85.000000298023,8|0,0:2|3:2,0:0:0:0:
292,36,50035,2,0,B|288:32|322:66|322:66|332:107,1,85.000000298023,8|0,0:2|3:2,0:0:0:0:
90,281,50329,2,0,B|93:284|59:250|59:250|49:209,1,85.000000298023,12|0,0:2|3:2,0:0:0:0:
253,105,50623,6,0,L|266:185,1,42.5000001490115,8|8,0:2|0:2,0:0:0:0:
128,211,50770,2,0,L|120:164,1,42.5000001490115,8|8,0:2|0:2,0:0:0:0:
247,111,50917,6,0,L|260:191,1,42.5000001490115,8|8,0:2|0:2,0:0:0:0:
135,206,51064,2,0,L|128:164,1,42.5000001490115,8|8,0:2|0:2,0:0:0:0:
219,232,51212,6,0,B|258:241|258:241|302:230|302:230|342:240,1,127.500005310774,4|0,3:2|0:0,0:0:0:0:
12,339,51800,6,0,B|25:286|25:286|10:227|10:227|23:175,1,170.000000596046,6|8,3:2|0:2,0:0:0:0:
110,227,52241,1,2,0:2:0:0:
208,115,52388,2,0,B|195:168|195:168|210:227|210:227|197:279,1,170.000000596046,2|8,3:2|0:2,0:0:0:0:
294,167,52829,1,2,0:2:0:0:
303,268,52976,6,0,L|393:291,1,85.000000298023,2|0,3:2|0:2,0:0:0:0:
505,229,53270,2,0,L|484:312,1,85.000000298023,8|0,0:2|0:2,0:0:0:0:
429,108,53564,2,0,L|405:198,1,85.000000298023,2|0,3:2|3:2,0:0:0:0:
227,147,53859,2,0,L|317:170,1,85.000000298023,10|0,0:2|0:2,0:0:0:0:
139,35,54153,6,0,B|152:88|152:88|137:147|137:147|150:199,1,170.000000596046,2|8,3:2|0:2,0:0:0:0:
178,297,54594,1,2,0:2:0:0:
59,323,54741,2,0,B|46:270|46:270|61:211|61:211|48:159,1,170.000000596046,2|8,3:2|0:2,0:0:0:0:
20,61,55182,1,2,0:2:0:0:
150,199,55329,6,0,B|203:212|203:212|262:197|262:197|314:210,1,170.000000596046,2|8,3:2|0:2,0:0:0:0:
412,238,55770,1,2,0:2:0:0:
504,194,55917,2,0,B|514:235|514:235|504:276,1,85.000000298023,2|0,3:2|0:0,0:0:0:0:
431,121,56212,2,0,B|389:131|389:131|348:121,1,85.000000298023,8|0,0:2|0:2,0:0:0:0:
270,14,56506,6,0,L|249:97,1,85.000000298023,2|0,3:2|0:2,0:0:0:0:
138,173,56800,2,0,L|221:195,1,85.000000298023,10|0,0:2|0:2,0:0:0:0:
297,304,57094,2,0,L|318:221,1,85.000000298023,2|0,3:2|0:0,0:0:0:0:
159,91,57388,6,0,L|137:173,1,85.000000298023,10|0,0:2|0:2,0:0:0:0:
27,250,57682,2,0,L|109:271,1,85.000000298023,2|0,3:2|0:2,0:0:0:0:
185,380,57976,2,0,L|206:297,1,85.000000298023,10|0,0:2|0:2,0:0:0:0:
303,184,58270,2,0,B|251:171|251:171|192:186|192:186|139:173,1,170.000000596046,2|10,3:2|0:2,0:0:0:0:
500,369,58859,6,0,B|513:317|513:317|498:258|498:258|511:205,1,170.000000596046,2|8,3:2|0:2,0:0:0:0:
445,126,59300,1,2,0:2:0:0:
351,85,59447,2,0,B|340:126|340:126|351:167,1,85.000000298023,2|0,3:2|3:2,0:0:0:0:
259,294,59741,2,0,B|269:253|269:253|259:212,1,85.000000298023,8|0,0:2|0:2,0:0:0:0:
202,46,60035,6,0,B|192:85|192:85|203:129|203:129|193:169,1,127.500005310774,0|0,3:2|0:0,0:0:0:0:
124,127,60329,2,0,B|114:166|114:166|125:210|125:210|115:250,1,127.500005310774,12|0,0:2|0:0,0:0:0:0:
99,327,60623,2,0,B|140:337,1,42.5000001490115,8|8,0:2|0:2,0:0:0:0:
191,268,60770,2,0,B|232:278,1,42.5000001490115,8|8,0:2|0:2,0:0:0:0:
216,357,60917,2,0,B|257:367,1,42.5000001490115,8|8,0:2|0:2,0:0:0:0:
308,298,61064,2,0,B|349:308,1,42.5000001490115,8|8,0:2|0:2,0:0:0:0:
418,350,61212,6,0,B|428:308|428:308|417:267,1,85.000000298023,6|0,3:2|0:2,0:0:0:0:
392,85,61506,2,0,B|382:126|382:126|393:168,1,85.000000298023,12|0,0:2|0:2,0:0:0:0:
486,215,61800,2,0,B|496:173|496:173|485:132,1,85.000000298023,0|0,3:2|3:2,0:0:0:0:
323,219,62094,1,10,0:2:0:0:
159,158,62241,6,0,B|200:168|200:168|242:157,1,85.000000298023,2|0,0:2|3:2,0:0:0:0:
199,64,62535,1,0,3:2:0:0:
65,118,62682,2,0,B|55:159|55:159|66:201,1,85.000000298023,8|2,0:2|0:2,0:0:0:0:
198,257,62976,2,0,B|208:298|208:298|197:340,1,85.000000298023,2|2,3:2|3:2,0:0:0:0:
21,296,63270,2,0,B|63:307|63:307|104:297,1,85.000000298023,8|2,0:2|0:2,0:0:0:0:
209,92,63564,6,0,B|196:145|196:145|211:204|211:204|198:256,1,170.000000596046,8|8,3:2|0:3,0:0:0:0:
110,202,64006,1,8,0:3:0:0:
296,146,64153,2,0,B|337:136|337:136|379:147,1,85.000000298023,4|4,0:3|0:3,0:0:0:0:
500,251,64447,6,0,B|447:238|447:238|388:253|388:253|336:240,1,170.000000596046,12|0,0:2|0:0,0:0:0:0:
447,338,64888,1,0,3:2:0:0:
263,328,65035,2,0,L|345:349,1,85.000000298023,8|0,0:2|0:0,0:0:0:0:
233,230,65329,1,2,3:2:0:0:
163,304,65476,1,2,3:2:0:0:
51,185,65623,2,0,L|133:206,1,85.000000298023,12|2,0:2|0:2,0:0:0:0:
205,50,65917,6,0,B|215:91|215:91|204:133,1,85.000000298023,4|0,3:2|0:2,0:0:0:0:
109,93,66212,1,10,0:2:0:0:
307,50,66359,2,0,B|297:91|297:91|308:133,1,85.000000298023,2|0,0:2|3:2,0:0:0:0:
403,93,66652,1,0,3:2:0:0:
446,187,66800,2,0,B|405:197|405:197|363:186,1,85.000000298023,10|2,0:2|0:2,0:0:0:0:
149,198,67094,6,0,B|107:187|107:187|66:197,1,85.000000298023,4|0,3:2|0:2,0:0:0:0:
109,291,67387,1,10,0:2:0:0:
204,251,67535,2,0,B|215:293|215:293|205:334,1,85.000000298023,2|0,0:2|3:2,0:0:0:0:
403,291,67829,1,0,3:2:0:0:
308,251,67977,2,0,B|297:293|297:293|307:334,1,85.000000298023,10|0,0:2|0:0,0:0:0:0:
446,197,68270,6,0,B|405:187|405:187|363:198,1,85.000000298023,4|0,3:2|3:2,0:0:0:0:
66,187,68564,2,0,B|107:197|107:197|149:186,1,85.000000298023,8|8,0:2|0:3,0:0:0:0:
271,42,68859,1,8,0:3:0:0:
241,142,69006,1,4,0:3:0:0:
271,242,69153,1,4,0:3:0:0:
241,342,69300,1,4,0:3:0:0:
342,117,69447,6,0,B|383:127|383:127|425:116,1,85.000000298023,10|0,0:2|0:0,0:0:0:0:
170,267,69741,2,0,B|129:257|129:257|87:268,1,85.000000298023,6|8,0:2|0:2,0:0:0:0:
109,168,69962,1,8,0:2:0:0:
109,168,70035,2,0,B|150:178,1,42.5000001490115,8|8,0:2|0:2,0:0:0:0:
225,141,70182,2,0,B|266:151,1,42.5000001490115,8|8,0:2|0:2,0:0:0:0:
246,233,70329,2,0,B|287:243,1,42.5000001490115,8|8,0:2|0:2,0:0:0:0:
362,206,70476,2,0,B|403:216,1,42.5000001490115,8|8,0:2|0:2,0:0:0:0:
493,261,70623,6,0,B|504:219|504:219|494:178,1,85.000000298023,4|0,3:2|0:2,0:0:0:0:
413,34,70917,2,0,B|402:76|402:76|412:117,1,85.000000298023,12|0,0:2|0:2,0:0:0:0:
307,79,71212,1,0,3:2:0:0:
201,34,71359,2,0,B|212:76|212:76|202:117,1,85.000000298023,0|8,3:2|0:2,0:0:0:0:
90,202,71653,6,0,B|143:189|143:189|202:204|202:204|254:191,1,170.000000596046,4|0,3:2|3:2,0:0:0:0:
141,278,72094,2,0,B|131:319|131:319|142:361,1,85.000000298023,8|0,0:2|0:2,0:0:0:0:
234,317,72388,1,0,3:2:0:0:
326,273,72535,2,0,B|337:315|337:315|327:356,1,85.000000298023,0|8,3:2|0:2,0:0:0:0:
428,214,72829,6,0,B|441:267|441:267|426:326|426:326|439:378,1,170.000000596046,4|0,3:2|3:2,0:0:0:0:
428,214,73270,2,0,B|470:203|470:203|511:213,1,85.000000298023,8|0,0:2|0:2,0:0:0:0:
377,125,73564,1,0,3:2:0:0:
326,214,73712,2,0,B|284:225|284:225|243:215,1,85.000000298023,0|8,3:2|0:2,0:0:0:0:
128,292,74006,6,0,B|170:281|170:281|294:312,1,170.000000596046,4|0,3:2|3:2,0:0:0:0:
473,340,74447,2,0,B|432:330|432:330|390:341,1,85.000000298023,8|0,0:2|0:2,0:0:0:0:
367,241,74741,1,0,3:2:0:0:
390,141,74888,2,0,B|432:152|432:152|473:142,1,85.000000298023,0|8,3:2|0:2,0:0:0:0:
238,52,75182,6,0,B|185:65|185:65|126:50|126:50|74:63,1,170.000000596046,4|0,3:2|3:2,0:0:0:0:
122,227,75623,2,0,B|112:186|112:186|123:144,1,85.000000298023,8|0,0:2|0:2,0:0:0:0:
215,187,75917,1,0,3:2:0:0:
303,237,76064,2,0,B|344:227|344:227|386:238,1,85.000000298023,0|8,3:2|0:2,0:0:0:0:
203,351,76359,6,0,B|216:298|216:298|201:239|201:239|214:187,1,170.000000596046,4|0,3:2|3:2,0:0:0:0:
302,50,76800,2,0,B|312:91|312:91|301:133,1,85.000000298023,8|0,0:2|0:2,0:0:0:0:
208,89,77094,1,0,3:2:0:0:
115,45,77241,2,0,B|104:87|104:87|114:128,1,85.000000298023,0|8,3:2|0:2,0:0:0:0:
303,237,77535,1,12,0:2:0:0:
203,351,77829,6,0,B|216:298|216:298|201:239|201:239|214:187,1,170.000000596046,12|0,0:2|3:2,0:0:0:0:
314,72,78270,2,0,B|301:125|301:125|316:184|316:184|303:236,1,170.000000596046,12|0,0:2|3:2,0:0:0:0:
104,333,78712,2,0,B|117:280|117:280|102:221|102:221|115:169,1,170.000000596046,12|0,0:2|3:2,0:0:0:0:
214,186,79153,1,12,0:2:0:0:
192,56,79300,5,8,0:2:0:0:
192,56,79373,1,8,0:2:0:0:
192,56,79447,2,0,L|172:131,1,42.5000001490115,8|8,0:3|0:3,0:0:0:0:
273,114,79594,2,0,L|284:73,1,42.5000001490115,4|4,0:3|0:3,0:0:0:0:
375,89,79741,2,0,L|345:207,1,85.000000298023,8|8,0:2|0:2,0:0:0:0:
201,271,80035,6,0,B|242:261|242:261|284:272,1,85.000000298023,4|0,0:2|0:2,0:0:0:0:
242,365,80329,1,8,0:2:0:0:
293,192,80476,2,0,B|240:179|240:179|181:194|181:194|129:181,1,170.000000596046,0|0,3:2|3:2,0:0:0:0:
179,92,80917,1,8,0:2:0:0:
382,41,81064,6,0,B|395:94|395:94|380:153|380:153|393:205,1,170.000000596046,0|0,3:2|3:2,0:0:0:0:
295,95,81506,1,8,0:2:0:0:
129,181,81653,2,0,B|181:194|181:194|240:179|240:179|293:192,1,170.000000596046,0|0,3:2|3:2,0:0:0:0:
179,92,82094,1,8,0:2:0:0:
90,42,82241,1,0,3:2:0:0:
40,131,82388,6,0,B|29:173|29:173|39:214,1,85.000000298023,8|0,0:2|3:2,0:0:0:0:
115,281,82682,1,8,0:2:0:0:
277,371,82829,2,0,B|290:318|290:318|275:259|275:259|288:207,1,170.000000596046,0|0,3:2|3:2,0:0:0:0:
373,261,83270,1,8,0:2:0:0:
469,151,83417,6,0,B|456:204|456:204|471:263|471:263|458:315,1,170.000000596046,0|0,3:2|3:2,0:0:0:0:
377,162,83859,1,8,0:2:0:0:
296,9,84006,2,0,B|283:61|283:61|298:120|298:120|285:173,1,170.000000596046,0|0,3:2|3:2,0:0:0:0:
198,118,84447,1,8,0:2:0:0:
175,271,84594,6,0,B|227:258|227:258|286:273|286:273|339:260,1,170.000000596046,0|0,3:2|3:2,0:0:0:0:
121,186,85035,1,8,0:2:0:0:
64,367,85182,2,0,B|117:354|117:354|176:369|176:369|228:356,1,170.000000596046,0|0,3:2|3:2,0:0:0:0:
175,271,85623,1,8,0:2:0:0:
265,103,85770,6,0,B|278:156|278:156|263:215|263:215|276:267,1,170.000000596046,0|0,3:2|3:2,0:0:0:0:
177,156,86212,1,8,0:2:0:0:
78,45,86359,2,0,B|91:97|91:97|76:156|76:156|89:209,1,170.000000596046,0|0,3:2|3:2,0:0:0:0:
119,307,86800,1,8,0:2:0:0:
177,156,86947,1,0,3:2:0:0:
205,253,87094,6,0,B|247:264|247:264|288:254,1,85.000000298023,8|0,0:2|3:2,0:0:0:0:
374,201,87388,1,8,0:2:0:0:
293,148,87535,1,0,3:2:0:0:
318,55,87682,1,8,0:2:0:0:
415,50,87829,1,8,3:3:0:0:
450,140,87976,1,4,0:3:0:0:
287,254,88123,5,4,3:2:0:0:
135,23,88417,1,4,3:2:0:0:
10,270,88712,1,4,3:2:0:0:
