osu file format v14

[General]
AudioFilename: audio.mp3
AudioLeadIn: 0
PreviewTime: 51175
Countdown: 0
SampleSet: Soft
StackLeniency: 0.4
Mode: 0
LetterboxInBreaks: 0
WidescreenStoryboard: 1

[Editor]
Bookmarks: 13811,18517,23223,27929,32635,46753,51606
DistanceSpacing: 1.5
BeatDivisor: 4
GridSize: 4
TimelineZoom: 2.4

[Metadata]
Title:Lonely Go! (TV Size)
TitleUnicode:Lonely Go! (TV Size)
Artist:Brian The Sun
ArtistUnicode:Brian The Sun
Creator:Nevo
Version:Jougan
Source:BORUTO-ボルト-NARUTO NEXT GENERATIONS
Tags:mordred nelliel monstrata yukiyo aro agatsu naruto sarada uzimaki anime opening op ayyri eiri- fieryrage sotarks reform onlybiscuit
BeatmapID:1805627
BeatmapSetID:863227

[Difficulty]
HPDrainRate:5
CircleSize:4
OverallDifficulty:9.5
ApproachRate:9.6
SliderMultiplier:1.70000000596046
SliderTickRate:1

[Events]
//Background and Video events
0,0,"818879.png",0,0
Video,0,"brainthesun.mp4"
//Break Periods
//Storyboard Layer 0 (Background)
//Storyboard Layer 1 (Fail)
//Storyboard Layer 2 (Pass)
//Storyboard Layer 3 (Foreground)
//Storyboard Sound Samples

[TimingPoints]
1212,294.117647058824,4,2,1,75,1,0
1312,-133.333333333333,4,2,1,75,0,0
2388,294.117647058824,4,2,1,75,1,0
2388,-133.333333333333,4,2,1,75,0,0
7094,-100,4,2,1,75,0,0
14006,-133.333333333333,4,2,1,60,0,0
18712,-100,4,2,1,75,0,0
23417,-133.333333333333,4,2,1,60,0,0
28050,-133.333333333333,4,2,1,5,0,0
28123,-100,4,2,1,75,0,0
32829,-83.3333333333333,4,2,1,85,0,1
46652,-83.3333333333333,4,2,1,75,0,0
51799,-83.3333333333333,4,2,1,85,0,1
77535,-83.3333333333333,4,2,1,75,0,0
77682,-83.3333333333333,4,2,1,75,0,0
80035,-83.3333333333333,4,2,1,85,0,1
88711,-181.818181818181,4,2,1,60,0,0
89447,-181.818181818181,4,2,1,5,0,0

[Colours]
Combo1 : 89,255,255
Combo2 : 255,219,72
Combo3 : 216,216,216
Combo4 : 255,81,81

[HitObjects]
122,123,1212,5,8,0:2:0:0:
124,165,1285,1,8,0:2:0:0:
126,208,1359,2,0,L|75:217,3,31.8750013276934,4|4|4|0,0:3|0:3|0:3|0:3,0:3:0:0:
196,257,1653,2,0,L|239:262,3,31.8750013276934,8|8|8|8,0:3|0:3|0:3|0:3,0:3:0:0:
132,318,1947,2,0,L|59:332,1,63.7500026553869,4|4,0:3|0:3,0:3:0:0:
209,174,2388,5,6,3:2:0:0:
307,339,4741,1,4,3:2:0:0:
90,330,5917,1,4,3:2:0:0:
200,266,6506,1,4,3:2:0:0:
30,214,6947,2,0,L|-18:202,1,31.8750013276934,0|8,3:2|0:2,0:0:0:0:
114,163,7094,6,0,L|226:156,1,85.000000298023,4|0,0:2|0:2,0:0:0:0:
446,154,7388,1,8,0:2:0:0:
258,85,7535,1,8,0:2:0:0:
387,278,7682,1,8,0:2:0:0:
391,56,7829,1,8,0:2:0:0:
250,228,7976,1,8,0:2:0:0:
468,172,8123,1,8,0:2:0:0:
311,13,8270,5,8,0:2:0:0:
394,306,8417,1,8,0:2:0:0:
484,67,8564,1,8,0:2:0:0:
250,228,8712,1,0,3:2:0:0:
273,91,8859,1,8,0:2:0:0:
451,229,9006,1,8,0:2:0:0:
391,56,9153,1,8,0:2:0:0:
301,306,9300,6,0,L|176:298,1,85.000000298023,12|0,0:2|0:2,0:0:0:0:
52,232,9594,1,0,3:2:0:0:
127,342,9741,2,0,L|132:257,1,85.000000298023,12|0,0:2|0:2,0:0:0:0:
153,106,10035,1,0,3:2:0:0:
191,191,10182,1,0,3:2:0:0:
207,28,10329,1,8,0:2:0:0:
331,120,10476,6,0,L|246:114,1,85.000000298023,0|0,3:2|0:2,0:0:0:0:
382,42,10770,1,0,3:2:0:0:
398,199,10917,2,0,P|423:165|427:123,1,85.000000298023,8|0,0:2|0:2,0:0:0:0:
302,212,11212,1,0,3:2:0:0:
493,196,11359,1,0,3:2:0:0:
331,120,11506,1,8,0:2:0:0:
394,283,11653,6,0,L|399:159,1,85.000000298023,0|0,3:2|0:2,0:0:0:0:
405,29,11947,1,0,3:2:0:0:
512,127,12094,2,0,L|388:122,1,85.000000298023,8|0,0:2|0:2,0:0:0:0:
222,123,12388,1,0,3:2:0:0:
278,47,12535,1,0,3:2:0:0:
282,197,12682,1,8,0:2:0:0:
150,48,12829,6,0,B|136:66|129:94|129:94|131:152|155:222,1,170.000000596046,0|0,3:2|3:2,0:0:0:0:
45,308,13270,2,0,P|48:254|49:203,1,85.000000298023,8|0,0:2|0:2,0:0:0:0:
222,123,13564,1,8,0:2:0:0:
146,239,13712,1,8,0:3:0:0:
39,92,13859,1,4,0:3:0:0:
139,267,14006,6,0,P|198:244|272:262,1,127.500005310774,6|0,3:2|0:0,0:0:0:0:
367,362,14447,2,0,P|339:338|325:303,1,63.7500026553869,2|0,0:2|0:2,0:0:0:0:
409,225,14741,2,0,L|406:311,2,63.7500026553869,2|2|0,3:2|0:2|3:2,0:0:0:0:
488,85,15182,6,0,P|429:108|355:90,1,127.500005310774,2|0,0:2|0:0,0:0:0:0:
255,4,15623,2,0,P|282:27|297:63,1,63.7500026553869,2|0,3:2|0:2,0:0:0:0:
210,143,15917,2,0,L|207:57,2,63.7500026553869,2|2|0,3:2|0:2|3:2,0:0:0:0:
151,275,16359,6,0,P|206:243|289:268,1,127.500005310774,2|0,0:2|0:0,0:0:0:0:
408,335,16800,2,0,L|502:328,1,63.7500026553869,2|0,3:2|0:2,0:0:0:0:
342,290,17094,2,0,P|328:328|335:368,2,63.7500026553869,2|2|0,3:2|0:2|3:2,0:0:0:0:
450,227,17535,1,2,0:2:0:0:
291,149,17682,6,0,L|306:229,1,63.7500026553869,0|0,3:2|0:2,0:0:0:0:
431,85,17976,2,0,L|416:165,1,63.7500026553869,2|0,3:2|0:2,0:0:0:0:
214,111,18270,1,10,0:2:0:0:
356,21,18417,2,0,L|341:101,1,63.7500026553869,2|0,3:2|3:2,0:0:0:0:
190,281,18712,6,0,L|172:185,1,85.000000298023,12|0,0:2|0:2,0:0:0:0:
278,316,19006,1,0,3:2:0:0:
76,353,19153,2,0,L|94:257,1,85.000000298023,8|0,0:2|0:2,0:0:0:0:
141,92,19447,1,0,3:2:0:0:
67,184,19594,1,0,3:2:0:0:
235,157,19741,1,8,0:2:0:0:
77,24,19888,6,0,B|48:73|48:73|70:201,1,170.000000596046,0|0,3:2|3:2,0:0:0:0:
311,106,20329,2,0,P|296:87|223:62,1,85.000000298023,8|0,0:2|0:2,0:0:0:0:
317,202,20623,1,0,3:2:0:0:
366,32,20770,1,0,3:2:0:0:
235,157,20917,1,8,0:2:0:0:
376,267,21064,6,0,B|408:225|408:225|392:101,1,170.000000596046,0|0,3:2|3:2,0:0:0:0:
485,22,21506,2,0,L|500:145,1,85.000000298023,8|0,0:0|0:0,0:0:0:0:
317,202,21800,1,0,3:2:0:0:
393,108,21947,1,0,3:2:0:0:
376,267,22094,1,8,0:2:0:0:
232,212,22241,6,0,L|316:201,1,85.000000298023,0|0,3:2|0:2,0:0:0:0:
138,324,22535,2,0,L|222:334,1,85.000000298023,0|8,3:2|0:2,0:0:0:0:
59,203,22829,1,0,3:2:0:0:
63,374,22976,1,8,0:2:0:0:
128,124,23123,1,8,0:3:0:0:
138,324,23270,1,4,0:3:0:0:
35,110,23417,6,0,P|56:67|93:39,1,63.7500026553869,6|0,0:2|3:2,0:0:0:0:
148,215,23712,1,0,0:2:0:0:
148,215,23859,2,0,P|103:217|70:195,1,63.7500026553869,2|0,3:2|0:2,0:0:0:0:
233,180,24153,2,0,L|227:262,1,63.7500026553869,2|2,3:2|0:2,0:0:0:0:
320,296,24447,2,0,L|315:217,1,63.7500026553869,0|0,0:0|0:0,0:0:0:0:
453,151,24741,6,0,P|394:165|322:111,1,127.500005310774,0|2,3:2|3:2,0:0:0:0:
284,52,25182,1,0,0:2:0:0:
407,17,25329,2,0,L|401:93,1,63.7500026553869,2|2,3:2|0:2,0:0:0:0:
327,225,25623,1,0,3:2:0:0:
453,282,25770,6,0,P|392:237|321:258,1,127.500005310774,2|0,0:2|0:2,0:0:0:0:
192,190,26212,2,0,P|227:188|267:207,1,63.7500026553869,0|0,3:2|0:2,0:0:0:0:
363,105,26506,2,0,P|330:117|302:152,1,63.7500026553869,0|0,3:2|0:2,0:0:0:0:
172,100,26800,2,0,P|207:98|247:117,1,63.7500026553869,0|2,3:2|0:2,0:0:0:0:
95,220,27094,6,0,L|102:152,1,63.7500026553869,2|0,3:2|0:2,0:0:0:0:
198,253,27388,2,0,L|191:189,1,63.7500026553869,0|0,3:2|0:2,0:0:0:0:
34,295,27682,1,8,3:2:0:0:
158,359,27829,2,0,P|191:336|267:342,1,95.6250039830803,8|0,0:2|0:2,0:0:0:0:
321,364,28123,6,0,L|325:261,1,85.000000298023,12|0,0:2|0:2,0:0:0:0:
317,113,28417,1,0,3:2:0:0:
444,197,28564,2,0,L|348:196,1,85.000000298023,8|0,0:2|0:2,0:0:0:0:
199,97,28859,1,0,3:2:0:0:
317,113,29006,1,0,3:2:0:0:
132,184,29153,1,8,0:2:0:0:
198,12,29300,6,0,L|198:96,1,85.000000298023,0|0,3:2|0:2,0:0:0:0:
385,50,29594,1,0,3:2:0:0:
385,50,29741,2,0,P|339:21|283:28,1,85.000000298023,8|0,0:2|0:2,0:0:0:0:
113,100,30035,1,0,3:2:0:0:
312,114,30182,1,0,3:2:0:0:
84,202,30329,1,8,0:2:0:0:
300,305,30476,6,0,L|305:213,1,85.000000298023,0|0,3:2|0:2,0:0:0:0:
236,83,30770,1,0,3:2:0:0:
137,280,30917,2,0,P|195:274|232:251,1,85.000000298023,8|0,0:2|0:2,0:0:0:0:
312,114,31212,1,0,3:2:0:0:
160,186,31359,1,0,3:2:0:0:
385,263,31506,1,8,0:2:0:0:
236,83,31653,6,0,L|231:175,1,85.000000298023,0|0,0:2|0:2,0:0:0:0:
391,96,31947,2,0,L|386:4,1,85.000000298023,0|8,3:2|0:2,0:0:0:0:
338,158,32241,1,0,3:2:0:0:
472,81,32388,1,8,0:2:0:0:
236,83,32535,1,8,0:3:0:0:
391,96,32682,1,4,0:3:0:0:
162,140,32829,6,0,P|142:92|166:20,1,101.999997244835,4|0,3:2|0:2,0:0:0:0:
299,11,33123,1,0,3:2:0:0:
322,236,33270,5,8,0:2:0:0:
236,83,33417,1,0,3:2:0:0:
248,301,33564,5,8,0:2:0:0:
309,132,33712,1,0,3:2:0:0:
333,335,33859,5,8,0:2:0:0:
234,181,34006,1,0,3:2:0:0:
154,375,34153,5,8,0:2:0:0:
322,236,34300,1,0,3:2:0:0:
89,233,34447,5,8,0:2:0:0:
333,335,34594,1,0,3:2:0:0:
65,327,34741,5,8,0:2:0:0:
248,301,34888,1,0,3:2:0:0:
8,258,35035,5,8,0:2:0:0:
154,375,35182,2,0,L|168:268,1,101.999997244835,4|0,3:2|0:2,0:0:0:0:
188,142,35476,1,0,3:2:0:0:
322,236,35623,5,8,0:2:0:0:
254,47,35770,1,0,3:2:0:0:
248,301,35917,5,8,0:2:0:0:
338,113,36064,1,0,3:2:0:0:
390,379,36212,5,8,0:2:0:0:
247,150,36359,1,0,3:2:0:0:
214,384,36506,5,8,0:2:0:0:
322,236,36653,1,0,3:2:0:0:
116,342,36800,5,8,0:2:0:0:
344,312,36947,1,0,3:2:0:0:
173,98,37094,5,8,0:2:0:0:
248,301,37241,1,0,3:2:0:0:
250,30,37388,5,8,0:2:0:0:
115,179,37535,2,0,P|158:195|227:187,1,101.999997244835,4|0,3:2|0:2,0:0:0:0:
387,113,37829,1,0,3:2:0:0:
248,301,37976,5,8,0:2:0:0:
173,98,38123,1,0,3:2:0:0:
329,349,38270,5,8,0:2:0:0:
375,134,38417,1,0,3:2:0:0:
138,338,38564,5,8,0:2:0:0:
410,296,38712,1,0,3:2:0:0:
99,243,38859,5,8,0:2:0:0:
329,349,39006,1,0,3:2:0:0:
37,365,39153,5,8,0:2:0:0:
247,310,39300,1,0,3:2:0:0:
52,166,39447,5,8,0:2:0:0:
138,338,39594,1,0,3:2:0:0:
248,73,39741,5,8,0:2:0:0:
164,260,39888,2,0,L|58:255,1,101.999997244835,4|0,3:2|0:2,0:0:0:0:
192,158,40182,1,0,3:2:0:0:
138,338,40329,5,8,0:2:0:0:
29,132,40476,1,0,3:2:0:0:
47,366,40623,5,8,0:2:0:0:
121,119,40770,1,0,3:2:0:0:
216,384,40917,5,8,0:2:0:0:
89,199,41064,1,0,3:2:0:0:
298,334,41212,5,8,0:2:0:0:
53,277,41359,1,0,3:2:0:0:
259,94,41506,5,8,0:2:0:0:
129,352,41653,1,0,3:2:0:0:
87,76,41800,5,8,0:2:0:0:
246,258,41947,1,8,0:3:0:0:
186,11,42094,5,4,0:3:0:0:
55,274,42241,2,0,L|177:262,1,101.999997244835,4|0,0:2|0:2,0:0:0:0:
350,243,42535,1,0,3:2:0:0:
179,116,42682,5,8,0:2:0:0:
295,350,42829,1,0,3:2:0:0:
292,62,42976,5,8,0:2:0:0:
169,306,43123,1,0,3:2:0:0:
208,29,43270,5,8,0:2:0:0:
278,271,43418,1,0,3:2:0:0:
29,200,43565,5,8,0:2:0:0:
356,149,43712,1,0,3:2:0:0:
94,96,43859,5,8,0:2:0:0:
366,253,44006,1,0,3:2:0:0:
66,311,44153,5,8,0:2:0:0:
283,206,44300,1,0,3:2:0:0:
0,111,44447,5,8,0:2:0:0:
272,307,44594,2,0,L|287:164,1,101.999997244835,4|0,3:2|0:2,0:0:0:0:
292,45,44888,1,0,3:2:0:0:
396,286,45035,5,8,0:2:0:0:
123,147,45182,1,0,3:2:0:0:
483,209,45329,5,8,0:2:0:0:
165,241,45476,1,0,3:2:0:0:
388,107,45623,5,8,0:2:0:0:
340,372,45770,1,0,3:2:0:0:
265,85,45917,5,8,0:2:0:0:
396,286,46064,1,0,3:2:0:0:
349,23,46212,5,8,0:2:0:0:
257,324,46359,1,0,3:2:0:0:
204,9,46506,5,8,0:2:0:0:
317,251,46653,1,0,3:2:0:0:
317,251,46947,6,0,L|191:241,1,101.999997244835,4|0,3:2|0:2,0:0:0:0:
82,237,47241,1,0,3:2:0:0:
155,82,47388,2,0,P|171:136|153:188,1,101.999997244835,8|0,0:2|0:2,0:0:0:0:
40,324,47682,1,0,3:2:0:0:
74,132,47829,1,0,3:2:0:0:
169,343,47976,2,0,L|295:333,1,101.999997244835,8|0,0:2|0:2,0:0:0:0:
434,313,48270,1,0,3:2:0:0:
342,256,48417,1,0,3:2:0:0:
442,115,48564,2,0,L|436:245,1,101.999997244835,8|0,0:2|0:2,0:0:0:0:
333,368,48859,5,0,3:2:0:0:
342,256,49006,1,0,3:2:0:0:
434,313,49153,1,8,0:2:0:0:
249,306,49300,6,0,L|244:204,1,101.999997244835,4|0,3:2|0:2,0:0:0:0:
288,83,49594,1,0,3:2:0:0:
149,217,49741,1,8,0:2:0:0:
285,203,49888,1,0,3:2:0:0:
104,96,50035,1,8,0:2:0:0:
232,283,50182,1,0,3:2:0:0:
187,27,50329,1,12,0:2:0:0:
83,281,50476,1,0,3:2:0:0:
382,113,50623,6,8,L|449:123,3,50.9999986224174,8|8|8|8,0:2|0:2|0:2|0:2,0:2:0:0:
285,203,50917,2,8,L|218:213,3,50.9999986224174,8|8|8|8,0:2|0:2|0:2|0:2,0:2:0:0:
386,310,51212,5,4,3:2:0:0:
386,310,51800,6,0,L|391:187,1,101.999997244835,6|0,3:2|0:2,0:0:0:0:
213,58,52094,2,0,L|218:181,1,101.999997244835,8|2,0:2|0:2,0:0:0:0:
229,348,52388,1,2,3:2:0:0:
307,156,52535,1,0,3:2:0:0:
323,373,52682,1,8,0:2:0:0:
110,214,52829,1,2,0:2:0:0:
392,238,52976,6,0,P|420:196|425:146,1,101.999997244835,2|0,3:2|0:2,0:0:0:0:
197,182,53270,2,0,P|218:227|260:256,1,101.999997244835,8|0,0:2|0:2,0:0:0:0:
492,297,53564,1,2,3:2:0:0:
294,159,53712,1,0,3:2:0:0:
512,103,53859,1,10,0:2:0:0:
367,329,54006,1,0,0:2:0:0:
387,26,54153,6,0,L|381:155,1,101.999997244835,2|0,3:2|0:2,0:0:0:0:
201,283,54447,2,0,L|195:154,1,101.999997244835,8|2,0:2|0:2,0:0:0:0:
174,10,54741,1,2,3:2:0:0:
300,201,54888,1,0,3:2:0:0:
82,123,55035,1,8,0:2:0:0:
301,56,55182,1,2,0:2:0:0:
167,240,55329,6,0,L|55:227,1,101.999997244835,2|0,3:2|0:2,0:0:0:0:
232,152,55623,1,8,0:2:0:0:
261,346,55770,1,2,0:2:0:0:
404,233,55917,2,0,P|314:250|239:154,1,203.999994489669,2|8,3:2|0:2,0:0:0:0:
157,6,56359,1,0,0:2:0:0:
22,203,56506,6,0,L|154:193,1,101.999997244835,2|0,3:2|0:2,0:0:0:0:
380,158,56800,1,10,0:2:0:0:
193,102,56947,1,0,0:2:0:0:
349,263,57094,1,2,3:2:0:0:
358,43,57241,1,0,0:0:0:0:
237,306,57388,2,0,L|231:177,1,101.999997244835,10|0,0:2|0:2,0:0:0:0:
486,109,57682,6,0,L|480:238,1,101.999997244835,2|0,3:2|0:2,0:0:0:0:
261,138,57976,1,10,0:2:0:0:
391,84,58123,1,0,0:2:0:0:
362,295,58270,2,0,L|356:166,1,101.999997244835,2|0,3:2|3:2,0:0:0:0:
171,41,58564,2,0,L|165:170,1,101.999997244835,10|0,0:2|0:2,0:0:0:0:
439,123,58859,6,0,B|397:86|397:86|243:101,1,203.999994489669,2|8,3:2|0:2,0:0:0:0:
72,131,59300,1,2,0:2:0:0:
308,222,59447,1,2,3:2:0:0:
95,312,59594,1,0,3:2:0:0:
221,184,59741,1,8,0:2:0:0:
297,382,59888,1,0,0:2:0:0:
123,120,60035,6,0,L|109:232,1,101.999997244835,0|0,3:2|3:2,0:0:0:0:
385,45,60329,2,0,L|399:157,1,101.999997244835,12|0,0:2|0:2,0:0:0:0:
235,50,60623,6,8,L|246:-13,3,50.9999986224174,8|8|8|8,0:2|0:2|0:2|0:2,0:2:0:0:
305,117,60917,2,8,L|312:178,3,50.9999986224174,8|8|8|8,0:2|0:2|0:2|0:2,0:2:0:0:
385,45,61212,6,0,L|508:34,1,101.999997244835,6|0,3:2|0:2,0:0:0:0:
327,246,61506,2,0,L|204:235,1,101.999997244835,12|0,0:2|0:2,0:0:0:0:
13,194,61800,1,0,3:2:0:0:
230,103,61947,1,0,3:2:0:0:
94,86,62094,2,0,L|121:230,1,101.999997244835,10|2,0:0|0:0,0:0:0:0:
175,363,62388,5,0,3:2:0:0:
197,33,62535,1,0,3:2:0:0:
74,268,62682,1,8,0:2:0:0:
59,4,62829,1,2,0:2:0:0:
273,246,62976,1,2,3:2:0:0:
17,154,63123,1,2,3:2:0:0:
287,106,63270,1,8,0:2:0:0:
165,209,63417,1,2,0:2:0:0:
412,228,63564,5,8,3:2:0:0:
286,19,63712,1,0,0:2:0:0:
272,245,63859,1,8,0:3:0:0:
426,140,64006,1,8,0:3:0:0:
199,130,64153,1,4,0:3:0:0:
364,317,64300,1,4,0:3:0:0:
417,52,64447,5,12,0:2:0:0:
417,52,64888,1,0,3:2:0:0:
492,234,65035,1,8,0:2:0:0:
492,234,65329,2,0,L|371:223,1,101.999997244835,2|2,3:2|3:2,0:0:0:0:
262,326,65623,2,0,L|383:315,1,101.999997244835,12|2,0:2|0:2,0:0:0:0:
167,168,65917,6,0,P|161:221|178:266,1,101.999997244835,4|0,3:2|0:2,0:0:0:0:
246,110,66212,1,10,0:2:0:0:
82,126,66359,1,2,0:2:0:0:
256,208,66506,2,0,L|377:197,1,101.999997244835,0|0,3:2|3:2,0:0:0:0:
238,13,66800,2,0,L|117:2,1,101.999997244835,10|2,0:2|0:2,0:0:0:0:
145,201,67094,6,0,P|178:150|175:82,1,101.999997244835,4|0,3:2|0:2,0:0:0:0:
33,247,67388,1,10,0:2:0:0:
256,208,67535,1,2,0:2:0:0:
82,126,67682,1,0,3:2:0:0:
91,324,67829,1,0,3:2:0:0:
181,110,67976,1,10,0:2:0:0:
217,313,68123,1,2,0:2:0:0:
115,35,68270,6,0,P|161:10|233:24,1,101.999997244835,4|0,3:2|3:2,0:0:0:0:
387,153,68564,1,8,0:2:0:0:
181,110,68712,1,8,0:3:0:0:
336,254,68859,1,8,0:3:0:0:
305,68,69006,1,4,0:3:0:0:
193,219,69153,1,4,0:3:0:0:
437,234,69300,1,4,0:3:0:0:
392,28,69447,5,10,0:2:0:0:
245,301,69741,1,6,0:2:0:0:
107,76,69888,5,8,0:2:0:0:
107,76,69962,1,8,0:2:0:0:
107,76,70035,2,8,L|113:127,1,50.9999986224174,8|8,0:2|0:2,0:2:0:0:
193,219,70182,2,8,L|198:168,1,50.9999986224174,8|8,0:2|0:2,0:2:0:0:
288,83,70329,2,8,L|293:133,1,50.9999986224174,8|8,0:2|0:2,0:2:0:0:
376,232,70476,2,8,L|381:181,1,50.9999986224174,8|8,0:2|0:2,0:2:0:0:
474,62,70623,6,0,L|481:200,1,101.999997244835,4|0,3:2|0:2,0:0:0:0:
285,351,70917,2,0,L|278:213,1,101.999997244835,12|0,0:2|0:2,0:0:0:0:
113,127,71212,1,0,3:2:0:0:
277,165,71359,1,0,3:2:0:0:
90,251,71506,1,8,0:2:0:0:
165,60,71653,6,0,L|170:161,1,101.999997244835,4|0,3:2|0:2,0:0:0:0:
240,0,71947,1,0,3:2:0:0:
35,31,72094,2,0,L|29:132,1,101.999997244835,8|0,0:2|0:2,0:0:0:0:
38,314,72388,1,0,3:2:0:0:
172,158,72535,1,0,3:2:0:0:
156,344,72682,1,8,0:2:0:0:
8,223,72829,6,0,L|109:217,1,101.999997244835,4|0,3:2|0:2,0:0:0:0:
330,245,73123,1,0,3:2:0:0:
267,114,73270,2,0,P|241:160|250:224,1,101.999997244835,8|0,0:2|0:2,0:0:0:0:
428,157,73564,2,0,P|403:113|358:89,1,101.999997244835,0|0,3:2|3:2,0:0:0:0:
177,83,73859,1,8,0:2:0:0:
333,283,74006,6,0,L|336:151,1,101.999997244835,4|0,3:2|0:2,0:0:0:0:
246,338,74300,1,0,3:2:0:0:
432,275,74447,1,8,0:2:0:0:
234,230,74594,1,0,0:2:0:0:
422,80,74741,2,0,L|425:212,1,101.999997244835,0|0,3:2|3:2,0:0:0:0:
445,368,75035,1,8,0:2:0:0:
234,230,75182,6,0,L|369:220,1,101.999997244835,4|0,3:2|0:2,0:0:0:0:
159,294,75476,1,0,3:2:0:0:
87,116,75623,2,0,P|123:152|143:199,1,101.999997244835,8|0,0:2|0:2,0:0:0:0:
35,339,75917,1,0,3:2:0:0:
59,217,76064,1,0,3:2:0:0:
244,344,76212,1,8,0:2:0:0:
224,72,76359,6,0,P|187:107|168:154,1,101.999997244835,4|0,3:2|0:2,0:0:0:0:
348,58,76653,1,0,3:2:0:0:
131,46,76800,1,8,0:2:0:0:
281,166,76947,1,0,0:2:0:0:
59,217,77094,1,0,3:2:0:0:
224,72,77241,1,0,3:2:0:0:
264,289,77388,1,8,0:2:0:0:
131,46,77535,1,12,0:2:0:0:
131,46,77829,5,12,0:2:0:0:
187,257,77976,1,0,3:2:0:0:
224,72,78123,1,0,3:2:0:0:
73,233,78270,5,12,0:2:0:0:
279,151,78417,1,0,3:2:0:0:
56,92,78564,1,0,3:2:0:0:
162,324,78712,6,0,B|196:261|196:261|170:101,1,203.999994489669,12|0,0:2|3:2,0:0:0:0:
73,233,79153,1,12,0:2:0:0:
285,284,79300,1,8,0:2:0:0:
285,284,79373,1,8,0:2:0:0:
285,284,79447,2,0,L|353:295,3,50.9999986224174,8|8|4|4,0:3|0:3|0:3|0:3,0:0:0:0:
210,212,79741,6,0,L|159:220,1,50.9999986224174,8|0,0:2|0:2,0:0:0:0:
284,152,79888,2,0,L|334:160,1,50.9999986224174,8|0,0:2|0:2,0:0:0:0:
214,85,80035,6,0,L|107:103,1,101.999997244835,4|0,0:2|0:2,0:0:0:0:
292,17,80329,5,8,0:2:0:0:
210,212,80476,1,0,3:2:0:0:
412,90,80623,5,8,0:2:0:0:
95,45,80770,1,0,3:2:0:0:
471,209,80917,5,8,0:2:0:0:
89,187,81064,1,0,3:2:0:0:
296,337,81211,5,8,0:2:0:0:
242,31,81358,1,0,3:2:0:0:
170,344,81506,5,8,0:2:0:0:
323,57,81652,1,0,3:2:0:0:
414,350,81799,5,8,0:2:0:0:
171,113,81947,1,0,3:2:0:0:
430,240,82094,5,8,0:2:0:0:
48,204,82241,1,0,3:2:0:0:
392,165,82388,5,8,0:2:0:0:
71,302,82535,1,0,3:2:0:0:
292,101,82682,5,8,0:2:0:0:
224,378,82829,1,0,3:2:0:0:
133,73,82976,5,8,0:2:0:0:
339,345,83123,1,0,3:2:0:0:
331,8,83270,5,8,0:2:0:0:
196,298,83417,1,0,3:2:0:0:
29,120,83564,5,8,0:2:0:0:
392,186,83712,1,0,3:2:0:0:
27,226,83859,5,8,0:2:0:0:
330,101,84006,1,0,3:2:0:0:
225,353,84153,5,8,0:2:0:0:
104,32,84300,1,0,3:2:0:0:
82,364,84447,5,8,0:2:0:0:
222,44,84594,1,0,3:2:0:0:
388,325,84741,5,12,0:2:0:0:
44,275,84888,1,0,3:2:0:0:
432,152,85035,5,8,0:2:0:0:
54,168,85182,1,0,3:2:0:0:
316,59,85329,5,8,0:2:0:0:
173,370,85476,1,0,3:2:0:0:
127,53,85623,5,8,0:2:0:0:
278,351,85770,1,0,3:2:0:0:
227,22,85917,5,8,0:2:0:0:
115,301,86064,1,0,3:2:0:0:
44,34,86212,5,8,0:2:0:0:
318,129,86359,1,0,3:2:0:0:
45,220,86506,5,8,0:2:0:0:
370,210,86653,1,0,3:2:0:0:
0,118,86800,5,8,0:2:0:0:
363,49,86947,1,0,3:2:0:0:
173,320,87094,5,8,0:2:0:0:
278,77,87241,1,0,3:2:0:0:
281,367,87388,5,8,0:2:0:0:
138,82,87535,1,0,3:2:0:0:
58,338,87682,5,8,0:2:0:0:
212,25,87829,1,8,3:3:0:0:
165,377,87976,5,4,0:3:0:0:
22,73,88123,2,0,L|157:60,1,101.999997244835,4|0,3:2|3:2,3:2:0:0:
377,204,88417,2,0,L|242:191,1,101.999997244835,4|0,3:2|3:2,3:2:0:0:
52,333,88712,2,0,P|7:323|87:272,1,233.750007953047,4|0,3:2|0:2,0:0:0:0:
