osu file format v14

[General]
AudioFilename: audio.mp3
AudioLeadIn: 0
PreviewTime: 51175
Countdown: 0
SampleSet: Soft
StackLeniency: 0.4
Mode: 0
LetterboxInBreaks: 0
WidescreenStoryboard: 1

[Editor]
DistanceSpacing: 1
BeatDivisor: 4
GridSize: 4
TimelineZoom: 2.4

[Metadata]
Title:Lonely Go! (TV Size)
TitleUnicode:Lonely Go! (TV Size)
Artist:Brian The Sun
ArtistUnicode:Brian The Sun
Creator:Nevo
Version:Fiery's Extreme
Source:BORUTO-ボルト-NARUTO NEXT GENERATIONS
Tags:mordred nelliel monstrata yukiyo aro agatsu naruto sarada uzimaki anime opening op ayyri eiri- fieryrage sotarks reform onlybiscuit
BeatmapID:1860433
BeatmapSetID:863227

[Difficulty]
HPDrainRate:5
CircleSize:4
OverallDifficulty:9.2
ApproachRate:9.4
SliderMultiplier:1.60000000596046
SliderTickRate:1

[Events]
//Background and Video events
0,0,"818879.png",0,0
Video,0,"brainthesun.mp4"
//Break Periods
//Storyboard Layer 0 (Background)
//Storyboard Layer 1 (Fail)
//Storyboard Layer 2 (Pass)
//Storyboard Layer 3 (Foreground)
//Storyboard Sound Samples

[TimingPoints]
1212,294.117647058824,4,2,1,75,1,0
1212,-125,4,2,1,75,0,0
2388,294.117647058824,4,2,1,75,1,0
2388,-166.666666666667,4,2,1,75,0,0
2462,-166.666666666667,4,2,2,5,0,0
2976,-166.666666666667,4,2,1,45,0,0
3050,-166.666666666667,4,2,2,5,0,0
3564,-166.666666666667,4,2,1,45,0,0
3638,-166.666666666667,4,2,2,5,0,0
4153,-166.666666666667,4,2,1,45,0,0
4741,-166.666666666667,4,2,1,75,0,0
4814,-166.666666666667,4,2,2,5,0,0
5329,-166.666666666667,4,2,1,45,0,0
5403,-166.666666666667,4,2,2,5,0,0
5917,-166.666666666667,4,2,1,75,0,0
5991,-166.666666666667,4,2,2,5,0,0
6506,-166.666666666667,4,2,1,75,0,0
7094,-125,4,2,1,75,0,0
9299,-100,4,2,1,75,0,1
9373,-100,4,2,1,75,0,0
14006,-166.666666666667,4,2,1,60,0,0
17682,-125,4,2,1,60,0,0
18270,-50,4,2,1,60,0,0
18712,-100,4,2,1,75,0,0
23417,-166.666666666667,4,2,1,60,0,0
27094,-125,4,2,1,60,0,0
27682,-50,4,2,1,60,0,0
28123,-100,4,2,1,75,0,0
32829,-100,4,2,1,85,0,0
46947,-100,4,2,1,75,0,0
51211,-250,4,2,1,75,0,0
51799,-83.3333333333333,4,2,1,85,0,1
70623,-100,4,2,1,85,0,0
77535,-100,4,2,1,75,0,0
77682,-100,4,2,1,75,0,0
79814,-100,4,2,1,35,0,0
80035,-83.3333333333333,4,2,1,85,0,1
88197,-83.3333333333333,4,2,2,5,0,1
88417,-125,4,2,1,85,0,1
88491,-125,4,2,2,5,0,1
88711,-125,4,2,1,60,0,0
88785,-125,4,2,2,5,0,0
89153,-250,4,2,1,20,0,0
89226,-250,4,2,2,5,0,0
89300,-250,4,2,1,10,0,0

[Colours]
Combo1 : 89,255,255
Combo2 : 255,219,72
Combo3 : 216,216,216
Combo4 : 255,81,81

[HitObjects]
111,70,1212,6,0,L|109:118,1,32.0000001192092,8|8,0:2|0:2,0:0:0:0:
130,82,1359,2,0,L|135:138,3,32.0000001192092,4|4|4|0,0:3|0:3|0:3|0:3,0:0:0:0:
214,51,1653,2,0,L|212:92,1,32.0000001192092,8|8,0:3|0:3,0:0:0:0:
234,67,1800,2,0,L|237:119,3,32.0000001192092,8|8|4|0,0:3|0:3|0:3|0:0,0:0:0:0:
320,49,2094,5,4,0:3:0:0:
87,242,2388,6,0,B|142:255|215:232|215:232|195:268|210:313|210:313|247:287|299:284|344:301|377:345|377:345|409:281|391:216|391:216|372:146|419:82,1,671.999981995581,6|0,3:2|0:0,0:0:0:0:
232,52,4741,6,0,B|228:86|206:102|206:102|230:122|233:148|233:148|172:217|212:316,1,287.999992283821,4|0,3:2|0:0,0:0:0:0:
41,171,5917,6,0,P|63:115|86:196,1,191.99999485588,4|2,3:2|3:2,0:0:0:0:
103,188,6947,1,0,3:2:0:0:
289,138,7094,5,4,0:2:0:0:
298,146,7388,2,0,L|302:227,1,64.0000002384184,8|8,0:2|0:2,0:0:0:0:
192,81,7682,2,0,L|188:162,1,64.0000002384184,8|8,0:2|0:2,0:0:0:0:
182,320,7976,2,0,L|185:256,1,64.0000002384184,8|8,0:2|0:2,0:0:0:0:
294,82,8270,6,0,L|298:146,1,64.0000002384184,8|8,0:2|0:2,0:0:0:0:
184,256,8564,1,8,0:2:0:0:
192,81,8712,1,0,3:2:0:0:
192,81,8785,1,0,0:0:0:0:
192,81,8859,2,0,L|188:162,1,64.0000002384184,8|8,0:2|0:2,0:0:0:0:
425,242,9299,6,0,P|356:268|263:247,1,160.000000596046,4|0,0:2|3:2,0:0:0:0:
180,188,9741,2,0,P|166:225|164:268,1,80.000000298023,12|0,0:2|0:2,0:0:0:0:
270,121,10035,1,0,3:2:0:0:
270,121,10182,1,0,3:2:0:0:
180,188,10329,2,0,P|140:198|94:192,1,80.000000298023,8|0,0:2|3:2,0:0:0:0:
263,42,10623,6,0,P|272:80|269:120,1,80.000000298023,0|0,0:2|3:2,0:0:0:0:
101,194,10917,2,0,P|97:154|107:115,1,80.000000298023,8|0,0:2|0:2,0:0:0:0:
323,233,11212,1,0,3:2:0:0:
269,120,11359,1,0,3:2:0:0:
202,295,11506,1,8,0:2:0:0:
107,115,11653,6,0,P|97:154|101:194,1,80.000000298023,0|0,3:2|0:2,0:0:0:0:
269,120,11947,1,0,3:2:0:0:
123,288,12094,2,0,P|161:297|201:294,1,80.000000298023,8|0,0:2|0:2,0:0:0:0:
361,223,12388,1,0,3:2:0:0:
361,223,12535,1,0,3:2:0:0:
201,293,12682,2,0,P|191:331|195:371,1,80.000000298023,8|0,0:2|3:2,0:0:0:0:
361,223,12976,6,0,P|365:183|355:144,1,80.000000298023,0|0,0:0|3:2,0:0:0:0:
197,67,13270,2,0,L|249:65,3,40.0000001490115,8|0|0|0,0:2|0:0|0:2|0:0,0:0:0:0:
177,94,13564,2,0,B|168:135|168:135|174:182,2,80.000000298023,8|8|4,0:2|0:3|0:3,0:0:0:0:
350,46,14006,5,6,3:2:0:0:
350,46,14447,2,0,L|353:104,1,47.9999987139701,2|0,0:2|0:2,0:0:0:0:
177,94,14741,2,0,L|179:46,2,47.9999987139701,2|2|0,3:2|0:2|3:2,0:0:0:0:
404,168,15182,6,0,P|356:178|301:169,1,95.9999974279402,2|0,0:2|0:0,0:0:0:0:
177,94,15623,2,0,L|175:142,1,47.9999987139701,2|0,3:2|0:2,0:0:0:0:
350,46,15917,2,0,L|352:94,2,47.9999987139701,2|2|0,3:2|0:2|3:2,0:0:0:0:
177,94,16359,1,2,0:2:0:0:
372,173,16506,6,0,P|380:201|380:234,1,47.9999987139701,0|0,0:0|0:0,0:0:0:0:
195,198,16800,2,0,P|187:220|185:244,1,47.9999987139701,2|0,3:2|0:2,0:0:0:0:
381,219,17094,2,0,P|389:247|389:280,1,47.9999987139701,2|2,3:2|0:2,0:0:0:0:
184,244,17388,2,0,P|176:266|174:290,1,47.9999987139701,0|2,3:2|0:2,0:0:0:0:
415,120,17682,5,0,3:2:0:0:
98,135,17976,1,2,3:2:0:0:
415,120,18270,6,0,B|388:114|366:127|366:127|330:109|330:109|294:124|289:161,1,160.000000596046,10|10,0:2|3:2,0:0:0:0:
289,160,18712,6,0,P|213:178|131:159,1,160.000000596046,4|0,0:2|3:2,0:0:0:0:
33,277,19153,2,0,L|30:190,1,80.000000298023,8|0,0:2|0:2,0:0:0:0:
191,297,19447,1,0,3:2:0:0:
191,297,19594,2,0,L|194:210,1,80.000000298023,0|8,3:2|0:2,0:0:0:0:
27,117,19888,6,0,L|29:196,1,80.000000298023,0|0,3:2|0:0,0:0:0:0:
182,70,20182,1,0,3:2:0:0:
33,277,20329,2,0,P|77:283|117:274,1,80.000000298023,8|0,0:2|0:2,0:0:0:0:
27,117,20623,1,0,3:2:0:0:
27,117,20770,2,0,L|115:114,1,80.000000298023,0|8,3:2|0:2,0:0:0:0:
312,216,21064,6,0,P|316:175|307:137,1,80.000000298023,0|0,3:2|0:0,0:0:0:0:
251,22,21359,1,0,3:2:0:0:
198,170,21506,1,8,0:0:0:0:
257,4,21653,1,0,0:0:0:0:
375,144,21800,2,0,P|417:156|452:152,1,80.000000298023,0|0,3:2|3:2,0:0:0:0:
198,170,22094,1,8,0:2:0:0:
198,170,22241,6,0,L|201:90,1,80.000000298023,0|0,3:2|0:2,0:0:0:0:
378,223,22535,2,0,L|374:143,1,80.000000298023,0|8,3:2|0:2,0:0:0:0:
192,266,22829,1,0,3:2:0:0:
278,39,22976,5,8,0:2:0:0:
340,308,23123,1,8,0:3:0:0:
279,21,23270,1,4,0:3:0:0:
182,291,23417,5,6,0:2:0:0:
182,291,23858,2,0,L|234:289,1,47.9999987139701,2|0,3:2|0:2,0:0:0:0:
351,352,24152,2,0,L|303:350,2,47.9999987139701,2|2|0,3:2|0:2|0:0,0:0:0:0:
274,206,24593,1,0,0:0:0:0:
274,206,24740,6,0,L|326:204,1,47.9999987139701,0|0,3:2|0:0,0:0:0:0:
107,348,25035,2,0,L|155:350,1,47.9999987139701,2|0,3:2|0:2,0:0:0:0:
29,184,25329,2,0,L|76:182,2,47.9999987139701,2|2|0,3:2|0:2|3:2,0:0:0:0:
107,348,25770,1,2,0:2:0:0:
157,148,25917,6,0,P|162:174|160:210,1,47.9999987139701,0|0,0:0|0:2,0:0:0:0:
23,231,26211,2,0,P|23:207|28:183,1,47.9999987139701,0|0,3:2|0:2,0:0:0:0:
161,195,26505,2,0,P|166:221|164:257,1,47.9999987139701,0|0,3:2|0:2,0:0:0:0:
28,183,26799,2,0,P|28:159|33:135,1,47.9999987139701,0|2,3:2|0:2,0:0:0:0:
123,20,27093,5,2,3:2:0:0:
143,349,27388,1,0,3:2:0:0:
123,20,27682,6,0,B|125:49|112:67|112:67|118:81|118:81|114:94|114:94|130:126|120:178,1,160.000000596046,8|8,3:2|0:2,0:0:0:0:
120,174,28123,6,0,B|108:225|108:225|120:346,1,160.000000596046,4|0,0:2|3:2,0:0:0:0:
291,181,28564,2,0,P|251:170|209:176,1,80.000000298023,8|0,0:2|0:2,0:0:0:0:
226,353,28858,1,0,3:2:0:0:
226,353,29005,2,0,P|265:357|303:346,1,80.000000298023,0|8,3:2|0:2,0:0:0:0:
437,185,29299,6,0,L|440:270,1,80.000000298023,0|0,3:2|0:2,0:0:0:0:
330,158,29593,1,0,3:2:0:0:
476,335,29740,2,0,P|439:342|394:328,1,80.000000298023,8|0,0:2|0:2,0:0:0:0:
325,137,30035,1,0,3:2:0:0:
303,345,30182,1,0,3:2:0:0:
230,122,30329,1,8,0:2:0:0:
204,329,30476,6,0,P|165:340|126:336,1,80.000000298023,0|0,3:2|0:2,0:0:0:0:
230,122,30770,1,0,3:2:0:0:
230,122,30917,2,0,P|268:110|307:114,1,80.000000298023,8|0,0:2|0:2,0:0:0:0:
101,197,31211,2,0,L|98:117,1,80.000000298023,0|0,3:2|3:2,0:0:0:0:
281,250,31505,1,8,0:2:0:0:
281,250,31652,6,0,L|278:330,1,80.000000298023,0|0,0:2|0:2,0:0:0:0:
101,197,31946,2,0,L|105:277,1,80.000000298023,0|8,3:2|0:2,0:0:0:0:
287,154,32240,1,0,3:2:0:0:
206,318,32387,5,8,0:2:0:0:
144,49,32534,1,8,0:3:0:0:
205,336,32681,1,4,0:3:0:0:
303,58,32829,5,4,3:2:0:0:
87,220,33123,1,0,3:2:0:0:
87,220,33270,2,0,L|178:217,1,80.000000298023,8|0,0:2|3:2,0:0:0:0:
61,131,33564,2,0,L|140:128,1,80.000000298023,8|0,0:2|3:2,0:0:0:0:
342,211,33859,2,0,L|262:213,1,80.000000298023,8|0,0:2|3:2,0:0:0:0:
350,37,34153,5,8,0:2:0:0:
140,128,34300,2,0,L|219:125,1,80.000000298023,0|8,3:2|0:2,0:0:0:0:
421,208,34594,2,0,L|341:210,1,80.000000298023,0|8,3:2|0:2,0:0:0:0:
87,220,34888,1,0,3:2:0:0:
313,110,35035,1,8,0:2:0:0:
67,234,35182,5,4,3:2:0:0:
313,110,35476,1,0,3:2:0:0:
313,110,35623,2,0,L|308:215,1,80.000000298023,8|0,0:2|3:2,0:0:0:0:
215,101,35917,2,0,L|210:206,1,80.000000298023,8|0,0:2|3:2,0:0:0:0:
406,200,36212,2,0,L|409:120,1,80.000000298023,8|0,0:2|3:2,0:0:0:0:
121,93,36506,5,8,0:2:0:0:
406,200,36653,2,0,L|409:120,1,80.000000298023,0|8,3:2|0:2,0:0:0:0:
119,173,36947,2,0,L|122:93,1,80.000000298023,0|8,3:2|0:2,0:0:0:0:
342,260,37241,1,0,3:2:0:0:
269,20,37388,1,8,0:2:0:0:
164,282,37535,5,4,3:2:0:0:
64,44,37829,1,0,3:2:0:0:
64,44,37976,2,0,P|56:81|63:128,1,80.000000298023,8|0,0:2|3:2,0:0:0:0:
269,20,38270,2,0,P|277:57|270:104,1,80.000000298023,8|0,0:2|3:2,0:0:0:0:
64,44,38564,1,8,0:2:0:0:
175,224,38712,1,0,3:2:0:0:
269,20,38859,6,0,P|277:57|270:104,1,80.000000298023,8|0,0:2|3:2,0:0:0:0:
61,122,39153,1,8,0:2:0:0:
194,55,39300,1,0,3:2:0:0:
39,133,39447,2,0,P|31:170|38:217,1,80.000000298023,8|0,0:2|3:2,0:0:0:0:
245,297,39741,1,8,0:2:0:0:
194,55,39888,5,4,3:2:0:0:
439,132,40182,1,0,3:2:0:0:
439,132,40329,2,0,L|346:135,1,80.000000298023,8|0,0:2|3:2,0:0:0:0:
121,193,40623,2,0,L|214:196,1,80.000000298023,8|0,0:2|3:2,0:0:0:0:
448,244,40917,2,0,L|355:247,1,80.000000298023,8|0,0:2|3:2,0:0:0:0:
121,193,41211,6,0,P|116:154|126:116,1,80.000000298023,8|0,0:2|3:2,0:0:0:0:
363,168,41505,2,0,P|372:206|367:245,1,80.000000298023,8|0,0:2|3:2,0:0:0:0:
126,115,41799,2,0,L|129:54,1,40.0000001490115,8|0,0:2|0:0,0:0:0:0:
211,96,41946,2,0,L|213:57,3,40.0000001490115,8|0|4|0,0:3|0:0|0:3|0:0,0:0:0:0:
121,193,42240,6,0,B|199:216|199:216|288:201,1,160.000000596046,4|0,0:2|3:2,0:0:0:0:
389,136,42682,1,8,0:2:0:0:
389,136,42829,1,0,3:2:0:0:
276,202,42976,2,0,P|271:240|286:292,1,80.000000298023,8|0,0:2|3:2,0:0:0:0:
389,136,43270,2,0,P|398:97|393:57,1,80.000000298023,8|0,0:2|3:2,0:0:0:0:
137,107,43564,6,0,L|234:104,1,80.000000298023,8|0,0:2|3:2,0:0:0:0:
360,282,43858,2,0,L|263:279,1,80.000000298023,8|0,0:2|3:2,0:0:0:0:
348,36,44152,1,8,0:2:0:0:
394,186,44299,1,0,3:2:0:0:
343,15,44446,1,8,0:2:0:0:
280,279,44593,6,0,P|259:201|276:119,1,160.000000596046,4|0,3:2|3:2,0:0:0:0:
343,15,45035,1,8,0:2:0:0:
343,15,45182,1,0,3:2:0:0:
146,54,45329,2,0,L|235:50,1,80.000000298023,8|0,0:2|3:2,0:0:0:0:
408,137,45623,2,0,L|319:133,1,80.000000298023,8|0,0:2|3:2,0:0:0:0:
123,209,45917,6,0,P|116:168|123:129,1,80.000000298023,8|0,0:2|3:2,0:0:0:0:
138,93,46138,1,0,0:0:0:0:
138,93,46211,1,8,0:2:0:0:
328,133,46358,2,0,L|258:136,1,40.0000001490115,0|0,3:2|0:0,0:0:0:0:
30,180,46505,5,8,0:2:0:0:
348,129,46652,1,8,3:2:0:0:
348,129,46946,6,0,B|371:189|371:189|359:314,1,160.000000596046,4|0,3:2|3:2,0:0:0:0:
175,133,47388,2,0,P|163:183|168:217,1,80.000000298023,8|0,0:2|0:2,0:0:0:0:
269,55,47682,1,0,3:2:0:0:
269,55,47829,1,0,3:2:0:0:
175,133,47976,2,0,P|131:140|88:131,1,80.000000298023,8|0,0:2|0:2,0:0:0:0:
349,206,48270,6,0,L|351:114,1,80.000000298023,0|0,3:2|3:2,0:0:0:0:
136,225,48564,2,0,L|134:133,1,80.000000298023,8|0,0:2|0:2,0:0:0:0:
251,310,48858,1,0,3:2:0:0:
292,54,49005,1,0,3:2:0:0:
248,333,49152,1,8,0:2:0:0:
136,54,49299,5,4,3:2:0:0:
472,156,49593,1,0,3:2:0:0:
472,156,49740,2,0,L|392:156,1,80.000000298023,8|0,0:2|3:2,0:0:0:0:
133,286,50035,2,0,L|212:286,1,80.000000298023,8|0,0:2|3:2,0:0:0:0:
375,79,50329,2,0,P|393:131|390:161,1,80.000000298023,12|0,0:2|3:2,0:0:0:0:
158,113,50623,6,0,L|160:55,1,40.0000001490115,8|8,0:2|0:2,0:0:0:0:
139,126,50770,2,0,L|137:165,1,40.0000001490115,8|8,0:2|0:2,0:0:0:0:
121,112,50917,2,0,L|123:54,1,40.0000001490115,8|8,0:2|0:2,0:0:0:0:
102,125,51064,2,0,L|100:164,1,40.0000001490115,8|8,0:2|0:2,0:0:0:0:
87,110,51211,6,0,L|89:46,1,64.0000002384184,4|0,3:2|0:0,0:0:0:0:
374,230,51799,6,0,P|277:257|190:231,1,191.99999485588,6|8,3:2|0:2,0:0:0:0:
87,110,52240,1,0,0:0:0:0:
191,231,52388,2,0,P|201:278|195:326,1,95.9999974279402,2|0,3:2|3:2,0:0:0:0:
76,96,52682,1,8,0:2:0:0:
294,126,52829,1,2,0:2:0:0:
19,300,52976,6,0,P|13:253|25:207,1,95.9999974279402,2|0,3:2|0:2,0:0:0:0:
169,101,53270,2,0,P|123:90|75:96,1,95.9999974279402,8|0,0:2|0:2,0:0:0:0:
191,231,53564,1,2,3:2:0:0:
191,231,53711,1,0,3:2:0:0:
29,113,53858,2,0,P|18:159|24:207,1,95.9999974279402,10|0,0:2|0:2,0:0:0:0:
264,99,54152,6,0,L|157:101,1,95.9999974279402,2|0,3:2|0:2,0:0:0:0:
323,245,54446,1,8,0:2:0:0:
105,182,54593,1,0,0:0:0:0:
344,141,54740,2,0,P|350:94|339:48,1,95.9999974279402,2|0,3:2|3:2,0:0:0:0:
229,299,55035,1,8,0:2:0:0:
182,73,55182,1,2,0:2:0:0:
323,245,55329,6,0,B|356:181|356:181|362:50,1,191.99999485588,2|8,3:2|0:2,0:0:0:0:
182,73,55770,1,2,0:2:0:0:
182,73,55917,2,0,P|175:132|253:78,1,191.99999485588,2|8,3:2|0:2,0:0:0:0:
148,234,56358,1,0,0:2:0:0:
148,234,56505,6,0,P|198:251|245:248,1,95.9999974279402,6|0,3:2|0:2,0:0:0:0:
181,56,56799,2,0,P|133:54|88:71,1,95.9999974279402,10|0,0:2|0:2,0:0:0:0:
342,149,57093,1,2,3:2:0:0:
342,149,57240,1,0,0:0:0:0:
148,234,57388,2,0,L|144:128,1,95.9999974279402,10|0,0:2|0:2,0:0:0:0:
338,244,57682,6,0,L|342:138,1,95.9999974279402,2|0,3:2|0:2,0:0:0:0:
106,314,57976,2,0,P|147:321|203:300,1,95.9999974279402,10|0,0:2|0:2,0:0:0:0:
341,148,58270,1,2,3:2:0:0:
341,148,58417,1,0,3:2:0:0:
148,234,58564,2,0,L|144:138,1,95.9999974279402,10|0,0:2|0:2,0:0:0:0:
338,244,58858,6,0,L|342:138,1,95.9999974279402,2|0,3:2|0:0,0:0:0:0:
197,303,59152,1,8,0:0:0:0:
242,100,59299,1,2,0:2:0:0:
390,317,59446,2,0,P|340:330|294:321,1,95.9999974279402,2|0,3:2|3:2,0:0:0:0:
369,95,59740,2,0,P|416:87|461:100,1,95.9999974279402,8|0,0:2|0:2,0:0:0:0:
244,195,60035,6,0,L|241:86,1,95.9999974279402,0|0,3:2|3:2,0:0:0:0:
459,196,60329,2,0,L|462:87,1,95.9999974279402,12|0,0:2|0:2,0:0:0:0:
245,242,60623,6,0,L|243:158,3,47.9999987139701,8|8|8|8,0:2|0:2|0:2|0:2,0:0:0:0:
346,214,60917,2,0,L|345:262,3,47.9999987139701,8|8|8|8,0:2|0:2|0:2|0:2,0:0:0:0:
245,242,61211,6,0,P|174:255|65:195,1,191.99999485588,6|12,3:2|0:2,0:0:0:0:
239,52,61652,1,0,0:0:0:0:
239,52,61799,2,0,L|244:155,1,95.9999974279402,0|0,3:2|3:2,0:0:0:0:
55,20,62093,2,0,L|51:116,1,95.9999974279402,10|2,0:0|0:0,0:0:0:0:
243,147,62388,6,0,L|239:52,1,95.9999974279402,0|0,3:2|3:2,0:0:0:0:
78,202,62682,1,8,0:2:0:0:
138,20,62829,1,2,0:2:0:0:
285,227,62976,2,0,P|232:235|185:217,1,95.9999974279402,2|2,3:2|3:2,0:0:0:0:
269,6,63270,1,8,0:2:0:0:
78,97,63417,1,2,0:2:0:0:
364,146,63564,5,12,3:2:0:0:
54,93,63711,1,0,0:2:0:0:
386,150,63858,6,0,L|392:254,1,95.9999974279402,8|8,0:3|0:3,0:0:0:0:
174,133,64152,2,0,L|168:237,1,95.9999974279402,4|4,0:3|0:3,0:0:0:0:
381,54,64446,6,0,L|392:258,1,191.99999485588,12|0,0:2|0:0,0:0:0:0:
174,133,64888,1,0,3:2:0:0:
174,133,65035,2,0,P|219:119|274:126,1,95.9999974279402,8|0,0:2|0:0,0:0:0:0:
332,319,65329,2,0,P|284:323|238:309,1,95.9999974279402,2|2,3:2|3:2,0:0:0:0:
383,130,65623,1,12,0:2:0:0:
383,130,65770,1,2,0:2:0:0:
175,228,65917,6,0,L|173:126,1,95.9999974279402,4|0,3:2|0:2,0:0:0:0:
381,225,66211,2,0,L|383:123,1,95.9999974279402,10|2,0:2|0:2,0:0:0:0:
238,309,66505,1,0,3:2:0:0:
282,98,66652,1,0,0:0:0:0:
432,305,66799,2,0,P|382:316|331:306,1,95.9999974279402,10|2,0:2|0:2,0:0:0:0:
173,132,67093,6,0,L|175:228,1,95.9999974279402,4|0,3:2|0:2,0:0:0:0:
382,129,67388,2,0,L|381:225,1,95.9999974279402,10|2,0:2|0:2,0:0:0:0:
229,57,67682,1,0,3:2:0:0:
277,257,67829,1,0,3:2:0:0:
424,49,67976,2,0,P|376:41|330:52,1,95.9999974279402,10|2,0:2|0:2,0:0:0:0:
175,228,68270,6,0,L|173:132,1,95.9999974279402,4|0,3:2|3:2,0:0:0:0:
381,224,68564,1,8,0:2:0:0:
330,51,68711,1,8,0:3:0:0:
175,228,68858,2,0,P|229:236|274:224,1,95.9999974279402,8|4,0:3|0:3,0:0:0:0:
225,37,69152,2,0,P|171:29|126:41,1,95.9999974279402,4|4,0:3|0:3,0:0:0:0:
397,128,69446,5,10,0:2:0:0:
33,157,69740,1,6,0:2:0:0:
225,37,69888,2,0,L|222:94,1,47.9999987139701,8|8,0:2|0:2,0:0:0:0:
139,18,70035,6,0,L|142:75,3,47.9999987139701,8|8|8|8,0:2|0:2|0:2|0:2,0:0:0:0:
239,29,70329,2,0,L|236:130,1,95.9999974279402,8|0,0:2|0:2,0:0:0:0:
33,157,70623,6,0,B|20:215|20:215|42:328,2,160.000000596046,4|12|0,3:2|0:2|3:2,0:0:0:0:
239,29,71358,1,0,3:2:0:0:
129,214,71505,1,8,0:2:0:0:
324,28,71652,6,0,L|341:201,1,160.000000596046,4|0,3:2|3:2,0:0:0:0:
136,134,72093,2,0,L|129:214,1,80.000000298023,8|0,0:2|0:2,0:0:0:0:
333,107,72388,1,0,3:2:0:0:
333,107,72535,2,0,L|340:186,1,80.000000298023,0|8,3:2|0:2,0:0:0:0:
63,286,72829,6,0,B|121:304|121:304|243:278,1,160.000000596046,4|0,3:2|3:2,0:0:0:0:
333,107,73270,2,0,P|283:99|246:105,1,80.000000298023,8|0,0:2|0:2,0:0:0:0:
316,310,73564,1,0,3:2:0:0:
316,310,73711,2,0,P|355:313|394:305,1,80.000000298023,0|8,3:2|0:2,0:0:0:0:
145,198,74005,6,0,L|325:195,1,160.000000596046,4|0,3:2|3:2,0:0:0:0:
187,26,74446,2,0,P|175:69|184:114,1,80.000000298023,8|0,0:2|0:2,0:0:0:0:
394,235,74740,1,0,3:2:0:0:
394,235,74888,2,0,P|398:195|386:157,1,80.000000298023,0|8,3:2|0:2,0:0:0:0:
182,261,75182,6,0,B|167:187|167:187|181:91,1,160.000000596046,4|0,3:2|3:2,0:0:0:0:
362,252,75623,2,0,P|322:258|275:250,1,80.000000298023,8|0,0:2|0:2,0:0:0:0:
276,59,75917,1,0,3:2:0:0:
276,59,76064,2,0,P|316:53|363:61,1,80.000000298023,0|8,3:2|0:2,0:0:0:0:
178,263,76358,6,0,L|179:87,1,160.000000596046,4|0,3:2|3:2,0:0:0:0:
436,136,76799,2,0,L|435:215,1,80.000000298023,8|0,0:2|0:2,0:0:0:0:
178,183,77093,1,0,3:2:0:0:
178,183,77240,2,0,L|178:103,1,80.000000298023,0|8,3:2|0:2,0:0:0:0:
282,326,77535,5,4,0:2:0:0:
282,326,77829,6,0,L|285:231,1,80.000000298023,12|0,0:2|3:2,0:0:0:0:
287,130,78123,1,0,3:2:0:0:
175,342,78270,6,0,L|178:247,1,80.000000298023,12|0,0:2|3:2,0:0:0:0:
181,104,78564,1,0,3:2:0:0:
437,255,78711,6,0,P|388:269|272:237,1,160.000000596046,12|0,0:2|3:2,0:0:0:0:
119,76,79152,2,0,P|109:115|116:159,1,80.000000298023,12|8,0:2|0:2,0:0:0:0:
135,187,79373,1,8,0:2:0:0:
135,187,79447,2,0,L|138:240,3,40.0000001490115,8|8|4|4,0:3|0:3|0:3|0:3,0:0:0:0:
216,152,79740,2,0,L|223:243,1,80.000000298023,8|0,0:2|0:2,0:0:0:0:
89,80,80035,5,4,0:2:0:0:
72,304,80182,1,0,0:2:0:0:
184,53,80329,5,8,0:2:0:0:
180,330,80476,1,0,3:2:0:0:
271,31,80623,5,8,0:2:0:0:
292,344,80770,1,0,3:2:0:0:
174,29,80917,5,8,0:2:0:0:
410,291,81064,1,0,3:2:0:0:
57,166,81212,5,8,0:2:0:0:
427,85,81359,1,0,3:2:0:0:
51,273,81506,5,8,0:2:0:0:
477,182,81653,1,0,3:2:0:0:
64,72,81800,6,0,P|51:116|60:175,1,95.9999974279402,8|0,0:2|3:2,0:0:0:0:
319,18,82094,1,8,0:2:0:0:
251,316,82241,1,0,3:2:0:0:
137,13,82388,6,0,L|132:148,1,95.9999974279402,8|0,0:2|3:2,0:0:0:0:
349,266,82682,1,8,0:2:0:0:
319,18,82829,1,0,3:2:0:0:
82,261,82976,6,0,P|135:271|183:257,1,95.9999974279402,8|0,0:2|3:2,0:0:0:0:
319,18,83270,1,8,0:2:0:0:
349,266,83417,1,0,3:2:0:0:
223,20,83564,6,0,L|326:17,1,95.9999974279402,8|0,0:2|3:2,0:0:0:0:
224,269,83858,2,0,L|121:266,1,95.9999974279402,8|0,0:2|3:2,0:0:0:0:
312,213,84079,1,0,0:0:0:0:
312,213,84153,6,0,P|329:258|323:313,1,95.9999974279402,8|0,0:2|3:2,0:0:0:0:
168,101,84447,1,8,0:2:0:0:
151,320,84594,1,0,3:2:0:0:
242,45,84741,5,12,0:2:0:0:
248,360,84888,1,0,3:2:0:0:
321,11,85035,5,8,0:2:0:0:
364,379,85182,1,0,3:2:0:0:
219,16,85329,5,8,0:2:0:0:
494,314,85476,1,0,3:2:0:0:
0,132,85623,5,8,0:2:0:0:
483,79,85770,1,0,3:2:0:0:
0,258,85917,5,8,0:2:0:0:
483,205,86064,1,0,3:2:0:0:
0,112,86212,5,8,0:2:0:0:
512,180,86359,1,0,3:2:0:0:
0,258,86506,6,0,L|114:253,1,95.9999974279402,8|0,0:2|3:2,0:0:0:0:
483,79,86800,2,0,L|369:84,1,95.9999974279402,8|0,0:2|3:2,0:0:0:0:
95,253,87094,6,0,P|83:204|89:157,1,95.9999974279402,8|0,0:2|3:2,0:0:0:0:
287,42,87388,1,8,0:2:0:0:
296,240,87535,1,0,3:2:0:0:
183,49,87682,1,8,0:2:0:0:
192,247,87829,1,8,3:3:0:0:
287,42,87976,1,4,0:3:0:0:
95,253,88123,6,0,L|90:148,1,95.9999974279402,4|0,3:2|3:2,0:0:0:0:
294,279,88417,2,0,L|298:192,1,64.0000002384184,4|0,3:2|3:2,0:0:0:0:
11,100,88712,6,0,P|84:71|200:93,1,192.000000715255,4|0,3:2|0:0,0:0:0:0:
296,215,89300,1,0,0:0:0:0:
