osu file format v14

[General]
AudioFilename: audio.mp3
AudioLeadIn: 0
PreviewTime: 51175
Countdown: 0
SampleSet: Soft
StackLeniency: 0.4
Mode: 0
LetterboxInBreaks: 0
WidescreenStoryboard: 0

[Editor]
Bookmarks: 1212,9300,14006,18712,23417,28123,32829,37535,42241,46947,51800,70623,75182,80035,84741,88712
DistanceSpacing: 1.4
BeatDivisor: 4
GridSize: 32
TimelineZoom: 2.4

[Metadata]
Title:Lonely Go! (TV Size)
TitleUnicode:Lonely Go! (TV Size)
Artist:Brian The Sun
ArtistUnicode:Brian The Sun
Creator:Nevo
Version:Ayyri's Advanced
Source:BORUTO-ボルト-NARUTO NEXT GENERATIONS
Tags:mordred nelliel monstrata yukiyo aro agatsu naruto sarada uzimaki anime opening op ayyri eiri- fieryrage sotarks reform onlybiscuit
BeatmapID:1848456
BeatmapSetID:863227

[Difficulty]
HPDrainRate:5
CircleSize:3.5
OverallDifficulty:5
ApproachRate:7
SliderMultiplier:1.30000000596046
SliderTickRate:1

[Events]
//Background and Video events
0,0,"818879.png",0,0
Video,0,"brainthesun.mp4"
//Break Periods
//Storyboard Layer 0 (Background)
//Storyboard Layer 1 (Fail)
//Storyboard Layer 2 (Pass)
//Storyboard Layer 3 (Foreground)
//Storyboard Sound Samples

[TimingPoints]
1212,294.117647058824,4,2,1,75,1,0
2388,294.117647058824,4,2,1,75,1,0
2388,-125,4,2,1,75,0,0
7094,-100,4,2,1,75,0,0
14006,-100,4,2,1,60,0,0
18712,-100,4,2,1,75,0,0
23417,-100,4,2,1,60,0,0
28050,-100,4,2,1,5,0,0
28123,-100,4,2,1,75,0,0
32829,-100,4,2,1,85,0,0
46653,-100,4,2,1,75,0,0
51799,-100,4,2,1,85,0,1
70623,-100,4,2,1,85,0,0
77535,-100,4,2,1,75,0,0
80035,-100,4,2,1,85,0,0
88712,-100,4,2,1,60,0,0
89447,-100,4,2,1,5,0,0

[Colours]
Combo1 : 89,255,255
Combo2 : 255,219,72
Combo3 : 216,216,216
Combo4 : 255,81,81

[HitObjects]
409,195,1212,6,0,L|405:280,2,65.000000298023,8|4|0,0:2|0:3|0:0,0:0:0:0:
318,160,1653,2,0,L|322:245,2,65.000000298023,8|8|0,0:3|0:3|0:0,0:0:0:0:
352,69,2094,1,4,0:3:0:0:
352,69,2388,6,0,P|282:76|133:116,2,208.000000953674,6|0|0,3:2|0:0|0:0,0:0:0:0:
433,292,4153,1,0,0:0:0:0:
433,292,4741,6,0,P|362:297|256:291,1,156.000000715255,4|0,3:2|0:0,0:0:0:0:
192,266,5329,1,0,0:0:0:0:
173,48,5770,1,0,0:0:0:0:
251,87,5917,2,0,L|425:68,1,156.000000715255,4|0,3:2|0:0,0:0:0:0:
494,57,6506,1,4,3:2:0:0:
494,57,7094,6,0,L|485:147,1,65.000000298023,4|0,0:2|0:2,0:0:0:0:
433,194,7388,2,0,L|424:284,1,65.000000298023,8|8,0:2|0:2,0:0:0:0:
417,349,7682,1,8,0:2:0:0:
274,235,7976,1,8,0:2:0:0:
139,355,8270,6,0,L|54:346,1,65.000000298023,8|8,0:2|0:2,0:0:0:0:
22,273,8564,2,0,L|31:188,1,65.000000298023,8|0,0:2|3:2,0:0:0:0:
40,117,8859,1,8,0:2:0:0:
40,117,9006,1,8,0:2:0:0:
203,36,9300,6,0,P|218:86|192:180,1,130.000000596046,12|0,0:2|3:2,0:0:0:0:
167,244,9741,2,0,L|320:234,1,130.000000596046,12|0,0:2|3:2,0:0:0:0:
375,280,10182,1,0,3:2:0:0:
375,280,10329,1,8,0:2:0:0:
446,224,10476,2,0,P|494:197|500:101,1,130.000000596046,0|0,3:2|3:2,0:0:0:0:
491,39,10917,1,8,0:2:0:0:
315,88,11212,2,0,L|305:14,2,65.000000298023,0|0|8,3:2|3:2|0:2,0:0:0:0:
259,159,11653,6,0,L|128:150,1,130.000000596046,0|0,3:2|3:2,0:0:0:0:
38,143,12094,2,0,P|57:200|76:275,1,130.000000596046,8|0,0:2|3:2,0:0:0:0:
96,355,12535,1,0,3:2:0:0:
96,355,12682,1,8,0:2:0:0:
176,313,12829,2,0,L|315:308,1,130.000000596046,0|0,3:2|3:2,0:0:0:0:
396,308,13270,1,8,0:2:0:0:
459,137,13564,2,0,L|450:54,2,65.000000298023,8|8|4,0:2|0:3|0:3,0:0:0:0:
385,191,14006,6,0,P|344:165|251:160,1,130.000000596046,6|0,3:2|0:0,0:0:0:0:
177,182,14447,1,2,0:2:0:0:
24,281,14741,1,2,3:2:0:0:
24,281,14888,2,0,L|20:200,1,65.000000298023,2|0,0:2|3:2,0:0:0:0:
19,125,15182,2,0,P|52:92|139:73,1,130.000000596046,2|0,0:2|0:0,0:0:0:0:
218,94,15623,1,2,3:2:0:0:
361,42,15917,1,2,3:2:0:0:
361,42,16064,2,0,L|452:40,1,65.000000298023,2|0,0:2|3:2,0:0:0:0:
492,103,16359,6,0,P|497:173|470:242,1,130.000000596046,2|0,0:2|0:0,0:0:0:0:
410,289,16800,1,2,3:2:0:0:
256,192,17094,1,2,3:2:0:0:
256,192,17241,2,0,L|170:187,2,65.000000298023,2|0|2,0:2|3:2|0:2,0:0:0:0:
330,139,17682,5,0,3:2:0:0:
182,32,17976,1,2,3:2:0:0:
32,135,18270,2,0,L|38:212,1,65.000000298023,10|2,0:2|3:2,0:0:0:0:
53,381,18712,6,0,L|181:363,1,130.000000596046,12|0,0:2|3:2,0:0:0:0:
250,303,19153,1,8,0:2:0:0:
423,358,19447,1,0,3:2:0:0:
423,358,19594,2,0,L|431:276,1,65.000000298023,0|8,3:2|0:2,0:0:0:0:
437,202,19888,6,0,P|399:180|301:173,1,130.000000596046,0|0,3:2|3:2,0:0:0:0:
225,188,20329,1,8,0:2:0:0:
79,296,20623,1,0,3:2:0:0:
79,296,20770,2,0,L|55:206,1,65.000000298023,0|8,3:2|0:2,0:0:0:0:
8,160,21064,6,0,P|65:141|116:76,1,130.000000596046,0|0,3:2|3:2,0:0:0:0:
137,2,21506,1,8,0:0:0:0:
311,54,21800,1,0,3:2:0:0:
311,54,21947,2,0,L|317:131,1,65.000000298023,0|8,3:2|0:2,0:0:0:0:
324,209,22241,2,0,L|463:187,1,130.000000596046,0|0,3:2|3:2,0:0:0:0:
441,279,22682,1,8,0:2:0:0:
281,367,22976,2,0,L|208:361,2,65.000000298023,8|8|4,0:2|0:3|0:3,0:0:0:0:
271,276,23417,6,0,P|234:248|131:226,1,130.000000596046,6|0,0:2|0:2,0:0:0:0:
65,245,23859,1,2,3:2:0:0:
10,71,24153,1,2,3:2:0:0:
10,71,24300,2,0,L|92:64,1,65.000000298023,2|0,0:2|0:0,0:0:0:0:
165,59,24594,2,0,P|205:73|276:131,1,130.000000596046,0|0,0:0|0:0,0:0:0:0:
318,205,25035,1,2,3:2:0:0:
491,150,25329,1,2,3:2:0:0:
491,150,25476,2,0,L|493:241,1,65.000000298023,2|0,0:2|3:2,0:0:0:0:
481,305,25771,6,0,P|411:310|342:283,1,130.000000596046,2|0,0:2|0:2,0:0:0:0:
295,223,26212,1,0,3:2:0:0:
393,70,26506,1,0,3:2:0:0:
393,70,26653,2,0,L|388:-16,2,65.000000298023,0|0|2,0:2|3:2|0:2,0:0:0:0:
332,137,27094,5,2,3:2:0:0:
185,28,27388,1,0,3:2:0:0:
40,138,27682,2,0,L|46:215,1,65.000000298023,8|8,3:2|0:2,0:0:0:0:
65,383,28123,6,0,P|130:364|175:228,1,195.000000894069,12|8,0:2|0:2,0:0:0:0:
157,74,28859,1,0,3:2:0:0:
157,74,29006,2,0,L|235:63,1,65.000000298023,0|8,3:2|0:2,0:0:0:0:
311,53,29300,2,0,P|296:107|273:201,1,130.000000596046,0|0,3:2|3:2,0:0:0:0:
253,266,29741,1,8,0:2:0:0:
402,370,30035,1,0,3:2:0:0:
402,370,30182,2,0,L|493:362,1,65.000000298023,0|8,3:2|0:2,0:0:0:0:
495,278,30476,6,0,P|465:255|446:155,1,130.000000596046,0|0,3:2|3:2,0:0:0:0:
470,82,30917,1,8,0:2:0:0:
295,27,31212,1,0,3:2:0:0:
295,27,31359,2,0,L|288:120,1,65.000000298023,0|8,3:2|0:2,0:0:0:0:
280,182,31653,2,0,L|141:160,1,130.000000596046,0|0,0:2|3:2,0:0:0:0:
163,252,32094,1,8,0:2:0:0:
304,366,32388,2,0,L|377:360,2,65.000000298023,8|8|4,0:2|0:3|0:3,0:0:0:0:
314,275,32829,6,0,P|351:247|454:225,1,130.000000596046,4|0,3:2|3:2,0:0:0:0:
502,279,33270,1,8,0:2:0:0:
472,99,33564,2,0,L|393:92,1,65.000000298023,8|0,0:2|3:2,0:0:0:0:
326,137,33859,2,0,L|247:130,1,65.000000298023,8|0,0:2|3:2,0:0:0:0:
193,70,34153,2,0,P|224:49|266:35,2,65.000000298023,8|0|8,0:2|3:2|0:2,0:0:0:0:
141,145,34594,2,0,L|-7:131,1,130.000000596046,0|0,3:2|3:2,0:0:0:0:
131,269,35182,6,0,L|279:255,1,130.000000596046,4|0,3:2|3:2,0:0:0:0:
330,198,35623,1,8,0:2:0:0:
474,308,35917,2,0,L|486:227,1,65.000000298023,8|0,0:2|3:2,0:0:0:0:
460,155,36212,2,0,L|472:74,1,65.000000298023,8|0,0:2|3:2,0:0:0:0:
410,21,36506,2,0,P|364:14|317:22,2,65.000000298023,8|0|8,0:2|3:2|0:2,0:0:0:0:
372,103,36947,2,0,L|220:80,1,130.000000596046,0|0,3:2|3:2,0:0:0:0:
161,246,37535,6,0,L|313:223,1,130.000000596046,4|0,3:2|3:2,0:0:0:0:
364,277,37976,1,8,0:2:0:0:
205,366,38270,2,0,L|122:353,1,65.000000298023,8|0,0:2|3:2,0:0:0:0:
85,283,38564,2,0,L|2:270,1,65.000000298023,8|0,0:2|3:2,0:0:0:0:
2,183,38859,2,0,P|56:148|120:148,1,130.000000596046,8|8,0:2|0:2,0:0:0:0:
198,194,39300,1,0,3:2:0:0:
198,194,39447,2,0,L|270:190,1,65.000000298023,8|0,0:2|3:2,0:0:0:0:
444,184,39888,6,0,P|472:132|467:59,1,130.000000596046,4|0,3:2|3:2,0:0:0:0:
392,12,40329,2,0,L|309:4,1,65.000000298023,8|0,0:2|3:2,0:0:0:0:
245,46,40623,2,0,L|162:38,1,65.000000298023,8|0,0:2|3:2,0:0:0:0:
89,29,40917,1,8,0:2:0:0:
22,199,41212,2,0,L|32:291,1,65.000000298023,8|0,0:2|3:2,0:0:0:0:
40,353,41506,2,0,L|132:343,1,65.000000298023,8|0,0:2|3:2,0:0:0:0:
167,280,41800,2,0,L|157:188,2,65.000000298023,8|8|4,0:2|0:3|0:3,0:0:0:0:
247,322,42241,6,0,P|284:294|387:272,1,130.000000596046,4|0,0:2|3:2,0:0:0:0:
435,326,42682,1,8,0:2:0:0:
507,159,42976,2,0,L|500:80,1,65.000000298023,8|0,0:2|3:2,0:0:0:0:
489,4,43270,2,0,L|410:11,1,65.000000298023,8|0,0:2|3:2,0:0:0:0:
377,88,43565,2,0,P|373:125|356:166,2,65.000000298023,8|0|8,0:2|3:2|0:2,0:0:0:0:
303,34,44006,2,0,L|155:20,1,130.000000596046,0|0,3:2|3:2,0:0:0:0:
70,171,44594,6,0,L|218:157,1,130.000000596046,4|0,3:2|3:2,0:0:0:0:
274,210,45035,1,8,0:2:0:0:
169,359,45329,2,0,L|88:347,1,65.000000298023,8|0,0:2|3:2,0:0:0:0:
16,326,45624,2,0,L|28:245,1,65.000000298023,8|0,0:2|0:0,0:0:0:0:
16,171,45917,2,0,P|25:125|48:83,2,65.000000298023,8|0|8,0:2|3:2|0:2,0:0:0:0:
107,167,46359,2,0,L|259:144,1,130.000000596046,0|0,3:2|3:2,0:0:0:0:
415,120,46947,6,0,P|421:160|389:266,1,130.000000596046,4|0,3:2|3:2,0:0:0:0:
332,306,47388,1,8,0:2:0:0:
158,252,47682,1,0,3:2:0:0:
158,252,47829,1,0,3:2:0:0:
99,321,47976,2,0,L|24:312,1,65.000000298023,8|0,0:2|0:2,0:0:0:0:
11,225,48270,2,0,P|58:210|141:140,1,130.000000596046,0|8,3:2|0:2,0:0:0:0:
216,6,48859,1,0,3:2:0:0:
216,6,49006,2,0,L|288:10,1,65.000000298023,0|8,3:2|0:2,0:0:0:0:
361,52,49300,6,0,P|325:108|294:177,1,130.000000596046,4|0,3:2|3:2,0:0:0:0:
269,251,49741,1,8,0:2:0:0:
425,344,50035,2,0,L|497:338,1,65.000000298023,8|0,0:2|3:2,0:0:0:0:
452,255,50329,2,0,L|380:261,1,65.000000298023,12|0,0:2|3:2,0:0:0:0:
415,173,50623,2,0,L|487:167,2,65.000000298023,8|8|8,0:2|0:2|0:2,0:0:0:0:
233,191,51212,1,4,3:2:0:0:
233,191,51800,6,0,P|266:117|239:49,1,130.000000596046,6|8,3:2|0:2,0:0:0:0:
176,118,52241,1,2,0:2:0:0:
176,118,52388,2,0,L|35:105,1,130.000000596046,2|8,3:2|0:2,0:0:0:0:
8,188,52829,1,2,0:2:0:0:
8,188,52976,2,0,P|49:224|91:293,1,130.000000596046,2|8,3:2|0:2,0:0:0:0:
255,359,53564,2,0,L|245:283,1,65.000000298023,2|0,3:2|3:2,0:0:0:0:
310,229,53859,2,0,L|300:153,1,65.000000298023,10|0,0:2|0:2,0:0:0:0:
289,74,54153,6,0,P|362:89|433:80,1,130.000000596046,2|8,3:2|0:2,0:0:0:0:
496,40,54594,1,2,0:2:0:0:
496,40,54741,2,0,L|490:187,1,130.000000596046,2|8,3:2|0:2,0:0:0:0:
441,246,55182,1,2,0:2:0:0:
441,246,55329,2,0,P|393:219|313:203,1,130.000000596046,2|8,3:2|0:2,0:0:0:0:
161,292,55917,2,0,L|31:278,1,130.000000596046,2|8,3:2|0:2,0:0:0:0:
22,95,56506,6,0,P|59:103|99:102,1,65.000000298023,2|0,3:2|0:2,0:0:0:0:
170,70,56800,1,10,0:2:0:0:
240,237,57094,1,2,3:2:0:0:
240,237,57241,1,0,0:0:0:0:
305,173,57388,2,0,L|297:93,1,65.000000298023,10|0,0:2|0:2,0:0:0:0:
287,17,57682,2,0,P|365:18|417:37,1,130.000000596046,2|10,3:2|0:2,0:0:0:0:
481,203,58270,2,0,P|403:202|351:183,1,130.000000596046,2|10,3:2|0:2,0:0:0:0:
218,62,58859,6,0,L|199:212,1,130.000000596046,2|8,3:2|0:2,0:0:0:0:
134,252,59300,1,2,0:2:0:0:
134,252,59447,2,0,P|93:230|0:243,1,130.000000596046,2|8,3:2|0:2,0:0:0:0:
127,377,60035,1,0,3:2:0:0:
269,263,60329,1,12,0:2:0:0:
432,343,60623,2,0,L|510:334,2,65.000000298023,8|8|8,0:2|0:2|0:2,0:0:0:0:
346,375,61064,1,8,0:2:0:0:
346,375,61212,6,0,L|208:358,1,130.000000596046,6|12,3:2|0:2,0:0:0:0:
37,331,61800,2,0,P|27:286|31:247,1,65.000000298023,0|0,3:2|3:2,0:0:0:0:
64,184,62094,1,10,0:2:0:0:
64,184,62241,2,0,L|48:95,2,65.000000298023,2|0|0,0:2|3:2|3:2,0:0:0:0:
138,236,62682,2,0,P|181:239|255:182,1,130.000000596046,8|2,0:2|3:2,0:0:0:0:
271,103,63123,1,2,3:2:0:0:
430,190,63417,1,2,0:2:0:0:
430,190,63564,6,0,L|441:51,2,130.000000596046,8|8|4,3:2|0:3|0:3,0:0:0:0:
409,371,64447,2,0,P|356:369|282:309,1,130.000000596046,12|0,0:2|0:0,0:0:0:0:
272,238,64888,1,0,3:2:0:0:
272,238,65035,2,0,L|191:228,1,65.000000298023,8|0,0:2|0:0,0:0:0:0:
130,182,65329,2,0,L|121:96,2,65.000000298023,2|2|12,3:2|3:2|0:2,0:0:0:0:
84,260,65770,1,2,0:2:0:0:
84,260,65917,6,0,P|26:229|4:164,1,130.000000596046,4|10,3:2|0:2,0:0:0:0:
19,81,66359,2,0,L|162:64,1,130.000000596046,2|0,0:2|3:2,0:0:0:0:
320,123,66947,2,0,L|463:106,1,130.000000596046,2|0,0:2|0:2,0:0:0:0:
511,174,67388,1,10,0:2:0:0:
511,174,67535,2,0,P|503:235|455:295,1,130.000000596046,2|0,0:2|3:2,0:0:0:0:
372,289,67976,1,10,0:2:0:0:
372,289,68123,6,0,L|240:284,1,130.000000596046,2|0,0:2|3:2,0:0:0:0:
164,330,68564,1,8,0:2:0:0:
130,150,68859,2,0,L|141:68,2,65.000000298023,8|4|4,0:3|0:3|0:3,0:0:0:0:
16,292,69447,2,0,P|3:249|1:210,1,65.000000298023,10|0,0:2|0:0,0:0:0:0:
8,138,69741,1,6,0:2:0:0:
162,42,70035,2,0,L|242:37,2,65.000000298023,8|8|8,0:2|0:2|0:2,0:0:0:0:
251,200,70623,6,0,L|397:210,1,130.000000596046,4|12,3:2|0:2,0:0:0:0:
485,59,71212,2,0,L|490:-17,2,65.000000298023,0|0|8,3:2|3:2|0:2,0:0:0:0:
399,91,71653,1,4,3:2:0:0:
472,257,71947,1,0,3:2:0:0:
472,257,72094,2,0,P|443:290|409:301,1,65.000000298023,8|0,0:2|0:2,0:0:0:0:
333,295,72388,2,0,L|187:285,1,130.000000596046,0|8,3:2|0:2,0:0:0:0:
112,278,72829,6,0,P|85:235|92:143,1,130.000000596046,4|0,3:2|3:2,0:0:0:0:
122,74,73270,1,8,0:2:0:0:
303,64,73564,2,0,L|308:-12,2,65.000000298023,0|0|8,3:2|3:2|0:2,0:0:0:0:
345,144,74005,1,4,3:2:0:0:
234,288,74299,1,0,3:2:0:0:
234,288,74446,2,0,P|190:283|161:261,1,65.000000298023,8|0,0:2|0:2,0:0:0:0:
112,204,74740,2,0,L|122:58,1,130.000000596046,0|8,3:2|0:2,0:0:0:0:
251,200,75182,6,0,L|397:210,1,130.000000596046,4|0,3:2|3:2,0:0:0:0:
459,163,75623,1,8,0:2:0:0:
305,65,75917,2,0,L|310:-11,2,65.000000298023,0|0|8,3:2|3:2|0:2,0:0:0:0:
230,118,76359,1,4,3:2:0:0:
59,53,76653,1,0,3:2:0:0:
59,53,76800,2,0,P|26:82|15:116,1,65.000000298023,8|0,0:2|0:2,0:0:0:0:
5,190,77094,2,0,L|15:336,1,130.000000596046,0|8,3:2|0:2,0:0:0:0:
79,382,77535,1,12,0:2:0:0:
204,249,77829,6,0,L|199:170,2,65.000000298023,12|0|0,0:2|3:2|3:2,0:0:0:0:
213,339,78270,2,0,P|255:362|344:341,1,130.000000596046,12|0,0:2|3:2,0:0:0:0:
391,278,78712,2,0,L|406:145,1,130.000000596046,12|0,0:2|3:2,0:0:0:0:
417,58,79153,1,12,0:2:0:0:
417,58,79300,2,0,L|493:51,2,65.000000298023,8|8|4,0:2|0:3|0:3,0:0:0:0:
327,75,79741,1,8,0:2:0:0:
150,29,80035,5,4,0:2:0:0:
51,181,80329,1,8,0:2:0:0:
51,181,80476,2,0,L|58:322,1,130.000000596046,0|0,3:2|3:2,0:0:0:0:
130,365,80917,1,8,0:2:0:0:
130,365,81064,2,0,P|174:318|194:257,1,130.000000596046,0|0,3:2|3:2,0:0:0:0:
151,79,81653,2,0,L|299:59,1,130.000000596046,0|0,3:2|3:2,0:0:0:0:
371,50,82094,1,8,0:2:0:0:
371,50,82241,6,0,P|389:91|350:184,1,130.000000596046,0|0,3:2|3:2,0:0:0:0:
195,233,82829,2,0,L|51:227,1,130.000000596046,0|0,3:2|3:2,0:0:0:0:
27,144,83270,1,8,0:2:0:0:
27,144,83417,2,0,P|88:135|154:76,1,130.000000596046,0|0,3:2|3:2,0:0:0:0:
178,11,83859,1,8,0:2:0:0:
178,11,84006,2,0,L|273:8,1,65.000000298023,0|8,3:2|0:2,0:0:0:0:
420,47,84447,2,0,P|414:91|397:121,1,65.000000298023,8|0,0:2|3:2,0:0:0:0:
339,172,84741,5,12,0:2:0:0:
163,122,85035,1,8,0:2:0:0:
163,122,85182,2,0,L|170:263,1,130.000000596046,0|0,3:2|3:2,0:0:0:0:
106,317,85623,1,8,0:2:0:0:
106,317,85770,2,0,P|62:270|42:209,1,130.000000596046,0|0,3:2|3:2,0:0:0:0:
109,38,86359,2,0,L|257:18,1,130.000000596046,0|0,3:2|3:2,0:0:0:0:
329,9,86800,2,0,L|325:88,1,65.000000298023,8|0,0:2|3:2,0:0:0:0:
372,151,87094,5,8,0:2:0:0:
299,317,87388,1,8,0:2:0:0:
299,317,87535,2,0,P|357:330|390:345,1,65.000000298023,0|8,3:2|0:2,0:0:0:0:
439,380,87829,1,8,3:3:0:0:
500,208,88123,2,0,L|370:184,1,130.000000596046,4|4,3:2|3:2,0:0:0:0:
193,148,88712,5,4,3:2:0:0:
