osu file format v14

[General]
AudioFilename: audio.mp3
AudioLeadIn: 0
PreviewTime: 51175
Countdown: 0
SampleSet: Soft
StackLeniency: 0.4
Mode: 0
LetterboxInBreaks: 0
WidescreenStoryboard: 1

[Editor]
Bookmarks: 13811,18517,23223,25770,27929,32635,51606,64447,70623,80991,81800,82094,84594,86506,88123,88417,88712
DistanceSpacing: 1.5
BeatDivisor: 4
GridSize: 4
TimelineZoom: 2.8

[Metadata]
Title:Lonely Go! (TV Size)
TitleUnicode:Lonely Go! (TV Size)
Artist:Brian The Sun
ArtistUnicode:Brian The Sun
Creator:Nevo
Version:Aro's Extra
Source:BORUTO-ボルト-NARUTO NEXT GENERATIONS
Tags:mordred nelliel monstrata yukiyo aro agatsu naruto sarada uzimaki anime opening op ayyri eiri- fieryrage sotarks reform onlybiscuit
BeatmapID:1807642
BeatmapSetID:863227

[Difficulty]
HPDrainRate:5
CircleSize:4.2
OverallDifficulty:9
ApproachRate:9.3
SliderMultiplier:2.00000000596046
SliderTickRate:1

[Events]
//Background and Video events
0,0,"818879.png",0,0
Video,0,"brainthesun.mp4"
//Break Periods
//Storyboard Layer 0 (Background)
//Storyboard Layer 1 (Fail)
//Storyboard Layer 2 (Pass)
//Storyboard Layer 3 (Foreground)
//Storyboard Sound Samples

[TimingPoints]
1212,294.117647058824,4,2,1,75,1,0
2388,294.117647058824,4,2,1,75,1,0
2388,-133.333333333333,4,2,1,75,0,0
9153,-200,4,2,1,75,0,0
9226,-399.999999999997,4,2,1,75,0,0
9300,-100,4,2,1,75,0,0
14006,-133.333333333333,4,2,1,60,0,0
17535,-111.111111111111,4,2,1,60,0,0
18711,-100,4,2,1,60,0,0
18712,-100,4,2,1,75,0,0
20108,-100,4,2,1,75,0,0
20182,-100,4,2,1,75,0,0
21285,-100,4,2,1,75,0,0
21358,-100,4,2,1,75,0,0
23417,-133.333333333333,4,2,1,60,0,0
27094,-111.111111111111,4,2,1,60,0,0
28050,-111.111111111111,4,2,1,5,0,0
28123,-100,4,2,1,75,0,0
29520,-100,4,2,1,75,0,0
29594,-100,4,2,1,75,0,0
30697,-100,4,2,1,75,0,0
30770,-100,4,2,1,75,0,0
32829,-100,4,2,1,85,0,0
34152,-100,4,2,1,85,0,1
35182,-100,4,2,1,85,0,0
36505,-100,4,2,1,85,0,1
37535,-100,4,2,1,85,0,0
38858,-100,4,2,1,85,0,1
39888,-100,4,2,1,85,0,0
43564,-100,4,2,1,85,0,1
44593,-100,4,2,1,85,0,0
45917,-100,4,2,1,85,0,1
46653,-100,4,2,1,75,0,1
46946,-100,4,2,1,75,0,0
51212,-166.666666666667,4,2,1,75,0,0
51799,-79.9999999999999,4,2,1,85,0,1
64447,-100,4,2,1,85,0,1
64888,-79.9999999999999,4,2,1,85,0,1
70622,-86.9565217391303,4,2,1,85,0,1
77535,-86.9565217391303,4,2,1,75,0,1
77682,-86.9565217391303,4,2,1,75,0,0
80035,-100,4,2,1,85,0,1
88711,-100,4,2,1,60,0,0
89447,-100,4,2,1,5,0,0

[Colours]
Combo1 : 89,255,255
Combo2 : 255,219,72
Combo3 : 216,216,216
Combo4 : 255,81,81

[HitObjects]
12,106,1212,6,0,P|20:82|20:57,2,50.0000001490115,8|0|4,0:2|0:0|0:3,0:0:0:0:
78,160,1432,2,0,P|109:137|131:93,1,50.0000001490115,4|4,0:3|0:3,0:0:0:0:
19,275,1653,5,8,0:3:0:0:
19,275,1727,1,0,0:0:0:0:
19,275,1800,2,0,P|7:245|5:216,3,50.0000001490115,8|4|4|0,0:3|0:3|0:3|0:0,0:0:0:0:
95,231,2094,1,4,0:3:0:0:
230,231,2388,6,0,B|196:247|196:247|162:231|162:231|129:214|129:214|96:231,1,150.000006169081,6|0,3:2|0:0,0:0:0:0:
193,154,2829,1,0,0:0:0:0:
298,290,2976,2,0,P|320:214|283:157,1,150.000006169081,0|0,0:0|0:0,0:0:0:0:
216,320,3417,1,0,0:0:0:0:
417,309,3564,5,0,0:0:0:0:
403,295,4153,6,0,P|350:276|297:290,1,112.50000462681,0|0,0:0|0:0,0:0:0:0:
213,335,4447,2,0,P|176:344|140:331,1,75.0000030845403,0|0,0:0|0:0,0:0:0:0:
308,122,4741,5,4,3:2:0:0:
320,112,5182,5,0,0:0:0:0:
273,39,5329,2,0,L|426:32,1,150.000006169081,0|0,0:0|0:0,0:0:0:0:
245,117,5770,1,0,0:0:0:0:
401,327,5917,5,4,3:2:0:0:
415,318,6359,5,0,0:0:0:0:
477,372,6506,2,0,B|495:341|495:341|494:146,1,225.000009253621,4|0,3:2|3:2,0:0:0:0:
301,235,7094,5,4,0:2:0:0:
295,226,7388,5,8,0:2:0:0:
260,146,7535,1,8,0:2:0:0:
344,155,7682,1,8,0:2:0:0:
213,213,7829,1,8,0:2:0:0:
295,78,7976,1,8,0:2:0:0:
373,231,8123,1,8,0:2:0:0:
178,142,8270,5,8,0:2:0:0:
335,298,8417,1,8,0:2:0:0:
371,84,8564,1,8,0:2:0:0:
295,226,8712,1,0,3:2:0:0:
295,226,8785,1,0,0:2:0:0:
295,226,8859,1,8,0:2:0:0:
405,217,9006,1,8,0:2:0:0:
458,104,9153,6,0,P|462:115|461:128,1,25.0000000745058,8|0,0:2|0:0,0:0:0:0:
456,157,9300,6,0,P|411:135|363:144,1,100.000000298023,12|0,0:2|0:2,0:0:0:0:
397,336,9594,1,0,3:2:0:0:
405,217,9741,2,0,L|398:316,1,100.000000298023,12|0,0:2|0:2,0:0:0:0:
487,240,10035,1,0,3:2:0:0:
323,193,10182,1,0,3:2:0:0:
409,84,10329,2,0,P|363:67|317:83,1,100.000000298023,8|0,0:2|3:2,0:0:0:0:
330,205,10623,5,0,0:2:0:0:
194,196,10770,1,0,3:2:0:0:
252,339,10917,2,0,L|259:240,1,100.000000298023,8|0,0:2|0:2,0:0:0:0:
269,97,11212,1,0,3:2:0:0:
188,205,11359,1,0,3:2:0:0:
179,34,11506,6,0,B|193:55|193:55|173:173,2,100.000000298023,8|0|0,0:2|3:2|0:2,0:0:0:0:
18,220,11947,1,0,3:2:0:0:
107,92,12094,2,0,L|89:190,1,100.000000298023,8|0,0:2|0:2,0:0:0:0:
148,299,12388,1,0,3:2:0:0:
272,197,12535,1,0,3:2:0:0:
239,296,12682,1,8,0:2:0:0:
231,117,12829,6,0,B|252:104|276:103|300:103|321:112|343:127|356:146|363:173|363:173|355:193|350:224,1,200.000000596046,0|0,3:2|3:2,0:0:0:0:
356,46,13270,2,0,P|310:26|258:24,1,100.000000298023,8|0,0:2|0:2,0:0:0:0:
428,95,13564,5,8,0:2:0:0:
177,188,13712,1,8,0:3:0:0:
177,188,13859,1,4,0:3:0:0:
280,384,14006,38,0,P|285:309|263:238,1,150.000006169081,6|0,3:2|0:0,0:0:0:0:
177,188,14447,5,2,3:2:0:0:
188,168,14594,1,0,0:2:0:0:
188,268,14741,37,2,3:2:0:0:
165,268,14888,1,2,0:2:0:0:
251,218,15035,5,0,3:2:0:0:
263,238,15182,2,0,P|254:164|279:93,1,150.000006169081,2|0,0:2|0:0,0:0:0:0:
381,23,15623,37,2,3:2:0:0:
370,3,15770,1,0,0:2:0:0:
376,133,15917,5,2,3:2:0:0:
398,133,16064,1,2,0:2:0:0:
289,74,16212,37,0,3:2:0:0:
278,93,16358,2,0,P|192:81|126:98,1,150.000006169081,2|0,0:2|0:0,0:0:0:0:
6,51,16800,5,2,3:2:0:0:
17,31,16947,1,0,0:2:0:0:
42,161,17094,37,2,3:2:0:0:
19,161,17241,1,2,0:2:0:0:
120,76,17388,5,0,3:2:0:0:
131,95,17535,2,0,P|149:181|108:263,1,179.999995043278,2|0,0:2|0:2,0:0:0:0:
238,374,17976,2,0,P|204:344|160:342,1,89.9999975216388,2|0,3:2|0:2,0:0:0:0:
20,372,18270,37,10,0:2:0:0:
241,235,18417,1,2,3:2:0:0:
389,370,18711,22,0,P|379:322|390:274,1,100.000000298023,12|0,0:2|0:2,0:0:0:0:
508,151,19005,1,0,3:2:0:0:
361,82,19152,2,0,P|311:83|269:110,1,100.000000298023,8|0,0:2|0:2,0:0:0:0:
293,287,19447,1,0,3:2:0:0:
222,180,19594,1,0,3:2:0:0:
241,360,19741,1,8,0:2:0:0:
305,204,19888,6,0,P|236:225|210:294,1,150.000000447035,0|0,3:2|0:0,0:0:0:0:
218,310,20182,1,0,3:2:0:0:
128,161,20329,2,0,P|177:157|221:179,1,100.000000298023,8|0,0:2|0:2,0:0:0:0:
160,238,20623,1,0,3:2:0:0:
52,177,20770,1,0,3:2:0:0:
79,262,20917,1,8,0:2:0:0:
78,97,21064,6,0,P|147:71|221:82,1,150.000000447035,0|0,3:2|0:0,0:0:0:0:
237,93,21358,1,0,3:2:0:0:
44,23,21505,2,0,P|92:17|135:41,1,100.000000298023,8|0,0:0|0:0,0:0:0:0:
163,189,21800,1,0,3:2:0:0:
208,7,21947,1,0,3:2:0:0:
78,97,22094,1,8,0:2:0:0:
248,197,22241,6,0,B|261:230|261:230|242:291,1,100.000000298023,0|0,3:2|0:2,0:0:0:0:
371,214,22535,2,0,B|371:110,2,100.000000298023,0|8|0,3:2|0:2|3:2,0:0:0:0:
495,271,22976,1,8,0:2:0:0:
416,328,23123,1,8,0:3:0:0:
384,306,23270,1,4,0:3:0:0:
306,349,23417,6,0,P|263:333|156:353,1,150.000006169081,6|0,0:2|0:2,0:0:0:0:
3,364,23858,37,2,3:2:0:0:
19,354,24005,1,0,0:0:0:0:
65,261,24153,5,2,3:2:0:0:
65,279,24300,1,2,0:2:0:0:
123,366,24447,37,0,0:0:0:0:
107,357,24594,2,0,P|144:330|252:322,1,150.000006169081,0|0,0:0|0:0,0:0:0:0:
398,248,25035,5,2,3:2:0:0:
381,247,25182,1,0,0:2:0:0:
304,180,25329,37,2,3:2:0:0:
311,195,25476,1,2,0:2:0:0:
293,296,25623,5,0,3:2:0:0:
302,281,25770,2,0,P|264:254|156:246,1,150.000006169081,2|0,0:2|0:2,0:0:0:0:
51,196,26211,37,0,3:2:0:0:
45,213,26358,1,0,0:0:0:0:
175,139,26505,5,0,3:2:0:0:
151,153,26652,1,0,0:0:0:0:
209,7,26800,37,0,3:2:0:0:
217,37,26947,1,2,0:2:0:0:
78,24,27094,6,0,P|72:68|86:110,1,89.9999975216388,2|0,3:2|0:2,0:0:0:0:
232,216,27388,2,0,P|259:181|268:137,1,89.9999975216388,0|0,3:2|0:2,0:0:0:0:
209,7,27682,37,8,3:2:0:0:
112,272,27829,1,8,0:2:0:0:
421,360,28123,38,0,P|391:320|347:297,1,100.000000298023,12|0,0:2|0:2,0:0:0:0:
207,289,28417,1,0,3:2:0:0:
310,110,28564,2,0,P|289:156|282:206,1,100.000000298023,8|0,0:2|0:2,0:0:0:0:
421,360,28858,1,0,3:2:0:0:
367,216,29005,1,0,3:2:0:0:
282,348,29152,1,8,0:2:0:0:
459,234,29300,6,0,P|460:159|434:89,1,150.000000447035,0|0,3:2|0:0,0:0:0:0:
421,74,29594,1,0,3:2:0:0:
452,248,29741,2,0,P|415:281|366:288,1,100.000000298023,8|0,0:2|0:2,0:0:0:0:
301,181,30035,1,0,3:2:0:0:
274,304,30182,1,0,3:2:0:0:
185,158,30329,1,8,0:2:0:0:
115,300,30476,6,0,B|143:300|163:286|163:286|186:245|186:245|207:235|236:232,1,150.000000447035,0|0,3:2|0:0,0:0:0:0:
256,228,30770,1,0,3:2:0:0:
104,300,30917,2,0,P|54:290|7:273,1,100.000000298023,8|0,0:2|0:2,0:0:0:0:
81,108,31211,1,0,3:2:0:0:
108,223,31358,1,0,3:2:0:0:
180,72,31505,1,8,0:2:0:0:
9,75,31652,6,0,P|0:123|25:165,1,100.000000298023,0|0,0:2|0:2,0:0:0:0:
178,85,31947,2,0,L|72:109,2,100.000000298023,0|8|0,3:2|0:2|3:2,0:0:0:0:
335,32,32388,1,8,0:2:0:0:
289,95,32535,1,8,0:3:0:0:
300,140,32682,1,4,0:3:0:0:
432,200,32829,6,0,L|225:181,1,200.000000596046,4|0,3:2|3:2,0:0:0:0:
431,79,33270,5,8,0:2:0:0:
271,64,33417,1,0,3:2:0:0:
448,158,33564,5,8,0:2:0:0:
272,141,33711,1,0,3:2:0:0:
466,237,33858,5,8,0:2:0:0:
273,218,34005,1,0,3:2:0:0:
438,345,34152,5,8,0:2:0:0:
366,151,34300,1,0,3:2:0:0:
296,353,34447,5,8,0:2:0:0:
366,134,34594,1,0,3:2:0:0:
442,357,34741,5,8,0:2:0:0:
366,117,34888,1,0,3:2:0:0:
292,365,35035,5,8,0:2:0:0:
364,104,35182,2,0,L|165:86,1,200.000000596046,4|0,3:2|3:2,0:0:0:0:
451,113,35623,5,8,0:2:0:0:
466,273,35770,1,0,3:2:0:0:
363,127,35917,5,8,0:2:0:0:
380,303,36064,1,0,3:2:0:0:
275,140,36211,5,8,0:2:0:0:
294,333,36358,1,0,3:2:0:0:
203,99,36506,5,8,0:2:0:0:
353,273,36653,1,0,3:2:0:0:
104,255,36800,5,8,0:2:0:0:
333,197,36947,1,0,3:2:0:0:
86,119,37094,5,8,0:2:0:0:
271,252,37241,1,0,3:2:0:0:
30,291,37388,5,8,0:2:0:0:
319,137,37535,2,0,L|120:122,1,200.000000596046,4|0,3:2|3:2,0:0:0:0:
218,51,37976,5,8,0:2:0:0:
203,211,38123,1,0,3:2:0:0:
299,51,38270,5,8,0:2:0:0:
282,227,38417,1,0,3:2:0:0:
380,51,38564,5,8,0:2:0:0:
361,244,38711,1,0,3:2:0:0:
457,18,38859,5,8,0:2:0:0:
296,143,39006,1,0,3:2:0:0:
489,195,39153,5,8,0:2:0:0:
299,51,39300,1,0,3:2:0:0:
422,287,39447,5,8,0:2:0:0:
380,51,39594,1,0,3:2:0:0:
340,305,39741,5,8,0:2:0:0:
485,90,39888,2,0,L|471:289,1,200.000000596046,4|0,3:2|3:2,0:0:0:0:
299,348,40329,5,8,0:2:0:0:
459,363,40476,1,0,3:2:0:0:
219,301,40623,5,8,0:2:0:0:
379,286,40770,1,0,3:2:0:0:
139,254,40917,5,8,0:2:0:0:
299,269,41064,1,0,3:2:0:0:
59,207,41212,5,8,0:2:0:0:
219,192,41359,1,0,3:2:0:0:
50,130,41506,5,8,0:2:0:0:
210,115,41653,1,0,3:2:0:0:
43,48,41800,5,8,0:2:0:0:
67,45,41873,1,0,0:0:0:0:
91,52,41947,1,8,0:3:0:0:
110,68,42020,1,0,0:0:0:0:
122,90,42094,2,0,L|134:157,1,50.0000001490115,4|0,0:3|0:0,0:0:0:0:
24,257,42241,6,0,B|66:230|66:230|223:242,1,200.000000596046,4|0,0:2|3:2,0:0:0:0:
230,84,42682,5,8,0:2:0:0:
245,244,42829,1,0,3:2:0:0:
155,63,42976,5,8,0:2:0:0:
172,239,43123,1,0,3:2:0:0:
80,42,43270,5,8,0:2:0:0:
98,235,43417,1,0,3:2:0:0:
182,11,43564,5,8,0:2:0:0:
48,174,43712,1,0,3:2:0:0:
277,157,43859,5,8,0:2:0:0:
65,30,44006,1,0,3:2:0:0:
311,0,44153,5,8,0:2:0:0:
42,180,44300,1,0,3:2:0:0:
354,121,44447,5,8,0:2:0:0:
97,60,44594,2,0,B|129:88|129:88|287:67,1,200.000000596046,4|0,3:2|3:2,0:0:0:0:
193,160,45035,5,8,0:2:0:0:
222,1,45182,1,0,3:2:0:0:
253,232,45329,5,8,0:2:0:0:
284,57,45476,1,0,3:2:0:0:
307,299,45623,5,8,0:2:0:0:
342,106,45770,1,0,3:2:0:0:
379,335,45917,5,8,0:2:0:0:
271,145,46064,1,0,3:2:0:0:
448,288,46211,5,8,0:2:0:0:
201,199,46359,1,0,3:2:0:0:
512,241,46506,5,8,0:2:0:0:
125,241,46653,1,0,3:2:0:0:
108,234,46947,6,0,L|82:18,1,200.000000596046,4|0,3:2|3:2,0:0:0:0:
288,180,47388,2,0,P|243:157|192:166,1,100.000000298023,8|0,0:2|0:2,0:0:0:0:
339,278,47682,1,0,3:2:0:0:
316,95,47829,1,0,3:2:0:0:
228,274,47976,2,0,P|230:324|264:363,1,100.000000298023,8|0,0:2|0:2,0:0:0:0:
288,180,48270,1,0,3:2:0:0:
140,292,48417,1,0,3:2:0:0:
339,278,48564,2,0,P|381:250|398:201,1,100.000000298023,8|0,0:2|0:2,0:0:0:0:
207,4,48859,5,0,3:2:0:0:
243,263,49006,1,0,3:2:0:0:
409,51,49153,1,8,0:2:0:0:
134,43,49300,2,0,L|148:242,1,200.000000596046,4|0,3:2|3:2,0:0:0:0:
496,173,49741,5,8,0:2:0:0:
195,341,49888,1,0,3:2:0:0:
494,295,50035,5,8,0:2:0:0:
164,234,50182,1,0,3:2:0:0:
410,377,50329,6,0,L|399:277,1,100.000000298023,12|0,0:2|3:2,0:0:0:0:
362,37,50623,5,8,0:2:0:0:
359,51,50696,1,8,0:2:0:0:
357,66,50770,1,8,0:2:0:0:
355,81,50843,1,8,0:2:0:0:
353,96,50917,1,8,0:2:0:0:
350,111,50990,1,8,0:2:0:0:
348,126,51064,1,8,0:2:0:0:
205,184,51212,6,0,L|264:187,1,59.9999983477592,4|0,3:2|0:0,0:0:0:0:
477,202,51506,2,0,L|417:198,1,59.9999983477592,0|0,0:0|0:0,0:0:0:0:
331,324,51800,6,0,B|309:279|331:233|331:233|353:188|331:143,1,187.500000558793,6|0,3:2|0:0,0:0:0:0:
221,124,52094,2,0,P|278:109|332:145,1,125.000000372529,8|2,0:2|0:2,0:0:0:0:
400,277,52388,1,2,3:2:0:0:
401,81,52535,1,0,3:2:0:0:
264,187,52682,1,8,0:2:0:0:
140,43,52829,1,2,0:2:0:0:
248,205,52976,6,0,L|123:194,1,125.000000372529,2|0,3:2|0:2,0:0:0:0:
0,338,53270,2,0,L|125:327,1,125.000000372529,8|0,0:2|0:2,0:0:0:0:
311,311,53564,1,2,3:2:0:0:
170,141,53712,1,0,3:2:0:0:
220,319,53859,1,10,0:2:0:0:
322,103,54006,1,0,0:2:0:0:
412,321,54153,6,0,L|221:303,1,187.500000558793,2|0,3:2|0:0,0:0:0:0:
170,222,54447,1,8,0:2:0:0:
322,85,54594,1,2,0:2:0:0:
441,305,54741,2,0,L|242:286,1,187.500000558793,2|0,3:2|0:0,0:0:0:0:
199,206,55035,1,8,0:2:0:0:
323,63,55182,1,2,0:2:0:0:
29,209,55329,6,0,L|215:191,1,187.500000558793,2|0,3:2|0:0,0:0:0:0:
271,110,55623,1,8,0:2:0:0:
137,2,55770,1,2,0:2:0:0:
0,193,55917,2,0,L|186:175,1,187.500000558793,2|0,3:2|0:0,0:0:0:0:
242,94,56212,2,0,L|118:104,1,125.000000372529,8|0,0:2|0:2,0:0:0:0:
141,379,56506,6,0,L|131:255,1,125.000000372529,2|0,3:2|0:2,0:0:0:0:
336,16,56800,2,0,L|326:140,1,125.000000372529,10|0,0:2|0:2,0:0:0:0:
165,379,57094,2,0,L|155:255,1,125.000000372529,2|0,3:2|0:0,0:0:0:0:
360,16,57388,2,0,L|350:140,1,125.000000372529,10|0,0:2|0:2,0:0:0:0:
107,183,57682,6,0,B|152:160|197:183|197:183|243:206|287:184,1,187.500000558793,2|0,3:2|0:0,0:0:0:0:
374,140,57976,2,0,L|384:16,1,125.000000372529,10|0,0:2|0:2,0:0:0:0:
83,109,58270,2,0,P|35:147|29:208,1,125.000000372529,2|0,3:2|3:2,0:0:0:0:
311,304,58564,2,0,P|317:243|278:196,1,125.000000372529,10|0,0:2|0:2,0:0:0:0:
0,345,58859,6,0,L|187:357,1,187.500000558793,2|0,3:2|0:0,0:0:0:0:
204,348,59153,1,8,0:2:0:0:
108,163,59300,1,2,0:2:0:0:
306,199,59447,1,2,3:2:0:0:
92,268,59594,1,0,3:2:0:0:
224,130,59741,1,8,0:2:0:0:
197,346,59888,1,0,0:2:0:0:
97,153,60035,5,0,3:2:0:0:
202,331,60182,1,0,3:2:0:0:
230,117,60329,1,12,0:2:0:0:
83,277,60476,1,0,0:2:0:0:
316,283,60623,5,8,0:2:0:0:
352,276,60696,1,8,0:2:0:0:
380,252,60770,1,8,0:2:0:0:
394,218,60843,1,8,0:2:0:0:
389,180,60917,2,0,L|371:119,1,62.5000001862644,8|8,0:2|0:2,0:0:0:0:
249,60,61064,2,0,L|266:120,1,62.5000001862644,8|8,0:2|0:2,0:0:0:0:
356,38,61212,6,0,L|168:48,1,187.500000558793,6|0,3:2|0:0,0:0:0:0:
43,55,61506,2,0,L|167:48,1,125.000000372529,12|0,0:2|0:2,0:0:0:0:
236,239,61800,1,0,3:2:0:0:
142,128,61947,1,0,3:2:0:0:
321,198,62094,2,0,L|330:323,1,125.000000372529,10|2,0:2|0:2,0:0:0:0:
298,111,62388,6,0,B|322:97|322:97|415:122,1,125.000000372529,0|0,3:2|3:2,0:0:0:0:
338,310,62682,2,0,L|329:185,1,125.000000372529,8|2,0:2|0:2,0:0:0:0:
309,8,62976,1,2,3:2:0:0:
444,148,63123,1,2,3:2:0:0:
298,111,63270,1,8,0:2:0:0:
480,44,63417,1,2,0:2:0:0:
217,110,63564,6,0,L|64:143,1,125.000000372529,8|0,3:2|0:0,0:0:0:0:
279,6,63859,5,8,0:3:0:0:
316,178,64005,1,8,0:3:0:0:
284,24,64153,1,4,0:3:0:0:
313,161,64299,1,4,0:3:0:0:
156,123,64447,6,0,L|459:56,1,300.000000894069,12|0,0:2|3:2,0:0:0:0:
77,84,65035,2,0,P|70:145|105:195,1,125.000000372529,8|0,0:2|0:0,0:0:0:0:
151,29,65329,1,2,3:2:0:0:
43,256,65476,1,2,3:2:0:0:
280,131,65623,2,0,L|155:122,1,125.000000372529,12|2,0:2|0:2,0:0:0:0:
369,139,65917,6,0,L|493:147,1,125.000000372529,4|0,3:2|0:2,0:0:0:0:
273,275,66212,1,10,0:2:0:0:
331,60,66359,1,2,0:2:0:0:
398,222,66506,1,0,3:2:0:0:
280,131,66653,1,0,3:2:0:0:
210,336,66800,2,0,P|265:362|325:350,1,125.000000372529,10|2,0:2|0:2,0:0:0:0:
135,271,67094,6,0,P|79:244|19:256,1,125.000000372529,4|0,3:2|0:2,0:0:0:0:
210,336,67388,1,10,0:2:0:0:
184,176,67535,1,2,0:2:0:0:
67,343,67682,1,0,3:2:0:0:
267,244,67829,1,0,3:2:0:0:
85,89,67976,2,0,L|73:219,1,125.000000372529,10|2,0:2|0:2,0:0:0:0:
273,156,68270,6,0,L|285:26,1,125.000000372529,4|0,3:2|3:2,0:0:0:0:
184,176,68564,1,8,0:2:0:0:
361,149,68712,1,8,0:3:0:0:
224,240,68859,5,8,0:3:0:0:
336,222,69005,1,4,0:3:0:0:
251,312,69153,1,4,0:3:0:0:
329,299,69299,1,4,0:3:0:0:
131,369,69447,5,10,0:2:0:0:
259,19,69741,1,6,0:2:0:0:
168,14,69888,5,8,0:2:0:0:
175,58,69962,1,8,0:2:0:0:
203,91,70035,1,8,0:2:0:0:
241,111,70108,1,8,0:2:0:0:
284,108,70182,1,8,0:2:0:0:
323,89,70256,1,8,0:2:0:0:
354,69,70329,1,8,0:2:0:0:
393,50,70403,1,8,0:2:0:0:
436,47,70477,1,8,0:2:0:0:
474,67,70550,1,8,0:2:0:0:
492,106,70623,6,0,B|471:133|471:133|463:276,1,172.500003804266,4|0,3:2|0:0,0:0:0:0:
444,381,70917,2,0,B|457:363|457:363|463:268,1,115.000002536177,12|0,0:2|0:2,0:0:0:0:
301,153,71212,1,0,3:2:0:0:
301,336,71359,1,0,3:2:0:0:
434,184,71506,1,8,0:2:0:0:
231,285,71653,6,0,P|307:252|377:297,1,172.500003804266,4|0,3:2|0:0,0:0:0:0:
386,318,71947,1,0,3:2:0:0:
150,332,72094,2,0,P|147:275|171:223,1,115.000002536177,8|0,0:2|0:2,0:0:0:0:
301,153,72388,1,0,3:2:0:0:
301,336,72535,1,0,3:2:0:0:
110,173,72682,1,8,0:2:0:0:
272,50,72829,6,0,L|250:221,1,172.500003804266,4|0,3:2|0:0,0:0:0:0:
248,244,73123,1,0,3:2:0:0:
138,98,73270,2,0,P|81:95|37:130,1,115.000002536177,8|0,0:2|0:2,0:0:0:0:
122,254,73564,1,0,3:2:0:0:
219,132,73712,1,0,3:2:0:0:
26,35,73859,1,8,0:2:0:0:
174,191,74006,6,0,P|200:269|147:332,1,172.500003804266,4|0,3:2|0:0,0:0:0:0:
125,340,74300,1,0,3:2:0:0:
103,148,74447,2,0,L|117:33,1,115.000002536177,8|0,0:2|0:2,0:0:0:0:
219,132,74741,1,0,3:2:0:0:
89,231,74888,1,0,3:2:0:0:
195,16,75035,1,8,0:2:0:0:
304,162,75182,6,0,L|281:333,1,172.500003804266,4|0,3:2|0:0,0:0:0:0:
279,356,75476,1,0,3:2:0:0:
434,228,75623,2,0,L|419:113,1,115.000002536177,8|0,0:2|0:2,0:0:0:0:
289,19,75917,1,0,3:2:0:0:
290,168,76064,1,0,3:2:0:0:
485,55,76212,1,8,0:2:0:0:
290,93,76359,6,0,B|245:105|245:105|118:70,1,172.500003804266,4|0,3:2|0:0,0:0:0:0:
100,66,76653,1,0,3:2:0:0:
9,200,76800,2,0,B|32:182|32:182|117:172,1,115.000002536177,8|0,0:2|0:2,0:0:0:0:
269,221,77094,1,0,3:2:0:0:
65,257,77241,1,0,3:2:0:0:
170,101,77388,1,8,0:2:0:0:
221,313,77535,5,12,0:2:0:0:
232,320,77829,5,12,0:2:0:0:
178,224,77976,1,0,3:2:0:0:
122,319,78123,1,0,3:2:0:0:
243,327,78270,5,12,0:2:0:0:
243,159,78417,1,0,3:2:0:0:
97,240,78564,1,0,3:2:0:0:
254,334,78712,5,12,0:2:0:0:
323,142,78859,1,0,0:0:0:0:
141,149,79006,1,0,3:2:0:0:
265,341,79153,5,12,0:2:0:0:
60,154,79300,1,8,0:2:0:0:
65,182,79373,1,8,0:2:0:0:
70,210,79447,1,8,0:3:0:0:
75,238,79520,1,8,0:3:0:0:
80,266,79594,1,4,0:3:0:0:
84,294,79667,1,4,0:3:0:0:
89,322,79741,6,0,L|204:307,1,115.000002536177,8|8,0:2|0:2,0:0:0:0:
397,173,80035,5,4,0:2:0:0:
164,231,80182,1,0,0:2:0:0:
407,247,80329,5,8,0:2:0:0:
145,156,80476,1,0,3:2:0:0:
415,168,80623,5,8,0:2:0:0:
146,234,80770,1,0,3:2:0:0:
428,253,80917,5,8,0:2:0:0:
125,149,81064,1,0,3:2:0:0:
436,163,81212,5,8,0:2:0:0:
125,239,81359,1,0,3:2:0:0:
450,261,81506,5,8,0:2:0:0:
112,149,81653,1,0,3:2:0:0:
112,149,81726,1,0,0:0:0:0:
112,149,81800,2,0,L|125:49,1,100.000000298023,8|0,0:2|3:2,0:0:0:0:
340,137,82094,2,0,L|353:236,1,100.000000298023,8|0,0:2|3:2,0:0:0:0:
186,334,82388,5,8,0:2:0:0:
262,109,82535,1,0,3:2:0:0:
97,286,82682,5,8,0:2:0:0:
349,250,82829,1,0,3:2:0:0:
93,149,82976,5,8,0:2:0:0:
284,325,83123,1,0,3:2:0:0:
182,75,83270,5,8,0:2:0:0:
186,343,83417,1,0,3:2:0:0:
308,71,83564,5,8,0:2:0:0:
128,291,83712,1,0,3:2:0:0:
407,172,83859,5,8,0:2:0:0:
113,219,84006,1,0,3:2:0:0:
389,312,84153,5,8,0:2:0:0:
135,150,84300,1,0,3:2:0:0:
283,340,84447,6,0,L|290:240,1,100.000000298023,8|0,0:2|3:2,0:0:0:0:
182,97,84741,5,12,0:2:0:0:
408,175,84888,1,0,3:2:0:0:
164,168,85035,5,8,0:2:0:0:
432,102,85182,1,0,3:2:0:0:
165,90,85329,5,8,0:2:0:0:
426,180,85476,1,0,3:2:0:0:
144,173,85623,5,8,0:2:0:0:
453,96,85770,1,0,3:2:0:0:
145,84,85917,5,8,0:2:0:0:
445,186,86064,1,0,3:2:0:0:
120,178,86212,5,8,0:2:0:0:
482,98,86359,1,0,3:2:0:0:
482,98,86432,1,0,0:0:0:0:
482,98,86506,2,0,L|497:-2,1,100.000000298023,8|0,0:2|3:2,0:0:0:0:
223,84,86800,2,0,L|237:183,1,100.000000298023,8|0,0:2|3:2,0:0:0:0:
426,348,87094,6,0,L|440:248,1,100.000000298023,8|0,0:2|3:2,0:0:0:0:
379,115,87388,1,8,0:2:0:0:
340,313,87535,1,0,3:2:0:0:
280,110,87682,1,8,0:2:0:0:
249,270,87829,1,8,3:3:0:0:
183,101,87976,1,4,0:3:0:0:
159,225,88123,5,4,3:2:0:0:
98,148,88417,5,4,3:2:0:0:
0,151,88712,5,4,3:2:0:0:
