osu file format v14

[General]
AudioFilename: audio.mp3
AudioLeadIn: 0
PreviewTime: 51175
Countdown: 0
SampleSet: Soft
StackLeniency: 0.4
Mode: 0
LetterboxInBreaks: 0
WidescreenStoryboard: 1

[Editor]
Bookmarks: 13811,18517,23223,27929,32635,46753,51606
DistanceSpacing: 1.3
BeatDivisor: 6
GridSize: 4
TimelineZoom: 2.4

[Metadata]
Title:Lonely Go! (TV Size)
TitleUnicode:Lonely Go! (TV Size)
Artist:Brian The Sun
ArtistUnicode:Brian The Sun
Creator:Nevo
Version:Agatsu's Hard
Source:BORUTO-ボルト-NARUTO NEXT GENERATIONS
Tags:mordred nelliel monstrata yukiyo aro agatsu naruto sarada uzimaki anime opening op ayyri eiri- fieryrage sotarks reform onlybiscuit
BeatmapID:1805758
BeatmapSetID:863227

[Difficulty]
HPDrainRate:5
CircleSize:3.6
OverallDifficulty:6
ApproachRate:8
SliderMultiplier:1.50000000596046
SliderTickRate:1

[Events]
//Background and Video events
0,0,"818879.png",0,0
Video,0,"brainthesun.mp4"
//Break Periods
//Storyboard Layer 0 (Background)
//Storyboard Layer 1 (Fail)
//Storyboard Layer 2 (Pass)
//Storyboard Layer 3 (Foreground)
//Storyboard Sound Samples

[TimingPoints]
1212,294.117647058824,4,2,1,75,1,0
1312,-100,4,2,1,75,0,0
2388,294.117647058824,4,2,1,75,1,0
7094,-100,4,2,1,75,0,0
14006,-125,4,2,1,60,0,0
18712,-100,4,2,1,75,0,0
23417,-125,4,2,1,60,0,0
28050,-125,4,2,1,5,0,0
28123,-100,4,2,1,75,0,0
32829,-100,4,2,1,85,0,1
46652,-100,4,2,1,75,0,0
51799,-100,4,2,1,85,0,1
77535,-100,4,2,1,75,0,0
77682,-100,4,2,1,75,0,0
80035,-100,4,2,1,85,0,1
88711,-100,4,2,1,60,0,0
89447,-100,4,2,1,5,0,0

[Colours]
Combo1 : 89,255,255
Combo2 : 255,219,72
Combo3 : 216,216,216
Combo4 : 255,81,81

[HitObjects]
75,122,1212,6,0,L|132:117,5,37.5000001490115,8|8|4|0|0|0,0:2|0:2|0:3|0:0|0:0|0:0,0:0:0:0:
144,81,1653,2,0,L|201:86,5,37.5000001490115,8|0|8|0|0|0,0:3|0:0|0:3|0:0|0:0|0:0,0:0:0:0:
225,62,2094,1,4,0:3:0:0:
413,112,2388,5,6,3:2:0:0:
413,112,4741,5,4,3:2:0:0:
413,112,5917,5,4,3:2:0:0:
54,267,6506,1,4,3:2:0:0:
335,346,6947,1,0,3:2:0:0:
335,346,7020,1,8,0:2:0:0:
335,346,7094,6,0,P|337:296|334:255,1,75.000000298023,4|0,0:2|0:2,0:0:0:0:
267,201,7388,2,0,P|265:151|268:110,1,75.000000298023,8|8,0:2|0:2,0:0:0:0:
329,51,7682,2,0,L|408:48,2,75.000000298023,8|8|8,0:2|0:2|0:2,0:0:0:0:
266,126,8123,1,8,0:2:0:0:
201,52,8270,6,0,L|122:49,1,75.000000298023,8|8,0:2|0:2,0:0:0:0:
50,111,8564,2,0,P|52:161|49:202,1,75.000000298023,8|0,0:2|3:2,0:0:0:0:
74,333,8859,1,8,0:2:0:0:
35,213,9006,1,8,0:2:0:0:
218,277,9300,6,0,P|266:314|362:309,1,150.000000596046,12|0,0:2|3:2,0:0:0:0:
429,253,9741,2,0,P|434:204|432:158,1,75.000000298023,12|0,0:2|0:2,0:0:0:0:
373,101,10035,1,0,3:2:0:0:
373,101,10182,2,0,L|286:98,1,75.000000298023,0|8,3:2|0:2,0:0:0:0:
215,46,10476,6,0,B|165:82|165:82|173:176,1,150.000000596046,0|0,3:2|3:2,0:0:0:0:
123,254,10917,2,0,L|129:333,1,75.000000298023,8|0,0:2|0:2,0:0:0:0:
213,378,11212,1,0,3:2:0:0:
213,378,11359,2,0,L|300:375,1,75.000000298023,0|8,3:2|0:2,0:0:0:0:
383,355,11653,6,0,P|345:292|364:215,1,150.000000596046,0|0,3:2|3:2,0:0:0:0:
430,152,12094,2,0,L|434:65,1,75.000000298023,8|0,0:2|0:2,0:0:0:0:
355,17,12388,2,0,P|316:20|268:20,1,75.000000298023,0|0,3:2|3:2,0:0:0:0:
203,80,12682,1,8,0:2:0:0:
203,80,12829,6,0,P|198:149|181:246,1,150.000000596046,0|0,3:2|3:2,0:0:0:0:
109,289,13270,2,0,L|26:277,1,75.000000298023,8|0,0:2|0:2,0:0:0:0:
0,186,13564,1,8,0:2:0:0:
0,186,13712,1,8,0:3:0:0:
55,105,13859,1,4,0:3:0:0:
171,136,14006,6,0,B|238:133|224:159|295:157,1,120.000000476837,6|0,3:2|0:0,0:0:0:0:
350,110,14447,1,2,0:2:0:0:
482,191,14741,1,2,3:2:0:0:
482,191,14888,2,0,P|478:233|474:271,1,60.0000002384184,2|0,0:2|3:2,0:0:0:0:
421,305,15182,1,2,0:2:0:0:
421,305,15329,6,0,L|356:300,1,60.0000002384184,0|0,0:0|0:0,0:0:0:0:
296,256,15623,2,0,L|231:261,1,60.0000002384184,2|0,3:2|0:2,0:0:0:0:
167,224,15917,1,2,3:2:0:0:
167,224,16064,2,0,P|162:184|162:140,1,60.0000002384184,2|0,0:2|3:2,0:0:0:0:
171,86,16359,1,2,0:2:0:0:
171,86,16506,6,0,L|45:79,1,120.000000476837,0|2,0:0|3:2,0:0:0:0:
17,231,17094,1,2,3:2:0:0:
17,231,17241,2,0,P|19:263|18:306,1,60.0000002384184,2|0,0:2|3:2,0:0:0:0:
77,350,17535,1,2,0:2:0:0:
77,350,17682,6,0,L|148:346,1,60.0000002384184,0|0,3:2|0:2,0:0:0:0:
196,296,17976,2,0,L|267:300,1,60.0000002384184,2|0,3:2|0:2,0:0:0:0:
386,257,18270,1,10,0:2:0:0:
276,323,18417,1,2,3:2:0:0:
471,319,18712,6,0,B|507:277|507:277|486:166,1,150.000000596046,12|0,0:2|3:2,0:0:0:0:
422,113,19153,2,0,P|380:112|337:118,1,75.000000298023,8|0,0:2|0:2,0:0:0:0:
274,180,19447,2,0,L|271:260,2,75.000000298023,0|0|8,3:2|3:2|0:2,0:0:0:0:
218,99,19888,6,0,P|147:85|87:135,1,150.000000596046,0|0,3:2|3:2,0:0:0:0:
54,220,20329,2,0,P|57:259|54:310,1,75.000000298023,8|0,0:2|0:2,0:0:0:0:
129,358,20623,2,0,L|218:359,1,75.000000298023,0|0,3:2|3:2,0:0:0:0:
296,329,20917,1,8,0:2:0:0:
388,359,21064,6,0,P|386:277|395:184,1,150.000000596046,0|0,3:2|3:2,0:0:0:0:
437,122,21506,1,8,0:0:0:0:
242,103,21800,2,0,P|237:58|237:24,2,75.000000298023,0|0|8,3:2|3:2|0:2,0:0:0:0:
245,200,22241,6,0,P|250:245|250:279,1,75.000000298023,0|0,3:2|0:2,0:0:0:0:
181,343,22535,2,0,L|107:338,1,75.000000298023,0|8,3:2|0:2,0:0:0:0:
27,280,22829,1,0,3:2:0:0:
55,186,22976,2,0,P|54:148|49:111,2,75.000000298023,8|8|4,0:2|0:3|0:3,0:0:0:0:
143,74,23417,6,0,P|194:49|264:71,1,120.000000476837,6|0,0:2|0:2,0:0:0:0:
294,129,23859,1,2,3:2:0:0:
175,230,24153,1,2,3:2:0:0:
175,230,24300,2,0,P|172:261|170:300,1,60.0000002384184,2|0,0:2|0:0,0:0:0:0:
227,354,24594,1,0,0:0:0:0:
227,354,24741,6,0,L|309:362,1,60.0000002384184,0|0,3:2|0:0,0:0:0:0:
340,303,25035,2,0,L|422:295,1,60.0000002384184,2|0,3:2|0:2,0:0:0:0:
460,248,25329,1,2,3:2:0:0:
460,248,25476,2,0,P|458:218|455:188,1,60.0000002384184,2|0,0:2|3:2,0:0:0:0:
443,111,25770,1,2,0:2:0:0:
443,111,25917,6,0,B|384:99|382:129|316:107,1,120.000000476837,0|0,0:0|3:2,0:0:0:0:
181,46,26506,1,0,3:2:0:0:
42,117,26800,2,0,L|45:191,1,60.0000002384184,0|2,3:2|0:2,0:0:0:0:
99,232,27094,6,0,L|96:306,1,60.0000002384184,2|0,3:2|0:2,0:0:0:0:
146,351,27388,2,0,P|186:352|223:355,1,60.0000002384184,0|0,3:2|0:2,0:0:0:0:
340,314,27682,1,8,3:2:0:0:
230,380,27829,1,8,0:2:0:0:
230,185,28123,6,0,P|224:109|227:22,1,150.000000596046,12|0,0:2|3:2,0:0:0:0:
322,49,28564,2,0,L|402:46,1,75.000000298023,8|0,0:2|0:2,0:0:0:0:
490,76,28859,2,0,P|489:29|485:-8,2,75.000000298023,0|0|8,3:2|3:2|0:2,0:0:0:0:
446,162,29300,6,0,B|435:232|464:234|447:328,1,150.000000596046,0|0,3:2|3:2,0:0:0:0:
370,367,29741,2,0,P|332:364|291:364,1,75.000000298023,8|0,0:2|0:2,0:0:0:0:
225,295,30035,2,0,P|227:248|225:211,1,75.000000298023,0|0,3:2|3:2,0:0:0:0:
284,142,30329,1,8,0:2:0:0:
227,62,30476,6,0,B|153:53|154:82|72:67,1,150.000000596046,0|0,3:2|3:2,0:0:0:0:
15,142,30917,2,0,P|16:179|14:216,1,75.000000298023,8|0,0:2|0:2,0:0:0:0:
70,297,31212,2,0,P|68:334|70:371,2,75.000000298023,0|0|8,3:2|3:2|0:2,0:0:0:0:
161,263,31653,6,0,P|229:278|300:234,1,150.000000596046,0|0,0:2|3:2,0:0:0:0:
336,151,32094,2,0,P|338:102|343:63,1,75.000000298023,8|0,0:2|3:2,0:0:0:0:
419,18,32388,1,8,0:2:0:0:
419,18,32535,1,8,0:3:0:0:
502,67,32682,1,4,0:3:0:0:
446,189,32829,6,0,P|443:260|445:352,1,150.000000596046,4|0,3:2|3:2,0:0:0:0:
351,368,33270,2,0,L|271:364,1,75.000000298023,8|0,0:2|3:2,0:0:0:0:
191,315,33564,2,0,L|111:311,1,75.000000298023,8|0,0:2|3:2,0:0:0:0:
52,236,33859,2,0,P|55:186|52:143,1,75.000000298023,8|0,0:2|3:2,0:0:0:0:
115,85,34153,5,8,0:2:0:0:
115,85,34300,2,0,L|189:88,1,75.000000298023,0|8,3:2|0:2,0:0:0:0:
264,151,34594,2,0,L|338:147,1,75.000000298023,0|8,3:2|0:2,0:0:0:0:
419,92,34888,1,0,3:2:0:0:
419,92,35035,1,8,0:2:0:0:
504,138,35182,6,0,P|503:208|508:308,1,150.000000596046,4|0,3:2|3:2,0:0:0:0:
437,357,35623,2,0,P|397:356|353:336,1,75.000000298023,8|0,0:2|3:2,0:0:0:0:
306,265,35917,2,0,L|310:182,1,75.000000298023,8|0,0:2|3:2,0:0:0:0:
254,108,36212,2,0,P|214:109|170:129,1,75.000000298023,8|0,0:2|3:2,0:0:0:0:
119,196,36506,5,8,0:2:0:0:
119,196,36653,2,0,P|77:193|28:186,1,75.000000298023,0|8,3:2|0:2,0:0:0:0:
18,282,36947,2,0,P|60:285|109:292,1,75.000000298023,0|8,3:2|0:2,0:0:0:0:
168,350,37241,1,0,3:2:0:0:
168,350,37388,1,8,0:2:0:0:
250,298,37535,6,0,B|327:277|329:315|403:294,1,150.000000596046,4|0,3:2|3:2,0:0:0:0:
475,235,37976,2,0,L|478:147,1,75.000000298023,8|0,0:2|3:2,0:0:0:0:
414,86,38270,2,0,P|374:84|331:78,1,75.000000298023,8|0,0:2|3:2,0:0:0:0:
254,126,38564,2,0,P|216:121|179:119,1,75.000000298023,8|0,0:2|3:2,0:0:0:0:
89,80,38859,6,0,B|49:127|49:127|75:235,1,150.000000596046,8|8,0:2|0:2,0:0:0:0:
197,360,39447,1,8,0:2:0:0:
197,360,39594,2,0,P|198:312|201:268,1,75.000000298023,0|8,3:2|0:2,0:0:0:0:
268,215,39888,6,0,B|342:202|341:235|420:214,1,150.000000596046,4|0,3:2|3:2,0:0:0:0:
480,141,40329,2,0,P|479:97|483:51,1,75.000000298023,8|0,0:2|3:2,0:0:0:0:
400,11,40623,2,0,L|319:6,1,75.000000298023,8|0,0:2|3:2,0:0:0:0:
236,47,40917,2,0,L|155:42,1,75.000000298023,8|0,0:2|3:2,0:0:0:0:
79,97,41212,6,0,P|81:134|80:171,1,75.000000298023,8|0,0:2|3:2,0:0:0:0:
21,249,41506,2,0,P|18:286|19:323,1,75.000000298023,8|0,0:2|3:2,0:0:0:0:
102,376,41800,1,8,0:2:0:0:
102,376,41947,2,0,L|205:370,1,75.000000298023,8|4,0:3|0:3,0:0:0:0:
258,317,42241,6,0,B|263:257|263:257|284:231|284:231|288:158,1,150.000000596046,4|0,0:2|3:2,0:0:0:0:
335,90,42682,2,0,L|419:84,1,75.000000298023,8|0,0:2|3:2,0:0:0:0:
491,138,42976,2,0,P|496:179|496:223,1,75.000000298023,8|0,0:2|3:2,0:0:0:0:
450,298,43270,2,0,L|375:303,1,75.000000298023,8|0,0:2|3:2,0:0:0:0:
304,369,43564,5,8,0:2:0:0:
304,369,43712,2,0,L|229:363,1,75.000000298023,0|8,3:2|0:2,0:0:0:0:
132,354,44006,2,0,P|132:309|136:265,1,75.000000298023,0|8,3:2|0:2,0:0:0:0:
186,197,44300,1,0,3:2:0:0:
186,197,44447,1,8,0:2:0:0:
204,101,44594,6,0,P|151:50|71:52,1,150.000000596046,4|0,3:2|3:2,0:0:0:0:
5,114,45035,2,0,L|0:198,1,75.000000298023,8|0,0:2|3:2,0:0:0:0:
45,275,45329,2,0,L|50:359,1,75.000000298023,8|0,0:2|3:2,0:0:0:0:
141,381,45623,2,0,P|183:378|226:378,1,75.000000298023,8|0,0:2|3:2,0:0:0:0:
299,327,45917,6,0,B|375:309|373:349|463:325,1,150.000000596046,8|8,0:2|0:2,0:0:0:0:
500,246,46359,2,0,P|498:196|499:149,1,75.000000298023,0|8,3:2|0:2,0:0:0:0:
458,38,46653,1,0,3:2:0:0:
381,217,46947,6,0,P|329:180|244:185,1,150.000000596046,4|0,3:2|3:2,0:0:0:0:
171,247,47388,2,0,P|174:286|173:337,1,75.000000298023,8|0,0:2|0:2,0:0:0:0:
93,376,47682,1,0,3:2:0:0:
93,376,47829,1,0,3:2:0:0:
5,333,47976,2,0,P|2:294|3:243,1,75.000000298023,8|0,0:2|0:2,0:0:0:0:
32,165,48270,6,0,P|32:127|29:90,2,75.000000298023,0|0|8,3:2|3:2|0:2,0:0:0:0:
172,28,48859,1,0,3:2:0:0:
172,28,49006,2,0,L|254:36,1,75.000000298023,0|8,3:2|0:2,0:0:0:0:
326,90,49300,6,0,B|401:104|400:70|484:85,1,150.000000596046,4|0,3:2|3:2,0:0:0:0:
501,177,49741,2,0,L|495:255,1,75.000000298023,8|0,0:2|3:2,0:0:0:0:
428,323,50035,2,0,P|390:319|349:318,1,75.000000298023,8|0,0:2|3:2,0:0:0:0:
268,269,50329,2,0,P|230:267|193:263,1,75.000000298023,12|0,0:2|3:2,0:0:0:0:
100,293,50623,6,0,L|95:235,3,37.5000001490115,8|8|8|8,0:2|0:2|0:2|0:2,0:0:0:0:
59,223,50917,2,0,L|64:165,3,37.5000001490115,8|8|8|8,0:2|0:2|0:2|0:2,0:0:0:0:
85,141,51212,2,0,B|72:50|72:50|94:28|111:-1,1,150.000000596046,4|0,3:2|0:0,0:0:0:0:
237,150,51800,6,0,P|234:219|225:306,1,150.000000596046,6|8,3:2|0:2,0:0:0:0:
306,354,52241,1,2,0:2:0:0:
306,354,52388,2,0,P|360:307|446:323,1,150.000000596046,2|8,3:2|0:2,0:0:0:0:
491,236,52829,1,2,0:2:0:0:
491,236,52976,6,0,P|483:161|479:86,1,150.000000596046,2|8,3:2|0:2,0:0:0:0:
398,32,53417,1,0,0:2:0:0:
316,85,53564,2,0,L|227:77,1,75.000000298023,2|0,3:2|3:2,0:0:0:0:
165,16,53859,2,0,L|76:24,1,75.000000298023,10|0,0:2|0:2,0:0:0:0:
14,83,54153,6,0,P|20:152|22:243,1,150.000000596046,2|8,3:2|0:2,0:0:0:0:
82,309,54594,1,2,0:2:0:0:
82,309,54741,2,0,P|153:289|219:350,1,150.000000596046,2|8,3:2|0:2,0:0:0:0:
297,376,55182,1,2,0:2:0:0:
297,376,55329,6,0,B|370:388|371:358|452:372,1,150.000000596046,2|8,3:2|0:2,0:0:0:0:
501,291,55770,1,2,0:2:0:0:
501,291,55917,2,0,P|497:239|499:195,1,75.000000298023,2|0,3:2|0:0,0:0:0:0:
415,162,56212,2,0,P|419:110|417:66,1,75.000000298023,8|0,0:2|0:2,0:0:0:0:
352,15,56506,6,0,L|262:21,1,75.000000298023,2|0,3:2|0:2,0:0:0:0:
209,89,56800,2,0,L|119:83,2,75.000000298023,10|0|2,0:2|0:2|3:2,0:0:0:0:
286,148,57241,1,0,0:0:0:0:
229,227,57388,2,0,P|234:266|233:312,1,75.000000298023,10|0,0:2|0:2,0:0:0:0:
165,371,57682,6,0,P|94:374|36:316,1,150.000000596046,2|10,3:2|0:2,0:0:0:0:
80,234,58123,1,0,0:2:0:0:
55,140,58270,2,0,P|55:93|61:52,1,75.000000298023,2|0,3:2|3:2,0:0:0:0:
133,3,58564,2,0,L|217:9,1,75.000000298023,10|0,0:2|0:2,0:0:0:0:
290,61,58859,6,0,B|370:76|367:40|447:58,1,150.000000596046,2|8,3:2|0:2,0:0:0:0:
501,130,59300,1,2,0:2:0:0:
501,130,59447,2,0,P|495:200|476:299,1,150.000000596046,2|8,3:2|0:2,0:0:0:0:
394,323,59888,1,0,0:2:0:0:
320,258,60035,6,0,P|246:240|175:289,1,150.000000596046,0|12,3:2|0:2,0:0:0:0:
134,358,60476,1,0,0:2:0:0:
45,317,60623,2,0,L|40:266,3,37.5000001490115,8|8|8|8,0:2|0:2|0:2|0:2,0:0:0:0:
9,242,60917,2,0,L|14:191,3,37.5000001490115,8|8|8|8,0:2|0:2|0:2|0:2,0:0:0:0:
44,166,61212,6,0,P|43:117|37:75,1,75.000000298023,6|0,3:2|0:2,0:0:0:0:
101,15,61506,2,0,P|173:8|230:65,1,150.000000596046,12|0,0:2|3:2,0:0:0:0:
197,150,61947,1,0,3:2:0:0:
250,231,62094,1,10,0:2:0:0:
250,231,62241,6,0,P|321:237|409:250,1,150.000000596046,2|0,0:2|3:2,0:0:0:0:
472,184,62682,1,8,0:2:0:0:
412,106,62829,1,2,0:2:0:0:
412,106,62976,2,0,L|421:23,2,75.000000298023,2|2|8,3:2|3:2|0:2,0:0:0:0:
320,139,63417,1,2,0:2:0:0:
241,80,63564,6,0,B|168:64|170:101|93:84,1,150.000000596046,8|8,3:2|0:3,0:0:0:0:
21,151,64006,1,8,0:3:0:0:
21,151,64153,2,0,P|25:193|25:236,1,75.000000298023,4|4,0:3|0:3,0:0:0:0:
56,317,64447,2,0,P|111:363|183:352,1,150.000000596046,12|0,0:2|0:0,0:0:0:0:
257,288,64888,5,0,3:2:0:0:
213,201,65035,2,0,P|213:163|217:126,1,75.000000298023,8|0,0:2|0:0,0:0:0:0:
287,58,65329,1,2,3:2:0:0:
287,58,65476,2,0,L|382:64,1,75.000000298023,2|12,3:2|0:2,0:0:0:0:
447,16,65770,1,2,0:2:0:0:
507,92,65917,6,0,P|500:159|494:254,1,150.000000596046,4|10,3:2|0:2,0:0:0:0:
415,299,66359,2,0,P|358:277|285:330,1,150.000000596046,2|0,0:2|3:2,0:0:0:0:
195,291,66800,1,10,0:2:0:0:
195,290,66947,6,0,P|190:215|182:140,1,150.000000596046,2|0,0:2|0:2,0:0:0:0:
88,113,67388,1,10,0:2:0:0:
88,113,67535,2,0,B|35:143|35:143|26:242,1,150.000000596046,2|0,0:2|3:2,0:0:0:0:
45,327,67976,1,10,0:2:0:0:
45,327,68123,6,0,B|122:314|113:350|207:338,1,150.000000596046,2|0,0:2|3:2,0:0:0:0:
279,295,68564,2,0,L|359:300,1,75.000000298023,8|8,0:2|0:3,0:0:0:0:
435,353,68859,1,8,0:3:0:0:
435,353,69006,1,4,0:3:0:0:
508,288,69153,2,0,P|508:244|511:205,1,75.000000298023,4|4,0:3|0:3,0:0:0:0:
429,95,69447,5,10,0:2:0:0:
240,143,69741,1,6,0:2:0:0:
152,100,69888,1,8,0:2:0:0:
152,100,69962,1,8,0:2:0:0:
152,100,70035,2,0,L|157:52,3,37.5000001490115,8|8|8|8,0:2|0:2|0:2|0:2,0:0:0:0:
183,22,70329,2,0,P|223:21|269:17,1,75.000000298023,8|8,0:2|0:2,0:0:0:0:
371,59,70623,6,0,P|371:100|374:138,1,75.000000298023,4|0,3:2|0:2,0:0:0:0:
414,222,70917,2,0,P|371:273|283:269,1,150.000000596046,12|0,0:2|3:2,0:0:0:0:
207,225,71359,2,0,L|118:221,1,75.000000298023,0|8,3:2|0:2,0:0:0:0:
42,184,71653,6,0,P|31:254|25:334,1,150.000000596046,4|0,3:2|3:2,0:0:0:0:
110,380,72094,2,0,L|199:376,1,75.000000298023,8|0,0:2|0:2,0:0:0:0:
268,326,72388,2,0,L|357:330,2,75.000000298023,0|0|8,3:2|3:2|0:2,0:0:0:0:
205,251,72829,6,0,B|215:171|186:171|206:88,1,150.000000596046,4|0,3:2|3:2,0:0:0:0:
267,28,73270,2,0,P|312:30|362:30,1,75.000000298023,8|0,0:2|0:2,0:0:0:0:
421,86,73564,2,0,P|466:84|516:84,2,75.000000298023,0|0|8,3:2|3:2|0:2,0:0:0:0:
354,157,74006,6,0,P|349:224|338:317,1,150.000000596046,4|0,3:2|3:2,0:0:0:0:
257,359,74447,2,0,L|175:351,1,75.000000298023,8|0,0:2|0:2,0:0:0:0:
109,287,74741,2,0,P|107:243|103:201,1,75.000000298023,0|0,3:2|3:2,0:0:0:0:
33,145,75035,1,8,0:2:0:0:
93,68,75182,6,0,B|168:58|169:88|252:73,1,150.000000596046,4|0,3:2|3:2,0:0:0:0:
327,121,75623,2,0,P|326:164|326:201,1,75.000000298023,8|0,0:2|0:2,0:0:0:0:
266,273,75917,2,0,L|190:274,2,75.000000298023,0|0|8,3:2|3:2|0:2,0:0:0:0:
332,344,76359,6,0,P|408:361|467:306,1,150.000000596046,4|0,3:2|3:2,0:0:0:0:
478,223,76800,2,0,P|480:175|485:130,1,75.000000298023,8|0,0:2|0:2,0:0:0:0:
434,63,77094,2,0,L|356:56,1,75.000000298023,0|0,3:2|3:2,0:0:0:0:
222,41,77388,1,8,0:2:0:0:
336,82,77535,1,12,0:2:0:0:
184,204,77829,6,0,L|190:292,2,75.000000298023,12|0|0,0:2|3:2|3:2,0:0:0:0:
103,149,78270,2,0,L|108:74,2,75.000000298023,12|0|0,0:2|3:2|3:2,0:0:0:0:
17,197,78712,2,0,P|10:271|4:351,1,150.000000596046,12|0,0:2|3:2,0:0:0:0:
96,376,79153,1,12,0:2:0:0:
183,332,79300,1,8,0:2:0:0:
183,332,79373,1,8,0:2:0:0:
183,332,79447,2,0,L|186:284,3,37.5000001490115,8|8|4|4,0:3|0:3|0:3|0:3,0:0:0:0:
220,259,79741,2,0,L|217:182,1,75.000000298023,8|8,0:2|0:2,0:0:0:0:
282,68,80035,6,0,B|358:53|352:86|443:69,1,150.000000596046,4|8,0:2|0:2,0:0:0:0:
510,127,80476,2,0,P|506:169|504:212,1,75.000000298023,0|8,3:2|0:2,0:0:0:0:
439,274,80770,1,0,3:2:0:0:
358,219,80917,1,8,0:2:0:0:
358,219,81064,6,0,L|272:222,1,75.000000298023,0|8,3:2|0:2,0:0:0:0:
216,293,81359,1,0,3:2:0:0:
131,243,81506,1,8,0:2:0:0:
131,243,81653,2,0,P|130:193|126:152,1,75.000000298023,0|8,3:2|0:0,0:0:0:0:
59,98,81947,1,0,3:2:0:0:
122,24,82094,2,0,L|217:26,1,75.000000298023,8|0,0:2|3:2,0:0:0:0:
279,78,82388,6,0,L|353:76,1,75.000000298023,8|0,0:2|3:2,0:0:0:0:
438,124,82682,1,8,0:2:0:0:
438,124,82829,2,0,P|440:161|441:198,1,75.000000298023,0|8,3:2|0:2,0:0:0:0:
387,280,83123,1,0,3:2:0:0:
313,216,83270,2,0,L|215:208,1,75.000000298023,8|0,0:2|3:2,0:0:0:0:
168,277,83564,6,0,L|70:285,1,75.000000298023,8|0,0:2|3:2,0:0:0:0:
19,218,83859,1,8,0:2:0:0:
19,218,84006,2,0,P|18:180|15:143,1,75.000000298023,0|8,3:2|0:2,0:0:0:0:
58,55,84300,1,0,3:2:0:0:
152,79,84447,2,0,L|226:72,1,75.000000298023,8|0,0:2|3:2,0:0:0:0:
316,110,84741,6,0,B|393:95|392:129|483:111,1,150.000000596046,12|8,0:2|0:2,0:0:0:0:
509,200,85182,2,0,L|503:278,1,75.000000298023,0|8,3:2|0:2,0:0:0:0:
429,338,85476,1,0,3:2:0:0:
429,338,85623,2,0,L|342:333,1,75.000000298023,8|0,0:2|3:2,0:0:0:0:
261,363,85917,6,0,P|223:305|241:218,1,150.000000596046,8|8,0:2|0:2,0:0:0:0:
302,157,86359,2,0,P|306:103|304:65,1,75.000000298023,0|8,3:2|0:2,0:0:0:0:
233,15,86653,1,0,3:2:0:0:
146,60,86800,2,0,P|103:58|59:53,1,75.000000298023,8|0,0:2|3:2,0:0:0:0:
1,122,87094,6,0,P|6:181|11:282,1,150.000000596046,8|8,0:2|0:2,0:0:0:0:
83,336,87535,1,0,3:2:0:0:
168,289,87682,1,8,0:2:0:0:
168,289,87829,2,0,L|250:295,1,75.000000298023,8|4,3:3|0:3,0:0:0:0:
368,312,88123,5,4,3:2:0:0:
325,121,88417,1,4,3:2:0:0:
511,178,88712,2,0,B|428:238|331:224|344:113|223:104|155:171,1,375.000001490115,4|0,3:2|0:2,0:0:0:0:
