osu file format v14

[General]
AudioFilename: audio.mp3
AudioLeadIn: 0
PreviewTime: 51591
Countdown: 0
SampleSet: Soft
StackLeniency: 0.7
Mode: 3
LetterboxInBreaks: 0
SpecialStyle: 0
WidescreenStoryboard: 1

[Editor]
DistanceSpacing: 1.3
BeatDivisor: 16
GridSize: 4
TimelineZoom: 0.1

[Metadata]
Title:Lonely Go! (TV Size)
TitleUnicode:Lonely Go! (TV Size)
Artist:Brian the Sun
ArtistUnicode:Brian the Sun
Creator:Flade
Version:Normal
Source:BORUTO-ボルト- NARUTO NEXT GENERATIONS
Tags:ブライアンザサン ロンリーゴー! opening op theme song anime japanese rock jrock j-rock vocals Mori Ryota 森良太 Shiroyama Haruki 白山治輝 Ogawa Shinji 小川真司 Tanaka Shunta 田中駿汰 Uzumaki Naruto うずまき ナルト Uchiha Sarada うちはサラダ chordjack chordjacks chord jack jacks cj rice
BeatmapID:4326817
BeatmapSetID:2067990

[Difficulty]
HPDrainRate:7.5
CircleSize:4
OverallDifficulty:7.5
ApproachRate:5
SliderMultiplier:1.4
SliderTickRate:1

[Events]
//Background and Video events
0,0,"lonely lonely lonely.jpg",0,0
//Break Periods
//Storyboard Layer 0 (Background)
//Storyboard Layer 1 (Fail)
//Storyboard Layer 2 (Pass)
//Storyboard Layer 3 (Foreground)
//Storyboard Layer 4 (Overlay)
//Storyboard Sound Samples

[TimingPoints]
1628,294.117647058824,4,2,1,50,1,0
33245,-100,4,2,1,50,0,1
47069,-100,4,2,1,50,0,0
52216,-100,4,2,1,50,0,1
71039,-100,4,2,1,50,0,0
80451,-100,4,2,1,50,0,1
88539,-100,4,2,1,50,0,0

[HitObjects]
448,192,1628,5,0,0:0:0:0:
320,192,1628,1,0,0:0:0:0:
192,192,1701,1,0,0:0:0:0:
64,192,1775,1,0,0:0:0:0:
448,192,1848,1,0,0:0:0:0:
192,192,2069,1,0,0:0:0:0:
64,192,2069,1,0,0:0:0:0:
320,192,2142,1,0,0:0:0:0:
448,192,2216,1,0,0:0:0:0:
64,192,2289,1,0,0:0:0:0:
448,192,2510,1,0,0:0:0:0:
320,192,2510,1,0,0:0:0:0:
448,192,2804,1,0,0:0:0:0:
64,192,2804,1,0,0:0:0:0:
192,192,3245,1,0,0:0:0:0:
448,192,3392,1,0,0:0:0:0:
320,192,3833,1,0,0:0:0:0:
64,192,3980,1,0,0:0:0:0:
448,192,4569,1,0,0:0:0:0:
192,192,4863,1,0,0:0:0:0:
448,192,5157,1,0,0:0:0:0:
320,192,5157,1,0,0:0:0:0:
64,192,5598,1,0,0:0:0:0:
448,192,5745,1,0,0:0:0:0:
192,192,6186,1,0,0:0:0:0:
448,192,6333,1,0,0:0:0:0:
320,192,6333,1,0,0:0:0:0:
64,192,6775,1,0,0:0:0:0:
320,192,6922,1,0,0:0:0:0:
448,192,7363,1,0,0:0:0:0:
64,192,7510,1,0,0:0:0:0:
320,192,7510,1,0,0:0:0:0:
192,192,7804,1,0,0:0:0:0:
64,192,7951,1,0,0:0:0:0:
320,192,8098,1,0,0:0:0:0:
448,192,8245,1,0,0:0:0:0:
192,192,8392,1,0,0:0:0:0:
64,192,8539,1,0,0:0:0:0:
448,192,8686,1,0,0:0:0:0:
320,192,8686,1,0,0:0:0:0:
64,192,8833,1,0,0:0:0:0:
448,192,8980,1,0,0:0:0:0:
192,192,8980,1,0,0:0:0:0:
320,192,9128,1,0,0:0:0:0:
192,192,9275,1,0,0:0:0:0:
64,192,9275,1,0,0:0:0:0:
448,192,9422,1,0,0:0:0:0:
320,192,9422,1,0,0:0:0:0:
448,192,9716,1,0,0:0:0:0:
64,192,9716,1,0,0:0:0:0:
320,192,10010,1,0,0:0:0:0:
64,192,10157,1,0,0:0:0:0:
192,192,10157,1,0,0:0:0:0:
448,192,10451,1,0,0:0:0:0:
192,192,10598,1,0,0:0:0:0:
448,192,10745,1,0,0:0:0:0:
320,192,10745,1,0,0:0:0:0:
64,192,10892,1,0,0:0:0:0:
448,192,11186,1,0,0:0:0:0:
192,192,11333,1,0,0:0:0:0:
320,192,11333,1,0,0:0:0:0:
64,192,11628,1,0,0:0:0:0:
448,192,11775,1,0,0:0:0:0:
192,192,11922,1,0,0:0:0:0:
320,192,11922,1,0,0:0:0:0:
64,192,12069,1,0,0:0:0:0:
320,192,12363,1,0,0:0:0:0:
448,192,12510,1,0,0:0:0:0:
192,192,12510,1,0,0:0:0:0:
64,192,12804,1,0,0:0:0:0:
320,192,12951,1,0,0:0:0:0:
64,192,13098,1,0,0:0:0:0:
192,192,13098,1,0,0:0:0:0:
448,192,13245,1,0,0:0:0:0:
192,192,13539,1,0,0:0:0:0:
448,192,13686,1,0,0:0:0:0:
320,192,13686,1,0,0:0:0:0:
448,192,13980,1,0,0:0:0:0:
64,192,13980,1,0,0:0:0:0:
192,192,14128,1,0,0:0:0:0:
320,192,14275,1,0,0:0:0:0:
448,192,14422,1,0,0:0:0:0:
64,192,14422,1,0,0:0:0:0:
192,192,14863,1,0,0:0:0:0:
448,192,15157,1,0,0:0:0:0:
64,192,15304,1,0,0:0:0:0:
320,192,15451,1,0,0:0:0:0:
192,192,15598,1,0,0:0:0:0:
64,192,15745,1,0,0:0:0:0:
448,192,16039,1,0,0:0:0:0:
64,192,16333,1,0,0:0:0:0:
320,192,16480,1,0,0:0:0:0:
192,192,16628,1,0,0:0:0:0:
448,192,16775,1,0,0:0:0:0:
64,192,16922,1,0,0:0:0:0:
320,192,17216,1,0,0:0:0:0:
192,192,17510,1,0,0:0:0:0:
448,192,17657,1,0,0:0:0:0:
64,192,17804,1,0,0:0:0:0:
192,192,17951,1,0,0:0:0:0:
320,192,18098,1,0,0:0:0:0:
64,192,18098,1,0,0:0:0:0:
192,192,18392,1,0,0:0:0:0:
448,192,18392,1,0,0:0:0:0:
448,192,18686,1,0,0:0:0:0:
64,192,18686,1,0,0:0:0:0:
192,192,18833,1,0,0:0:0:0:
320,192,18833,1,0,0:0:0:0:
448,192,19128,1,0,0:0:0:0:
192,192,19128,1,0,0:0:0:0:
64,192,19422,1,0,0:0:0:0:
192,192,19569,1,0,0:0:0:0:
320,192,19569,1,0,0:0:0:0:
448,192,19863,1,0,0:0:0:0:
192,192,20010,1,0,0:0:0:0:
448,192,20157,1,0,0:0:0:0:
320,192,20157,1,0,0:0:0:0:
64,192,20304,1,0,0:0:0:0:
448,192,20598,1,0,0:0:0:0:
192,192,20745,1,0,0:0:0:0:
64,192,20745,1,0,0:0:0:0:
320,192,21039,1,0,0:0:0:0:
192,192,21186,1,0,0:0:0:0:
64,192,21333,1,0,0:0:0:0:
448,192,21333,1,0,0:0:0:0:
320,192,21480,1,0,0:0:0:0:
192,192,21775,1,0,0:0:0:0:
64,192,21922,1,0,0:0:0:0:
320,192,21922,1,0,0:0:0:0:
448,192,22216,1,0,0:0:0:0:
64,192,22363,1,0,0:0:0:0:
448,192,22510,1,0,0:0:0:0:
320,192,22510,1,0,0:0:0:0:
192,192,22657,1,0,0:0:0:0:
448,192,22951,1,0,0:0:0:0:
192,192,23098,1,0,0:0:0:0:
320,192,23098,1,0,0:0:0:0:
448,192,23392,1,0,0:0:0:0:
64,192,23392,1,0,0:0:0:0:
192,192,23539,1,0,0:0:0:0:
320,192,23686,1,0,0:0:0:0:
448,192,23833,1,0,0:0:0:0:
64,192,23833,1,0,0:0:0:0:
192,192,24275,1,0,0:0:0:0:
448,192,24569,1,0,0:0:0:0:
64,192,24716,1,0,0:0:0:0:
320,192,24863,1,0,0:0:0:0:
192,192,25010,1,0,0:0:0:0:
64,192,25157,1,0,0:0:0:0:
448,192,25451,1,0,0:0:0:0:
64,192,25745,1,0,0:0:0:0:
320,192,25892,1,0,0:0:0:0:
192,192,26039,1,0,0:0:0:0:
448,192,26186,1,0,0:0:0:0:
320,192,26333,1,0,0:0:0:0:
64,192,26628,1,0,0:0:0:0:
320,192,26922,1,0,0:0:0:0:
192,192,27216,1,0,0:0:0:0:
448,192,27363,1,0,0:0:0:0:
320,192,27510,1,0,0:0:0:0:
64,192,27510,1,0,0:0:0:0:
448,192,27804,1,0,0:0:0:0:
192,192,27804,1,0,0:0:0:0:
64,192,28098,1,0,0:0:0:0:
192,192,28098,1,0,0:0:0:0:
448,192,28245,1,0,0:0:0:0:
320,192,28245,1,0,0:0:0:0:
192,192,28539,1,0,0:0:0:0:
320,192,28539,1,0,0:0:0:0:
448,192,28833,1,0,0:0:0:0:
64,192,28980,1,0,0:0:0:0:
320,192,28980,1,0,0:0:0:0:
192,192,29275,1,0,0:0:0:0:
448,192,29422,1,0,0:0:0:0:
64,192,29569,1,0,0:0:0:0:
192,192,29569,1,0,0:0:0:0:
320,192,29716,1,0,0:0:0:0:
448,192,30010,1,0,0:0:0:0:
64,192,30157,1,0,0:0:0:0:
192,192,30157,1,0,0:0:0:0:
320,192,30451,1,0,0:0:0:0:
64,192,30598,1,0,0:0:0:0:
448,192,30745,1,0,0:0:0:0:
192,192,30745,1,0,0:0:0:0:
320,192,30892,1,0,0:0:0:0:
64,192,31186,1,0,0:0:0:0:
320,192,31333,1,0,0:0:0:0:
192,192,31333,1,0,0:0:0:0:
448,192,31628,1,0,0:0:0:0:
320,192,31775,1,0,0:0:0:0:
448,192,31922,1,0,0:0:0:0:
64,192,31922,1,0,0:0:0:0:
192,192,32069,1,0,0:0:0:0:
320,192,32363,1,0,0:0:0:0:
448,192,32510,1,0,0:0:0:0:
64,192,32510,1,0,0:0:0:0:
192,192,32804,1,0,0:0:0:0:
320,192,32804,1,0,0:0:0:0:
448,192,32951,1,0,0:0:0:0:
64,192,33098,1,0,0:0:0:0:
192,192,33245,1,0,0:0:0:0:
320,192,33245,1,0,0:0:0:0:
448,192,33539,1,0,0:0:0:0:
192,192,33686,1,0,0:0:0:0:
320,192,33686,1,0,0:0:0:0:
64,192,33833,1,0,0:0:0:0:
448,192,33980,1,0,0:0:0:0:
320,192,33980,1,0,0:0:0:0:
192,192,34128,1,0,0:0:0:0:
448,192,34275,1,0,0:0:0:0:
64,192,34275,1,0,0:0:0:0:
192,192,34569,1,0,0:0:0:0:
320,192,34569,1,0,0:0:0:0:
448,192,34716,1,0,0:0:0:0:
64,192,34863,1,0,0:0:0:0:
192,192,34863,1,0,0:0:0:0:
320,192,35010,1,0,0:0:0:0:
448,192,35157,1,0,0:0:0:0:
64,192,35157,1,0,0:0:0:0:
192,192,35304,1,0,0:0:0:0:
448,192,35451,1,0,0:0:0:0:
320,192,35451,1,0,0:0:0:0:
64,192,35598,1,0,0:0:0:0:
192,192,35598,1,0,0:0:0:0:
320,192,35892,1,0,0:0:0:0:
448,192,36039,1,0,0:0:0:0:
64,192,36039,1,0,0:0:0:0:
192,192,36186,1,0,0:0:0:0:
64,192,36333,1,0,0:0:0:0:
320,192,36333,1,0,0:0:0:0:
448,192,36480,1,0,0:0:0:0:
192,192,36628,1,0,0:0:0:0:
64,192,36628,1,0,0:0:0:0:
448,192,36922,1,0,0:0:0:0:
320,192,36922,1,0,0:0:0:0:
192,192,37069,1,0,0:0:0:0:
64,192,37216,1,0,0:0:0:0:
448,192,37216,1,0,0:0:0:0:
320,192,37363,1,0,0:0:0:0:
192,192,37510,1,0,0:0:0:0:
64,192,37510,1,0,0:0:0:0:
448,192,37657,1,0,0:0:0:0:
192,192,37804,1,0,0:0:0:0:
320,192,37804,1,0,0:0:0:0:
64,192,37951,1,0,0:0:0:0:
448,192,37951,1,0,0:0:0:0:
192,192,38245,1,0,0:0:0:0:
64,192,38392,1,0,0:0:0:0:
448,192,38392,1,0,0:0:0:0:
320,192,38539,1,0,0:0:0:0:
448,192,38686,1,0,0:0:0:0:
192,192,38686,1,0,0:0:0:0:
64,192,38833,1,0,0:0:0:0:
448,192,38980,1,0,0:0:0:0:
320,192,38980,1,0,0:0:0:0:
192,192,39275,1,0,0:0:0:0:
64,192,39275,1,0,0:0:0:0:
448,192,39422,1,0,0:0:0:0:
64,192,39569,1,0,0:0:0:0:
320,192,39569,1,0,0:0:0:0:
192,192,39716,1,0,0:0:0:0:
448,192,39863,1,0,0:0:0:0:
64,192,39863,1,0,0:0:0:0:
320,192,40010,1,0,0:0:0:0:
448,192,40157,1,0,0:0:0:0:
192,192,40157,1,0,0:0:0:0:
64,192,40304,1,0,0:0:0:0:
320,192,40304,1,0,0:0:0:0:
448,192,40598,1,0,0:0:0:0:
192,192,40745,1,0,0:0:0:0:
320,192,40745,1,0,0:0:0:0:
64,192,40892,1,0,0:0:0:0:
448,192,41039,1,0,0:0:0:0:
320,192,41039,1,0,0:0:0:0:
192,192,41186,1,0,0:0:0:0:
448,192,41333,1,0,0:0:0:0:
64,192,41333,1,0,0:0:0:0:
64,192,41628,1,0,0:0:0:0:
320,192,41628,1,0,0:0:0:0:
192,192,41775,1,0,0:0:0:0:
320,192,41922,1,0,0:0:0:0:
448,192,41922,1,0,0:0:0:0:
64,192,42069,1,0,0:0:0:0:
192,192,42216,1,0,0:0:0:0:
320,192,42216,1,0,0:0:0:0:
448,192,42363,1,0,0:0:0:0:
64,192,42510,1,0,0:0:0:0:
192,192,42510,1,0,0:0:0:0:
448,192,42657,1,0,0:0:0:0:
320,192,42657,1,0,0:0:0:0:
192,192,42951,1,0,0:0:0:0:
64,192,43098,1,0,0:0:0:0:
320,192,43098,1,0,0:0:0:0:
448,192,43245,1,0,0:0:0:0:
192,192,43392,1,0,0:0:0:0:
320,192,43392,1,0,0:0:0:0:
64,192,43539,1,0,0:0:0:0:
448,192,43686,1,0,0:0:0:0:
320,192,43686,1,0,0:0:0:0:
192,192,43980,1,0,0:0:0:0:
64,192,43980,1,0,0:0:0:0:
320,192,44128,1,0,0:0:0:0:
64,192,44275,1,0,0:0:0:0:
448,192,44275,1,0,0:0:0:0:
192,192,44422,1,0,0:0:0:0:
448,192,44569,1,0,0:0:0:0:
320,192,44569,1,0,0:0:0:0:
64,192,44716,1,0,0:0:0:0:
320,192,44863,1,0,0:0:0:0:
192,192,44863,1,0,0:0:0:0:
448,192,45010,1,0,0:0:0:0:
64,192,45010,1,0,0:0:0:0:
320,192,45304,1,0,0:0:0:0:
192,192,45451,1,0,0:0:0:0:
448,192,45451,1,0,0:0:0:0:
64,192,45598,1,0,0:0:0:0:
448,192,45745,1,0,0:0:0:0:
320,192,45745,1,0,0:0:0:0:
192,192,45892,1,0,0:0:0:0:
448,192,46039,1,0,0:0:0:0:
64,192,46039,1,0,0:0:0:0:
192,192,46333,1,0,0:0:0:0:
64,192,46333,1,0,0:0:0:0:
448,192,46480,1,0,0:0:0:0:
320,192,46628,1,0,0:0:0:0:
192,192,46628,1,0,0:0:0:0:
64,192,46775,1,0,0:0:0:0:
320,192,46922,1,0,0:0:0:0:
448,192,46922,1,0,0:0:0:0:
64,192,47069,1,0,0:0:0:0:
192,192,47069,1,0,0:0:0:0:
448,192,47363,1,0,0:0:0:0:
64,192,47363,1,0,0:0:0:0:
320,192,47657,1,0,0:0:0:0:
448,192,47804,1,0,0:0:0:0:
192,192,47804,1,0,0:0:0:0:
64,192,48098,1,0,0:0:0:0:
320,192,48245,1,0,0:0:0:0:
64,192,48392,1,0,0:0:0:0:
192,192,48392,1,0,0:0:0:0:
448,192,48686,1,0,0:0:0:0:
192,192,48833,1,0,0:0:0:0:
320,192,48980,1,0,0:0:0:0:
64,192,48980,1,0,0:0:0:0:
448,192,49275,1,0,0:0:0:0:
64,192,49422,1,0,0:0:0:0:
192,192,49569,1,0,0:0:0:0:
320,192,49569,1,0,0:0:0:0:
448,192,49716,1,0,0:0:0:0:
64,192,49716,1,0,0:0:0:0:
320,192,50010,1,0,0:0:0:0:
448,192,50157,1,0,0:0:0:0:
192,192,50157,1,0,0:0:0:0:
64,192,50304,1,0,0:0:0:0:
320,192,50451,1,0,0:0:0:0:
192,192,50451,1,0,0:0:0:0:
448,192,50598,1,0,0:0:0:0:
64,192,50745,1,0,0:0:0:0:
192,192,50745,1,0,0:0:0:0:
192,192,51039,1,0,0:0:0:0:
320,192,51113,1,0,0:0:0:0:
448,192,51186,1,0,0:0:0:0:
64,192,51333,1,0,0:0:0:0:
192,192,51407,1,0,0:0:0:0:
320,192,51480,1,0,0:0:0:0:
448,192,51628,1,0,0:0:0:0:
64,192,51628,1,0,0:0:0:0:
192,192,51922,1,0,0:0:0:0:
448,192,52216,1,0,0:0:0:0:
320,192,52216,1,0,0:0:0:0:
448,192,52510,1,0,0:0:0:0:
64,192,52510,1,0,0:0:0:0:
192,192,52804,1,0,0:0:0:0:
320,192,52951,1,0,0:0:0:0:
192,192,53098,1,0,0:0:0:0:
448,192,53098,1,0,0:0:0:0:
64,192,53392,1,0,0:0:0:0:
448,192,53686,1,0,0:0:0:0:
320,192,53686,1,0,0:0:0:0:
192,192,53980,1,0,0:0:0:0:
320,192,54128,1,0,0:0:0:0:
448,192,54275,1,0,0:0:0:0:
64,192,54275,1,0,0:0:0:0:
192,192,54569,1,0,0:0:0:0:
64,192,54863,1,0,0:0:0:0:
320,192,54863,1,0,0:0:0:0:
448,192,55157,1,0,0:0:0:0:
192,192,55304,1,0,0:0:0:0:
448,192,55451,1,0,0:0:0:0:
320,192,55451,1,0,0:0:0:0:
64,192,55745,1,0,0:0:0:0:
448,192,56039,1,0,0:0:0:0:
192,192,56039,1,0,0:0:0:0:
320,192,56333,1,0,0:0:0:0:
192,192,56480,1,0,0:0:0:0:
448,192,56628,1,0,0:0:0:0:
64,192,56628,1,0,0:0:0:0:
192,192,56922,1,0,0:0:0:0:
320,192,56922,1,0,0:0:0:0:
448,192,57216,1,0,0:0:0:0:
64,192,57216,1,0,0:0:0:0:
320,192,57510,1,0,0:0:0:0:
192,192,57657,1,0,0:0:0:0:
320,192,57804,1,0,0:0:0:0:
64,192,57804,1,0,0:0:0:0:
448,192,58098,1,0,0:0:0:0:
192,192,58392,1,0,0:0:0:0:
320,192,58392,1,0,0:0:0:0:
64,192,58686,1,0,0:0:0:0:
320,192,58833,1,0,0:0:0:0:
448,192,58980,1,0,0:0:0:0:
192,192,58980,1,0,0:0:0:0:
64,192,59275,1,0,0:0:0:0:
192,192,59569,1,0,0:0:0:0:
320,192,59569,1,0,0:0:0:0:
448,192,59863,1,0,0:0:0:0:
192,192,60010,1,0,0:0:0:0:
448,192,60157,1,0,0:0:0:0:
320,192,60157,1,0,0:0:0:0:
64,192,60451,1,0,0:0:0:0:
192,192,60745,1,0,0:0:0:0:
448,192,60745,1,0,0:0:0:0:
320,192,61039,1,0,0:0:0:0:
192,192,61113,1,0,0:0:0:0:
64,192,61186,1,0,0:0:0:0:
448,192,61333,1,0,0:0:0:0:
320,192,61407,1,0,0:0:0:0:
192,192,61480,1,0,0:0:0:0:
448,192,61628,1,0,0:0:0:0:
64,192,61628,1,0,0:0:0:0:
192,192,61922,1,0,0:0:0:0:
320,192,61922,1,0,0:0:0:0:
64,192,62216,1,0,0:0:0:0:
448,192,62363,1,0,0:0:0:0:
192,192,62510,1,0,0:0:0:0:
64,192,62510,1,0,0:0:0:0:
320,192,62804,1,0,0:0:0:0:
192,192,62951,1,0,0:0:0:0:
448,192,63098,1,0,0:0:0:0:
64,192,63098,1,0,0:0:0:0:
320,192,63392,1,0,0:0:0:0:
192,192,63539,1,0,0:0:0:0:
448,192,63686,1,0,0:0:0:0:
64,192,63686,1,0,0:0:0:0:
320,192,63833,1,0,0:0:0:0:
192,192,63980,1,0,0:0:0:0:
64,192,63980,1,0,0:0:0:0:
320,192,64275,1,0,0:0:0:0:
448,192,64422,1,0,0:0:0:0:
192,192,64569,1,0,0:0:0:0:
64,192,64716,1,0,0:0:0:0:
448,192,64863,1,0,0:0:0:0:
320,192,64863,1,0,0:0:0:0:
192,192,65304,1,0,0:0:0:0:
448,192,65451,1,0,0:0:0:0:
64,192,65451,1,0,0:0:0:0:
320,192,65745,1,0,0:0:0:0:
192,192,65892,1,0,0:0:0:0:
448,192,66039,1,0,0:0:0:0:
320,192,66039,1,0,0:0:0:0:
64,192,66333,1,0,0:0:0:0:
192,192,66333,1,0,0:0:0:0:
448,192,66628,1,0,0:0:0:0:
192,192,66628,1,0,0:0:0:0:
320,192,66922,1,0,0:0:0:0:
192,192,67069,1,0,0:0:0:0:
448,192,67216,1,0,0:0:0:0:
64,192,67216,1,0,0:0:0:0:
320,192,67510,1,0,0:0:0:0:
192,192,67510,1,0,0:0:0:0:
64,192,67804,1,0,0:0:0:0:
192,192,67804,1,0,0:0:0:0:
448,192,68098,1,0,0:0:0:0:
192,192,68245,1,0,0:0:0:0:
448,192,68392,1,0,0:0:0:0:
320,192,68392,1,0,0:0:0:0:
64,192,68686,1,0,0:0:0:0:
192,192,68686,1,0,0:0:0:0:
448,192,68833,1,0,0:0:0:0:
320,192,68980,1,0,0:0:0:0:
192,192,68980,1,0,0:0:0:0:
64,192,69128,1,0,0:0:0:0:
320,192,69275,1,0,0:0:0:0:
448,192,69422,1,0,0:0:0:0:
192,192,69569,1,0,0:0:0:0:
320,192,69716,1,0,0:0:0:0:
448,192,69863,1,0,0:0:0:0:
64,192,69863,1,0,0:0:0:0:
64,192,70157,1,0,0:0:0:0:
320,192,70157,1,0,0:0:0:0:
192,192,70451,1,0,0:0:0:0:
320,192,70525,1,0,0:0:0:0:
448,192,70598,1,0,0:0:0:0:
64,192,70745,1,0,0:0:0:0:
192,192,70819,1,0,0:0:0:0:
320,192,70892,1,0,0:0:0:0:
448,192,71039,1,0,0:0:0:0:
64,192,71039,1,0,0:0:0:0:
192,192,71333,1,0,0:0:0:0:
320,192,71333,1,0,0:0:0:0:
448,192,71628,1,0,0:0:0:0:
192,192,71775,1,0,0:0:0:0:
320,192,71922,1,0,0:0:0:0:
448,192,71922,1,0,0:0:0:0:
64,192,72069,1,0,0:0:0:0:
192,192,72069,1,0,0:0:0:0:
320,192,72363,1,0,0:0:0:0:
448,192,72510,1,0,0:0:0:0:
64,192,72510,1,0,0:0:0:0:
192,192,72804,1,0,0:0:0:0:
448,192,72951,1,0,0:0:0:0:
64,192,73098,1,0,0:0:0:0:
320,192,73098,1,0,0:0:0:0:
448,192,73245,1,0,0:0:0:0:
192,192,73245,1,0,0:0:0:0:
320,192,73539,1,0,0:0:0:0:
192,192,73686,1,0,0:0:0:0:
64,192,73686,1,0,0:0:0:0:
448,192,73980,1,0,0:0:0:0:
320,192,74128,1,0,0:0:0:0:
64,192,74275,1,0,0:0:0:0:
192,192,74275,1,0,0:0:0:0:
320,192,74422,1,0,0:0:0:0:
448,192,74422,1,0,0:0:0:0:
64,192,74716,1,0,0:0:0:0:
448,192,74863,1,0,0:0:0:0:
192,192,74863,1,0,0:0:0:0:
320,192,75157,1,0,0:0:0:0:
192,192,75304,1,0,0:0:0:0:
448,192,75451,1,0,0:0:0:0:
64,192,75451,1,0,0:0:0:0:
192,192,75598,1,0,0:0:0:0:
320,192,75598,1,0,0:0:0:0:
64,192,75892,1,0,0:0:0:0:
448,192,76039,1,0,0:0:0:0:
192,192,76039,1,0,0:0:0:0:
320,192,76333,1,0,0:0:0:0:
448,192,76480,1,0,0:0:0:0:
192,192,76628,1,0,0:0:0:0:
64,192,76628,1,0,0:0:0:0:
448,192,76775,1,0,0:0:0:0:
320,192,76775,1,0,0:0:0:0:
192,192,77069,1,0,0:0:0:0:
448,192,77216,1,0,0:0:0:0:
64,192,77216,1,0,0:0:0:0:
320,192,77510,1,0,0:0:0:0:
192,192,77657,1,0,0:0:0:0:
448,192,77804,1,0,0:0:0:0:
64,192,77804,1,0,0:0:0:0:
320,192,77951,1,0,0:0:0:0:
192,192,77951,1,0,0:0:0:0:
320,192,78245,1,0,0:0:0:0:
64,192,78245,1,0,0:0:0:0:
192,192,78539,1,0,0:0:0:0:
448,192,78686,1,0,0:0:0:0:
64,192,78686,1,0,0:0:0:0:
320,192,78980,1,0,0:0:0:0:
192,192,79128,1,0,0:0:0:0:
448,192,79128,1,0,0:0:0:0:
320,192,79422,1,0,0:0:0:0:
64,192,79569,1,0,0:0:0:0:
192,192,79569,1,0,0:0:0:0:
320,192,79863,1,0,0:0:0:0:
192,192,79936,1,0,0:0:0:0:
64,192,80010,1,0,0:0:0:0:
448,192,80083,1,0,0:0:0:0:
320,192,80157,1,0,0:0:0:0:
448,192,80451,1,0,0:0:0:0:
64,192,80451,1,0,0:0:0:0:
320,192,80745,1,0,0:0:0:0:
192,192,80745,1,0,0:0:0:0:
448,192,80892,1,0,0:0:0:0:
64,192,81039,1,0,0:0:0:0:
192,192,81039,1,0,0:0:0:0:
320,192,81186,1,0,0:0:0:0:
192,192,81333,1,0,0:0:0:0:
448,192,81333,1,0,0:0:0:0:
448,192,81628,1,0,0:0:0:0:
64,192,81628,1,0,0:0:0:0:
192,192,81922,1,0,0:0:0:0:
320,192,81922,1,0,0:0:0:0:
448,192,82069,1,0,0:0:0:0:
64,192,82216,1,0,0:0:0:0:
192,192,82216,1,0,0:0:0:0:
320,192,82363,1,0,0:0:0:0:
448,192,82510,1,0,0:0:0:0:
64,192,82510,1,0,0:0:0:0:
64,192,82804,1,0,0:0:0:0:
192,192,82804,1,0,0:0:0:0:
448,192,83098,1,0,0:0:0:0:
320,192,83098,1,0,0:0:0:0:
192,192,83245,1,0,0:0:0:0:
448,192,83392,1,0,0:0:0:0:
64,192,83392,1,0,0:0:0:0:
320,192,83539,1,0,0:0:0:0:
64,192,83686,1,0,0:0:0:0:
192,192,83686,1,0,0:0:0:0:
448,192,83980,1,0,0:0:0:0:
192,192,83980,1,0,0:0:0:0:
64,192,84275,1,0,0:0:0:0:
320,192,84275,1,0,0:0:0:0:
448,192,84422,1,0,0:0:0:0:
192,192,84569,1,0,0:0:0:0:
320,192,84569,1,0,0:0:0:0:
64,192,84716,1,0,0:0:0:0:
320,192,84863,1,0,0:0:0:0:
448,192,84863,1,0,0:0:0:0:
448,192,85157,1,0,0:0:0:0:
64,192,85157,1,0,0:0:0:0:
320,192,85451,1,0,0:0:0:0:
192,192,85451,1,0,0:0:0:0:
64,192,85598,1,0,0:0:0:0:
192,192,85745,1,0,0:0:0:0:
448,192,85745,1,0,0:0:0:0:
320,192,85892,1,0,0:0:0:0:
64,192,86039,1,0,0:0:0:0:
448,192,86039,1,0,0:0:0:0:
448,192,86333,1,0,0:0:0:0:
320,192,86333,1,0,0:0:0:0:
64,192,86628,1,0,0:0:0:0:
320,192,86628,1,0,0:0:0:0:
192,192,86775,1,0,0:0:0:0:
448,192,86922,1,0,0:0:0:0:
64,192,86922,1,0,0:0:0:0:
320,192,87069,1,0,0:0:0:0:
64,192,87216,1,0,0:0:0:0:
192,192,87216,1,0,0:0:0:0:
448,192,87510,1,0,0:0:0:0:
192,192,87510,1,0,0:0:0:0:
64,192,87804,1,0,0:0:0:0:
320,192,87804,1,0,0:0:0:0:
192,192,87951,1,0,0:0:0:0:
64,192,88098,1,0,0:0:0:0:
448,192,88098,1,0,0:0:0:0:
320,192,88245,1,0,0:0:0:0:
192,192,88392,1,0,0:0:0:0:
448,192,88539,1,0,0:0:0:0:
64,192,88539,1,0,0:0:0:0:
320,192,88833,1,0,0:0:0:0:
192,192,88833,1,0,0:0:0:0:
448,192,89128,1,0,0:0:0:0:
64,192,89128,1,0,0:0:0:0:
