osu file format v14

[General]
AudioFilename: audio.mp3
AudioLeadIn: 0
PreviewTime: 44271
Countdown: 0
SampleSet: Normal
StackLeniency: 0.7
Mode: 0
LetterboxInBreaks: 0
EpilepsyWarning: 1
WidescreenStoryboard: 1

[Editor]
DistanceSpacing: 1.8
BeatDivisor: 4
GridSize: 4
TimelineZoom: 3.319998

[Metadata]
Title:HEROES (TV Size)
TitleUnicode:HEROES (TV Size)
Artist:Brian The Sun
ArtistUnicode:Brian The Sun
Creator:kanor
Version:Plus Ultra
Source:僕のヒーローアカデミア
Tags:a_point [Kurose Riku] Hey lululu Ryuusei Aika boku no my hero academia ヒロアカ heroaca ed ending
BeatmapID:1452709
BeatmapSetID:686414

[Difficulty]
HPDrainRate:6
CircleSize:4.2
OverallDifficulty:9
ApproachRate:9.3
SliderMultiplier:1.6
SliderTickRate:1

[Events]
//Background and Video events
0,0,"BG.jpg",0,0
//Break Periods
//Storyboard Layer 0 (Background)
//Storyboard Layer 1 (Fail)
//Storyboard Layer 2 (Pass)
//Storyboard Layer 3 (Foreground)
//Storyboard Sound Samples

[TimingPoints]
1241,303.030303030303,4,1,1,50,1,0
1241,-133.333333333333,4,1,1,50,0,0
10483,-100,4,1,1,50,0,0
10786,-100,4,1,1,10,0,0
10937,-100,4,1,1,50,0,0
15786,-111.111111111111,4,1,1,50,0,0
32983,-111.111111111111,4,1,1,10,0,0
33059,-111.111111111111,4,1,1,50,0,0
33286,-111.111111111111,4,1,1,10,0,0
33362,-111.111111111111,4,1,1,50,0,0
35180,-133.333333333333,4,1,1,50,0,0
39725,-200,4,1,1,50,0,0
40028,-111.111111111111,4,1,1,40,0,0
44271,-200,4,1,1,40,0,0
44725,-200,4,1,1,10,0,0
44877,-83.3333333333333,4,1,1,60,0,1
59044,-83.3333333333333,4,1,1,5,0,1
59119,-83.3333333333333,4,1,1,5,0,0
59422,-83.3333333333333,4,1,1,60,0,1
76392,-83.3333333333333,4,1,1,60,0,0

[Colours]
Combo1 : 192,64,192
Combo2 : 255,64,64
Combo3 : 255,128,64
Combo4 : 255,255,96
Combo5 : 96,255,64
Combo6 : 0,128,255

[HitObjects]
48,84,634,5,2,0:0:0:0:
144,52,786,5,2,0:0:0:0:
268,60,937,5,2,0:0:0:0:
412,120,1089,5,2,0:0:0:0:
484,272,1241,5,4,0:0:0:0:
488,308,2453,1,0,0:0:0:0:
256,348,3665,5,4,0:0:0:0:
256,320,4877,1,0,0:0:0:0:
24,304,6089,5,4,0:0:0:0:
28,280,7301,1,0,0:0:0:0:
20,92,8513,5,4,0:0:0:0:
32,64,9725,1,0,0:0:0:0:
48,32,10331,1,10,0:0:0:0:
220,132,10483,2,0,B|161:183|93:123|93:123|112:160,1,160,10|0,0:0|0:0,0:0:0:0:
160,72,10937,5,6,0:0:0:0:
88,240,11089,1,2,0:0:0:0:
100,260,11392,5,2,0:0:0:0:
100,260,11468,1,0,0:0:0:0:
100,260,11544,1,2,0:0:0:0:
166,376,11695,1,0,0:0:0:0:
190,281,11847,1,2,0:0:0:0:
70,350,11998,1,0,0:0:0:0:
352,360,12150,5,2,0:0:0:0:
280,192,12302,1,2,0:0:0:0:
268,168,12604,5,2,0:0:0:0:
268,168,12680,1,0,0:0:0:0:
268,168,12756,1,2,0:0:0:0:
454,117,12907,1,0,0:0:0:0:
384,234,13059,1,2,0:0:0:0:
332,48,13210,1,0,0:0:0:0:
292,256,13362,5,6,0:0:0:0:
144,104,13513,1,2,0:0:0:0:
368,148,13665,1,8,0:0:0:0:
164,228,13816,1,2,0:0:0:0:
256,144,13968,5,10,0:0:0:0:
224,112,14044,1,8,0:0:0:0:
256,81,14119,1,10,0:0:0:0:
287,112,14195,1,8,0:0:0:0:
244,123,14271,5,10,0:0:0:0:
244,100,14347,1,8,0:0:0:0:
266,101,14422,1,10,0:0:0:0:
266,123,14498,1,8,0:0:0:0:
256,112,14574,5,2,0:0:0:0:
180,304,14725,1,2,0:0:0:0:
180,304,15028,2,0,B|134:297|118:261|118:261|98:297|50:301,1,160,6|0,0:0|0:0,0:0:0:0:
192,232,15483,1,8,0:0:0:0:
227,237,15558,1,8,0:0:0:0:
263,241,15634,1,8,0:0:0:0:
299,245,15710,1,8,0:0:0:0:
335,251,15786,5,4,0:0:0:0:
335,251,16089,2,0,P|328:286|340:326,1,71.9999978027344,10|0,0:0|0:0,0:0:0:0:
484,320,16392,2,0,P|490:284|482:250,1,71.9999978027344,2|0,0:0|0:0,0:0:0:0:
408,280,16695,1,10,0:0:0:0:
408,280,16847,1,0,0:0:0:0:
440,120,16998,5,0,0:0:0:0:
440,120,17301,2,0,L|536:124,1,71.9999978027344,10|0,0:0|0:0,0:0:0:0:
372,176,17604,2,0,L|272:172,1,71.9999978027344,2|0,0:0|0:0,0:0:0:0:
224,208,17907,1,10,0:0:0:0:
224,208,18059,1,0,0:0:0:0:
164,48,18210,5,2,0:3:0:0:
164,48,18513,2,0,P|176:88|168:120,1,71.9999978027344,10|0,0:0|0:0,0:0:0:0:
20,128,18816,2,0,P|48:97|80:88,1,71.9999978027344,2|0,0:0|0:0,0:0:0:0:
160,204,19119,2,0,P|119:194|95:171,1,71.9999978027344,10|0,0:0|0:0,0:0:0:0:
244,172,19422,5,2,0:0:0:0:
200,320,19574,1,0,0:0:0:0:
52,288,19725,1,10,0:0:0:0:
128,284,19877,1,0,0:0:0:0:
296,244,20028,5,2,0:0:0:0:
220,248,20180,1,0,0:0:0:0:
350,327,20331,1,10,0:0:0:0:
394,179,20483,1,0,0:0:0:0:
419,330,20634,6,0,P|376:335|347:326,1,71.9999978027344,2|0,0:3|0:3,0:3:0:0:
496,368,20937,2,0,L|512:288,1,71.9999978027344,10|0,0:0|0:0,0:0:0:0:
384,208,21240,1,2,0:0:0:0:
472,224,21392,1,0,0:0:0:0:
356,212,21544,1,10,0:0:0:0:
488,144,21695,1,0,0:0:0:0:
320,80,21847,6,0,P|277:75|248:84,1,71.9999978027344,0|0,0:0|0:0,0:0:0:0:
188,216,22150,2,0,L|204:136,1,71.9999978027344,10|0,0:0|0:0,0:0:0:0:
80,208,22453,1,2,0:0:0:0:
96,296,22605,1,0,0:0:0:0:
84,180,22757,1,10,0:0:0:0:
16,312,22908,1,0,0:0:0:0:
188,216,23059,6,0,L|172:296,1,71.9999978027344,2|0,0:3|0:0,0:0:0:0:
296,344,23362,2,0,P|260:352|220:344,1,71.9999978027344,10|0,0:0|0:0,0:0:0:0:
344,212,23665,1,2,0:0:0:0:
361,289,23816,1,0,0:0:0:0:
412,160,23968,1,10,0:0:0:0:
436,312,24119,1,0,0:0:0:0:
284,264,24271,5,2,0:0:0:0:
424,236,24422,1,0,0:0:0:0:
268,188,24574,1,10,0:0:0:0:
332,132,24725,1,0,0:0:0:0:
208,244,24877,5,2,0:3:0:0:
248,108,25028,1,0,0:0:0:0:
132,220,25180,6,0,L|132:272,1,35.9999989013672,10|8,0:0|0:0,0:0:0:0:
56,200,25331,2,8,L|56:236,1,35.9999989013672
8,372,25483,6,0,P|3:336|15:303,1,71.9999978027344,4|0,0:0|0:0,0:0:0:0:
80,344,25786,1,10,0:0:0:0:
212,360,25937,1,0,0:0:0:0:
208,244,26089,2,0,P|220:277|215:312,1,71.9999978027344,2|0,0:0|0:0,0:0:0:0:
144,284,26392,1,10,0:0:0:0:
272,204,26544,1,0,0:0:0:0:
288,336,26695,6,0,P|328:348|376:320,1,71.9999978027344,0|0,0:0|0:0,0:0:0:0:
460,244,26998,2,0,P|420:232|372:260,1,71.9999978027344,10|0,0:0|0:0,0:0:0:0:
420,376,27301,2,0,P|432:336|404:288,1,71.9999978027344,2|0,0:0|0:0,0:0:0:0:
324,272,27604,1,10,0:0:0:0:
423,308,27756,1,0,0:0:0:0:
457,172,27907,6,0,L|461:272,1,71.9999978027344,2|0,0:3|0:0,0:0:0:0:
292,152,28210,2,0,P|332:140|372:152,1,71.9999978027344,10|0,0:0|0:0,0:0:0:0:
248,216,28513,1,2,0:0:0:0:
236,96,28665,1,0,0:0:0:0:
160,224,28816,1,10,0:0:0:0:
148,104,28968,1,0,0:0:0:0:
28,200,29119,6,0,P|84:188|132:212,1,107.999996704102,0|0,0:0|0:0,0:0:0:0:
160,224,29422,2,0,L|160:316,1,71.9999978027344,10|0,0:0|0:0,0:0:0:0:
0,344,29725,5,2,0:0:0:0:
72,264,29877,1,0,0:0:0:0:
200,352,30028,2,0,P|164:368|116:344,1,71.9999978027344,10|0,0:0|0:0,0:0:0:0:
260,224,30331,6,0,L|260:316,1,71.9999978027344,2|0,0:3|0:0,0:0:0:0:
380,360,30634,2,0,P|336:364|304:352,1,71.9999978027344,10|0,0:0|0:0,0:0:0:0:
452,176,30937,1,2,0:0:0:0:
440,296,31089,1,0,0:0:0:0:
364,168,31240,1,10,0:0:0:0:
352,288,31392,1,0,0:0:0:0:
332,96,31544,6,0,P|376:92|408:104,1,71.9999978027344,0|0,0:0|0:0,0:0:0:0:
256,72,31847,2,0,L|260:36,1,35.9999989013672,10|0,0:0|0:0,0:0:0:0:
116,152,31998,1,0,0:0:0:0:
96,152,32150,6,0,L|91:116,1,35.9999989013672,10|0,0:0|0:0,0:0:0:0:
236,200,32301,1,0,0:0:0:0:
256,204,32453,6,0,L|260:168,1,35.9999989013672,10|0,0:0|0:0,0:0:0:0:
92,268,32604,1,0,0:0:0:0:
72,268,32756,6,0,B|81:320|81:320|68:380,1,107.999996704102,10|0,0:0|0:0,0:0:0:0:
52,372,33059,2,0,B|63:318|63:318|54:266,1,107.999996704102,10|0,0:0|0:0,0:0:0:0:
24,196,33362,1,2,0:0:0:0:
36,368,33513,1,2,0:0:0:0:
264,356,33816,6,0,B|312:356|312:356|360:372|360:372|420:372,1,143.999995605469,10|2,0:0|0:0,0:0:0:0:
480,316,34195,1,0,0:0:0:0:
480,316,34271,2,0,L|484:256,1,35.9999989013672,10|8,0:0|0:0,0:0:0:0:
392,248,34422,2,0,L|394:283,1,35.9999989013672,2|0,0:0|0:0,0:0:0:0:
456,184,34574,5,2,0:0:0:0:
312,272,34725,1,2,0:0:0:0:
231,127,34877,1,2,0:0:0:0:
352,180,35028,1,2,0:0:0:0:
164,84,35180,5,6,0:0:0:0:
164,84,35331,2,0,B|152:128|152:128|168:200,1,120.000004577637,0|8,0:0|0:0,0:0:0:0:
236,244,35786,1,0,0:0:0:0:
236,244,35937,2,0,B|248:200|248:200|232:128,1,120.000004577637,8|0,0:0|0:0,0:0:0:0:
88,84,36392,6,0,L|24:68,1,60.0000022888184,2|0,0:0|0:0,0:0:0:0:
72,104,36695,2,0,L|8:88,1,60.0000022888184,2|8,0:0|0:0,0:0:0:0:
36,252,36998,2,0,L|100:236,1,60.0000022888184,2|0,0:0|0:0,0:0:0:0:
52,272,37301,2,0,L|116:256,1,60.0000022888184,10|0,0:0|0:0,0:0:0:0:
208,336,37604,5,0,0:0:0:0:
208,336,37756,2,0,B|172:320|172:320|84:344,1,120.000004577637,0|0,0:0|0:0,0:0:0:0:
304,336,38210,1,0,0:0:0:0:
304,336,38362,2,0,B|340:320|340:320|428:344,1,120.000004577637,0|0,0:0|0:0,0:0:0:0:
480,244,38816,6,0,P|488:276|480:308,1,60.0000022888184,2|0,0:0|0:0,0:0:0:0:
296,196,39119,2,0,P|288:228|296:260,1,60.0000022888184,2|8,0:0|0:0,0:0:0:0:
472,164,39422,1,0,0:0:0:0:
368,228,39574,1,2,0:0:0:0:
267,119,39725,6,0,L|339:119,1,60,14|0,0:0|0:0,0:0:0:0:
344,49,40028,6,0,L|320:153,1,71.9999978027344,4|0,0:0|0:0,0:0:0:0:
144,184,40331,2,0,B|176:196|176:196|224:180,1,71.9999978027344,10|0,0:0|0:0,0:0:0:0:
96,56,40634,1,0,0:0:0:0:
0,216,40786,1,0,0:0:0:0:
0,80,40937,1,2,0:0:0:0:
144,184,41089,6,0,L|140:260,1,71.9999978027344,8|2,0:0|0:0,0:0:0:0:
60,144,41392,1,0,0:0:0:0:
288,256,41544,2,0,L|284:180,1,71.9999978027344,10|0,0:0|0:0,0:0:0:0:
216,304,41847,5,2,0:0:0:0:
424,276,41998,1,0,0:0:0:0:
344,132,42150,1,10,0:0:0:0:
348,352,42301,1,0,0:0:0:0:
216,148,42453,5,2,0:0:0:0:
472,112,42604,1,0,0:0:0:0:
252,0,42756,5,10,0:0:0:0:
288,256,42907,1,0,0:0:0:0:
160,96,43059,5,10,0:0:0:0:
416,60,43210,1,0,0:0:0:0:
272,336,43362,5,10,0:0:0:0:
236,76,43513,1,0,0:0:0:0:
102,284,43665,5,10,0:0:0:0:
72,294,43741,1,8,0:0:0:0:
59,263,43816,1,10,0:0:0:0:
90,250,43892,1,8,0:0:0:0:
98,318,43968,5,10,0:0:0:0:
38,289,44044,1,8,0:0:0:0:
66,228,44119,1,10,0:0:0:0:
128,258,44195,1,8,0:0:0:0:
82,275,44271,6,0,B|112:246|165:305|217:268,1,140,10|0,0:0|0:0,0:0:0:0:
452,128,44877,6,0,P|488:180|460:252,1,143.999995605469,4|0,0:0|0:0,0:0:0:0:
363,135,45180,2,0,P|401:116|471:147,1,95.9999970703126,8|2,0:0|0:0,0:0:0:0:
320,276,45483,1,0,0:0:0:0:
284,104,45634,1,2,0:0:0:0:
124,220,45786,1,8,0:0:0:0:
300,192,45937,1,2,0:0:0:0:
68,44,46089,6,0,P|32:96|60:168,1,143.999995605469,0|0,0:0|0:0,0:0:0:0:
284,104,46392,1,8,0:0:0:0:
116,108,46544,1,2,0:0:0:0:
216,252,46695,1,0,0:0:0:0:
196,60,46847,1,2,0:0:0:0:
44,244,46998,1,8,0:0:0:0:
248,324,47150,1,2,0:0:0:0:
248,324,47225,1,0,0:0:0:0:
248,324,47301,6,0,P|184:324|152:300,1,95.9999970703126,0|0,0:0|0:0,0:0:0:0:
204,152,47604,5,10,0:0:0:0:
332,296,47756,1,0,0:0:0:0:
332,296,47831,1,0,0:0:0:0:
332,296,47907,2,0,B|332:348|332:348|292:404,1,95.9999970703126,0|0,0:0|0:0,0:0:0:0:
158,307,48210,1,10,0:0:0:0:
200,108,48362,1,0,0:0:0:0:
200,108,48437,1,0,0:0:0:0:
200,108,48513,5,2,0:0:0:0:
392,232,48665,1,0,0:0:0:0:
488,96,48816,1,10,0:0:0:0:
296,220,48968,1,0,0:0:0:0:
208,8,49119,5,2,0:0:0:0:
400,132,49271,1,2,0:0:0:0:
140,164,49422,2,0,P|120:108|136:60,1,95.9999970703126,10|2,0:0|0:0,0:0:0:0:
32,96,49650,1,0,0:0:0:0:
32,96,49725,6,0,B|64:188|64:188|16:160,1,143.999995605469,4|0,0:0|0:0,0:0:0:0:
140,252,50028,2,0,B|112:242|112:242|128:320,1,95.9999970703126,8|2,0:0|0:0,0:0:0:0:
256,296,50331,1,0,0:0:0:0:
56,360,50483,1,2,0:0:0:0:
244,380,50634,1,8,0:0:0:0:
40,280,50786,1,2,0:0:0:0:
268,212,50937,6,0,B|324:212|324:212|360:192|360:192|432:192,1,143.999995605469,0|0,0:0|0:0,0:0:0:0:
512,352,51241,1,8,0:0:0:0:
380,280,51393,1,2,0:0:0:0:
512,196,51544,1,0,0:0:0:0:
388,316,51695,1,2,0:0:0:0:
300,136,51847,1,8,0:0:0:0:
256,296,51999,1,2,0:0:0:0:
256,296,52074,1,0,0:0:0:0:
256,296,52150,6,0,P|201:286|164:300,1,95.9999970703126,0|0,0:0|0:0,0:0:0:0:
312,352,52453,1,10,0:0:0:0:
128,224,52604,1,0,0:0:0:0:
128,224,52680,1,0,0:0:0:0:
128,224,52756,2,0,B|91:260|91:260|79:328,1,95.9999970703126,0|0,0:0|0:0,0:0:0:0:
256,296,53059,1,10,0:0:0:0:
264,128,53210,1,0,0:0:0:0:
264,128,53286,1,0,0:0:0:0:
264,128,53362,5,2,0:0:0:0:
164,299,53514,1,0,0:0:0:0:
264,96,53665,1,10,0:0:0:0:
348,267,53817,1,0,0:0:0:0:
264,64,53968,5,2,0:0:0:0:
264,96,54119,1,2,0:0:0:0:
264,128,54271,1,10,0:0:0:0:
264,156,54422,1,2,0:0:0:0:
264,184,54574,6,0,L|264:28,1,143.999995605469,4|0,0:0|0:0,0:0:0:0:
420,24,54877,2,0,P|374:-1|314:15,1,95.9999970703126,8|2,0:0|0:0,0:0:0:0:
344,216,55180,1,0,0:0:0:0:
344,216,55331,1,2,0:0:0:0:
452,92,55483,2,0,P|406:67|346:83,1,95.9999970703126,10|0,0:0|0:0,0:0:0:0:
376,296,55786,5,0,0:0:0:0:
376,296,55937,1,2,0:0:0:0:
484,160,56089,2,0,P|438:135|378:151,1,95.9999970703126,10|0,0:0|0:0,0:0:0:0:
412,376,56392,1,0,0:0:0:0:
428,208,56544,1,2,0:0:0:0:
324,368,56695,1,8,0:0:0:0:
308,160,56847,1,2,0:0:0:0:
308,160,56922,1,0,0:0:0:0:
308,160,56998,6,0,P|354:135|414:151,1,95.9999970703126,0|0,0:0|0:0,0:0:0:0:
288,292,57301,2,0,P|247:315|200:311,1,95.9999970703126,8|2,0:0|0:0,0:0:0:0:
192,112,57604,1,0,0:0:0:0:
228,240,57756,1,2,0:0:0:0:
272,80,57907,1,8,0:0:0:0:
108,232,58059,1,2,0:0:0:0:
108,232,58134,1,0,0:0:0:0:
108,232,58210,6,0,L|184:264,1,47.9999985351563,10|0,0:0|0:0,0:0:0:0:
147,130,58362,2,0,L|223:98,1,47.9999985351563,0|0,0:0|0:0,0:0:0:0:
228,240,58513,2,0,L|304:272,1,47.9999985351563,10|0,0:0|0:0,0:0:0:0:
272,80,58665,2,0,L|348:48,1,47.9999985351563,0|0,0:0|0:0,0:0:0:0:
352,248,58816,2,0,L|428:280,1,47.9999985351563,10|0,0:0|0:0,0:0:0:0:
392,32,58968,2,0,L|468:0,1,47.9999985351563,10|0,0:0|0:0,0:0:0:0:
436,13,59422,6,0,P|472:65|444:137,1,143.999995605469,4|0,0:0|0:0,0:0:0:0:
280,168,59725,2,0,P|318:149|388:180,1,95.9999970703126,8|2,0:0|0:0,0:0:0:0:
480,304,60028,1,0,0:0:0:0:
445,135,60179,1,2,0:0:0:0:
295,265,60331,1,8,0:0:0:0:
472,216,60482,1,2,0:0:0:0:
256,200,60634,6,0,P|220:252|248:324,1,143.999995605469,0|0,0:0|0:0,0:0:0:0:
448,376,60937,1,8,0:0:0:0:
295,265,61089,1,2,0:0:0:0:
96,352,61240,1,0,0:0:0:0:
140,152,61392,1,2,0:0:0:0:
176,368,61543,1,8,0:0:0:0:
50,135,61695,1,2,0:0:0:0:
50,135,61770,1,0,0:0:0:0:
50,135,61846,6,0,P|114:135|146:159,1,95.9999970703126,0|0,0:0|0:0,0:0:0:0:
16,336,62150,1,10,0:0:0:0:
216,128,62301,1,0,0:0:0:0:
216,128,62376,1,0,0:0:0:0:
216,128,62452,2,0,B|216:180|216:180|176:236,1,95.9999970703126,0|0,0:0|0:0,0:0:0:0:
0,260,62756,1,10,0:0:0:0:
156,64,62907,1,0,0:0:0:0:
156,64,62982,1,0,0:0:0:0:
156,64,63059,5,2,0:0:0:0:
348,188,63210,1,0,0:0:0:0:
444,20,63362,1,10,0:0:0:0:
340,211,63513,1,0,0:0:0:0:
272,0,63665,5,2,0:0:0:0:
331,235,63817,1,2,0:0:0:0:
512,132,63967,2,0,P|495:170|495:226,1,95.9999970703126,10|2,0:0|0:0,0:0:0:0:
512,316,64195,1,0,0:0:0:0:
512,316,64270,6,0,B|420:284|420:284|448:332,1,143.999995605469,4|0,0:0|0:0,0:0:0:0:
256,276,64574,2,0,B|327:245|327:245|315:301,1,95.9999970703126,8|2,0:0|0:0,0:0:0:0:
220,356,64876,1,0,0:0:0:0:
301,170,65028,1,2,0:0:0:0:
304,356,65180,1,8,0:0:0:0:
216,184,65331,1,2,0:0:0:0:
144,384,65482,6,0,B|144:337|144:337|164:301|164:301|164:245,1,143.999995605469,0|0,0:0|0:0,0:0:0:0:
40,84,65786,1,8,0:0:0:0:
94,275,65938,1,2,0:0:0:0:
126,51,66089,1,0,0:0:0:0:
32,224,66240,1,2,0:0:0:0:
199,108,66392,1,8,0:0:0:0:
323,263,66544,1,2,0:0:0:0:
323,263,66619,1,0,0:0:0:0:
323,263,66695,6,0,P|277:277|231:266,1,95.9999970703126,0|0,0:0|0:0,0:0:0:0:
300,76,66998,1,10,0:0:0:0:
408,292,67149,1,0,0:0:0:0:
408,292,67225,1,0,0:0:0:0:
408,292,67301,2,0,B|371:328|371:328|359:396,1,95.9999970703126,0|0,0:0|0:0,0:0:0:0:
480,248,67604,1,10,0:0:0:0:
292,168,67755,1,0,0:0:0:0:
292,168,67831,1,0,0:0:0:0:
292,168,67907,5,2,0:0:0:0:
463,68,68059,1,0,0:0:0:0:
268,156,68210,1,10,0:0:0:0:
486,151,68362,1,0,0:0:0:0:
236,108,68513,5,2,0:0:0:0:
248,136,68664,1,2,0:0:0:0:
268,156,68816,1,10,0:0:0:0:
292,168,68967,1,2,0:0:0:0:
320,172,69119,6,0,P|252:144|236:80,1,143.999995605469,4|0,0:0|0:0,0:0:0:0:
320,0,69422,2,0,L|312:104,1,95.9999970703126,8|2,0:0|0:0,0:0:0:0:
13,51,69725,1,0,0:0:0:0:
160,105,69877,1,2,0:0:0:0:
60,152,70028,1,8,0:0:0:0:
113,5,70180,1,2,0:0:0:0:
24,224,70331,6,0,P|76:188|152:216,1,143.999995605469,4|0,0:0|0:0,0:0:0:0:
92,352,70634,2,0,P|77:309|97:257,1,95.9999970703126,8|2,0:0|0:0,0:0:0:0:
267,156,70937,1,0,0:0:0:0:
203,332,71089,1,2,0:0:0:0:
147,211,71240,1,8,0:0:0:0:
323,276,71392,1,2,0:0:0:0:
316,100,71544,6,0,P|272:80|220:96,1,95.9999970703126,14|0,0:0|0:0,0:0:0:0:
269,203,71771,1,0,0:0:0:0:
269,203,71847,2,0,L|265:131,1,47.9999985351563,10|0,0:0|0:0,0:0:0:0:
323,276,71998,2,0,L|395:272,1,47.9999985351563,0|0,0:0|0:0,0:0:0:0:
203,332,72150,6,0,P|159:352|107:336,1,95.9999970703126,10|0,0:0|0:0,0:0:0:0:
151,228,72377,1,0,0:0:0:0:
151,228,72453,2,0,L|147:300,1,47.9999985351563,10|0,0:0|0:0,0:0:0:0:
40,168,72604,2,0,L|112:172,1,47.9999985351563,0|0,0:0|0:0,0:0:0:0:
180,96,72756,6,0,L|176:168,1,47.9999985351563,14|0,0:0|0:0,0:0:0:0:
80,25,72907,2,0,L|128:28,1,47.9999985351563,0|0,0:0|0:0,0:0:0:0:
252,148,73059,6,0,L|223:214,1,47.9999985351563,10|0,0:0|0:0,0:0:0:0:
144,0,73210,2,0,L|188:18,1,47.9999985351563,0|0,0:0|0:0,0:0:0:0:
296,232,73362,6,0,L|238:275,1,47.9999985351563,10|0,0:0|0:0,0:0:0:0:
232,0,73513,2,0,L|260:38,1,47.9999985351563,2|0,0:0|0:0,0:0:0:0:
376,104,73665,6,0,B|352:148|352:148|380:200,1,95.9999970703126,10|2,0:0|0:0,0:0:0:0:
436,244,73892,1,0,0:0:0:0:
512,288,73968,6,0,L|364:284,1,143.999995605469,14|0,0:0|0:0,0:0:0:0:
240,352,74271,2,0,B|284:328|284:328|336:356,1,95.9999970703126,10|0,0:0|0:0,0:0:0:0:
165,352,74498,1,8,0:0:0:0:
165,352,74574,5,10,0:0:0:0:
70,165,74725,1,2,0:0:0:0:
257,260,74877,1,10,0:0:0:0:
50,293,75028,1,2,0:0:0:0:
198,144,75180,1,10,0:0:0:0:
198,144,75483,5,14,0:0:0:0:
198,144,76089,1,8,0:0:0:0:
239,169,76164,1,8,0:0:0:0:
286,176,76240,1,8,0:0:0:0:
332,166,76316,1,8,0:0:0:0:
372,140,76392,6,0,L|384:304,1,143.999995605469,4|0,0:0|0:0,0:0:0:0:
456,244,76695,2,0,L|448:148,1,95.9999970703126,10|0,0:0|0:0,0:0:0:0:
252,16,76998,1,2,0:0:0:0:
432,64,77150,1,0,0:0:0:0:
348,20,77301,1,2,0:0:0:0:
180,64,77453,6,0,B|172:128|172:128|192:180|192:180|184:256,1,191.999994140625,10|0,0:0|0:0,0:0:0:0:
184,251,77907,1,2,0:0:0:0:
252,120,78059,1,8,0:0:0:0:
252,120,78134,1,8,0:0:0:0:
252,120,78210,5,10,0:0:0:0:
108,188,78362,1,8,0:0:0:0:
272,200,78513,1,2,0:0:0:0:
292,276,78665,1,2,0:0:0:0:
312,352,78816,5,6,0:0:0:0:
292,276,78968,1,0,0:0:0:0:
272,200,79119,1,0,0:0:0:0:
312,352,79271,5,8,0:0:0:0:
252,120,79574,1,0,0:0:0:0:
312,352,79725,5,8,0:0:0:0:
312,352,80179,1,8,0:0:0:0:
190,276,80331,1,0,0:0:0:0:
317,208,80483,1,0,0:0:0:0:
200,382,80634,5,8,0:0:0:0:
4,260,80786,1,0,0:0:0:0:
207,151,80938,1,0,0:0:0:0:
104,336,81089,1,0,0:0:0:0:
104,336,81165,1,0,0:0:0:0:
104,336,81240,5,4,0:0:0:0:
112,257,81392,1,0,0:0:0:0:
119,179,81543,1,0,0:0:0:0:
104,336,81695,5,8,0:0:0:0:
127,97,81998,1,0,0:0:0:0:
104,336,82150,5,4,0:0:0:0:
104,336,82604,5,8,0:0:0:0:
208,296,82756,1,0,0:0:0:0:
312,344,82908,1,0,0:0:0:0:
496,232,83059,5,8,0:0:0:0:
297,168,83211,1,0,0:0:0:0:
297,168,83286,1,0,0:0:0:0:
297,168,83362,1,0,0:0:0:0:
411,158,83513,1,0,0:0:0:0:
208,16,83665,5,4,0:0:0:0:
180,184,83816,1,0,0:0:0:0:
208,16,83968,1,0,0:0:0:0:
44,208,84119,5,8,0:0:0:0:
16,40,84271,1,0,0:0:0:0:
44,208,84422,1,0,0:0:0:0:
196,100,84574,5,12,0:0:0:0:
108,68,84877,5,0,0:0:0:0:
196,100,85028,1,8,0:0:0:0:
44,208,85180,1,4,0:0:0:0:
28,120,85331,1,0,0:0:0:0:
276,136,85483,5,8,0:0:0:0:
60,292,85634,1,0,0:0:0:0:
16,40,85786,1,0,0:0:0:0:
200,188,85937,1,0,0:0:0:0:
200,188,86013,1,0,0:0:0:0:
200,188,86089,5,4,0:0:0:0:
348,92,86240,1,0,0:0:0:0:
188,16,86392,1,8,0:0:0:0:
212,268,86544,5,4,0:0:0:0:
268,52,86847,1,0,0:0:0:0:
212,268,86998,5,8,0:0:0:0:
304,360,87301,5,0,0:0:0:0:
399,173,87452,1,8,0:0:0:0:
212,268,87604,1,8,0:0:0:0:
419,301,87755,1,8,0:0:0:0:
271,152,87907,1,10,0:0:0:0:
